#VERSION:0.83;
#TITLE:abstract;
#SUBTITLE:;
#ARTIST:TaQ;
#TITLETRANSLIT:;
#SUBTITLETRANSLIT:;
#ARTISTTRANSLIT:;
#GENRE:;
#CREDIT:;
#MUSIC:abstract.ogg;
#BANNER:abstract.png;
#BACKGROUND:abstract-bg.png;
#CDTITLE:;
#SAMPLESTART:9.479;
#SAMPLELENGTH:15.000;
#SELECTABLE:YES;
#OFFSET:-0.359;
#BPMS:0.000=125.000;
#STOPS:182.250=1.319;
#TIMESIGNATURES:0.000=7=8,
7.000=4=4,
19.000=7=8,
29.500=6=8,
32.500=7=8,
43.000=4=4,
47.000=7=8,
57.500=6=8,
60.500=7=8,
71.000=5=16,
72.250=8=4,
80.250=7=4,
115.250=8=4,
123.250=4=4,
155.250=7=8,
165.750=6=8,
168.750=7=8,
179.250=6=8,
182.250=3=16,
183.000=7=8,
193.500=6=8,
196.500=7=8,
207.000=5=16,
208.250=8=4,
216.250=3=16,
217.000=4=4
;
#LABELS:72.250=Repeat,
80.250=Repeat End,
208.250=Repeat,
216.250=Repeat End
;
#BGCHANGES:0.000=abstract.avi=1.000=0=0=0=StretchNoLoop====,
99999.000=-nosongbg-=1.000=0=0=0=StretchNoLoop====
;
#FGCHANGES:;

//--------------- dance-single - ----------------
#NOTEDATA:;
#STEPSTYPE:dance-single;
#DESCRIPTION:;
#DIFFICULTY:Beginner;
#METER:7;
#RADARVALUES:0,0,0,0,0;
#NOTES:
0000
0000
0000
0000
,
0000
0000
0000
0000
,
0000
0000
0000
0001
,
0000
0000
0000
0000
,
0000
0000
0000
1001
,
1000
0000
0100
0000
0000
0010
0000
0001
,
0000
0100
0000
0000
0010
0000
1000
0000
,
0100
0000
0000
0010
0000
0001
0000
1000
,
0000
0001
0000
1000
0000
0010
0000
0000
,
0100
0000
0001
0000
0010
0000
0000
0100
,
0000
1000
0000
0010
0000
0000
0100
0000
,
0001
0000
0000
0000
0000
1000
0000
1000
0000
0000
0001
0000
1000
0000
0000
0000
,
0001
0000
0010
0000
0000
0100
0000
1000
,
0000
0010
0000
0000
0100
0000
0001
0000
,
0010
0000
0000
0100
0000
1000
0000
0001
,
0000
1000
0000
0001
0000
0100
0000
0000
,
0010
0000
1000
0000
0100
0000
0000
0010
,
0000
0001
0000
0100
0000
0000
0010
0000
,
0000
1000
0000
1000
0000
0000
0000
1000
0000
0000
0000
1000
0000
0000
0000
1000
,
0000
0000
0000
1000
0000
0000
0000
1000
0000
0000
0000
1000
0000
0000
0000
1000
,
0000
0001
0000
0000
0000
1000
0000
0000
0000
0000
0000
0000
0000
0001
0000
0000
,
0000
0000
0000
0000
0000
1000
0000
0000
0000
0000
0000
0001
0000
0000
0000
0000
,
0000
1000
0000
0000
0000
0000
0000
0000
0000
0001
0000
0000
0000
0000
0000
0000
,
0000
1000
0000
0000
0000
0000
0000
0001
0000
0000
0000
0000
0000
1000
0000
0000
,
0000
0100
0000
0000
0000
1000
0000
0000
0000
0100
0000
0000
0000
1000
0000
0000
,
0000
0000
0000
0000
0000
0000
0000
0000
0000
0001
0000
0000
0000
0100
0000
0000
,
0000
0001
0000
0000
0000
0100
0000
0000
0000
0000
0001
0000
1000
0000
0000
0000
,
0000
0000
0000
0000
0000
0001
0000
0000
0000
0010
0000
0000
0000
0001
0000
0000
,
0000
0010
0000
0000
0000
0001
0000
0000
0000
0000
0000
0000
0000
0000
0000
0000
,
0000
1000
0000
0000
0000
0010
0000
0000
0000
1000
0000
0000
0000
0010
0000
0000
,
0000
1000
0000
0001
0000
0000
0000
0000
0000
0000
0000
0000
0000
1000
0000
0000
,
0000
0100
0000
0000
0000
0010
0000
0000
0000
0001
0000
0000
0000
0000
0000
0100
,
0000
0000
0000
0000
0000
0010
0000
0000
0000
1000
0000
0000
0000
0001
0000
0000
,
0000
0010
0000
0000
0000
0100
0000
0000
0000
1000
0000
0000
0000
0000
0000
0010
,
0000
0000
0000
0100
0000
0000
0000
0001
0000
0000
0000
1000
0000
0000
0000
0100
,
0000
0000
0000
0010
0000
0000
0000
0001
0000
0000
0000
0000
0000
0000
0000
0100
,
0000
0000
0000
0000
0000
0010
0000
0000
0000
1000
0000
0000
0000
0001
0000
0000
,
0000
0000
0000
0000
,
0000
0000
0000
0000
0000
1000
0000
0000
0000
1001
0000
0000
0000
0001
0000
0000
,
0000
0010
0000
0000
0000
0100
0000
0000
0000
0000
0000
1000
0000
0000
0000
0010
,
0000
0000
0000
0100
0000
0000
0000
0001
0000
1000
0000
0000
0000
0100
0000
0000
,
0000
0010
0000
0000
0000
0000
0000
0001
0000
0000
0000
0100
0000
0000
0000
0010
,
0000
0000
0000
1000
0000
0000
0000
0010
0000
0000
0000
0100
0000
0000
0000
0000
,
0000
0001
0000
0000
0000
0010
0000
0000
0000
0100
0000
0000
0000
1000
0000
0001
,
0000
0000
0000
0100
0000
0000
0000
0010
0000
0000
0000
0000
0000
1000
0000
0000
,
0000
0100
0000
0000
0000
0010
0000
0000
0000
0001
0000
0000
1000
0000
0000
0000
,
0010
0000
0001
0000
0000
1000
0000
0100
,
0000
0001
0000
0000
0010
0000
1000
0000
,
0010
0000
0000
0001
0000
0100
0000
0010
,
1000
0001
0000
0010
0000
1000
0000
0000
,
0001
0000
0100
0000
1000
0000
0000
0010
,
0000
0001
0000
0000
1000
0000
0000
0100
0000
0000
0001
0000
1000
0000
0000
0000
,
0000
1000
0000
1000
0000
0000
0000
1000
0000
0000
0000
1000
0000
0000
0000
1000
,
0000
0000
0000
1000
0000
0000
0000
1000
0000
0000
0000
1000
0000
0000
0000
1000
,
0000
0001
0000
0000
1001
0000
0000
0000
0000
0000
0000
0000
0000
0000
0000
0000
;

//--------------- dance-single - ----------------
#NOTEDATA:;
#STEPSTYPE:dance-single;
#DESCRIPTION:;
#DIFFICULTY:Easy;
#METER:10;
#RADARVALUES:0,0,0,0,0;
#NOTES:
0000
0000
0000
0000
,
0000
0000
0000
0000
,
0000
0000
0000
0001
,
0000
0000
0000
0000
,
0000
0000
0000
1001
,
0001
0000
0100
0000
0010
1000
0000
0100
,
0000
0010
0000
0001
1000
0000
0010
0000
,
0100
0000
0001
0010
0000
0100
0000
1000
,
0001
1000
0000
0001
0000
0010
0000
0100
,
1000
0000
0010
0000
0100
0000
0001
1000
,
0000
0100
0000
0010
0000
0001
0100
0000
,
0010
0000
0000
0000
0000
1000
0000
1000
0000
0000
1000
0000
0001
0000
0000
0000
,
1000
0000
0010
0000
0100
0001
0000
0010
,
0000
0100
0000
1000
0001
0000
0100
0000
,
0010
0000
1000
0100
0000
0010
0000
0001
,
1000
0001
0000
1000
0000
0100
0000
0010
,
0001
0000
0100
0000
0010
0000
1000
0001
,
0000
0010
0000
0100
0000
1000
0001
0000
,
0000
1001
0000
1001
0000
0001
0000
0000
0000
0100
0000
0000
0000
0010
0000
0000
,
0000
1000
0000
0000
0000
0100
0000
0000
0000
0010
0000
0000
0000
0001
0000
1000
,
0000
0001
0000
0000
0000
1000
0000
0000
0100
0000
0100
0000
0000
1000
0000
0000
,
0010
0000
0010
0000
0000
1000
0000
0000
0001
0000
0000
0000
0000
1000
0000
0000
,
0000
0001
0000
0000
0100
0000
0100
0000
0000
0001
0000
0000
0010
0000
0010
0000
,
0000
0001
0000
0000
1000
0000
0000
0000
0000
0001
0000
0000
0000
1000
0000
0000
,
0000
0100
0000
0000
0000
0010
0000
0000
0001
0000
0000
0100
0000
0001
0000
0000
,
0000
0010
0000
0000
0000
0001
0000
0000
0000
1000
0000
0000
0000
0010
0000
0000
,
0000
0100
0000
0000
0001
0000
0000
0010
0000
0000
0001
0000
0001
0000
0000
0000
,
0000
1000
0000
0000
0000
0001
0000
0000
0000
0010
0000
0000
0000
0100
0000
0000
,
1000
0000
0000
0010
0000
1000
0000
0000
0000
0100
0000
0000
0000
1000
0000
0000
,
0000
0001
0000
0000
0000
0100
0000
0000
0000
0010
0000
0000
1000
0000
0000
0100
,
0000
1000
0000
1000
0000
0010
0000
0000
0000
0000
0000
0100
0000
0001
0000
0000
,
0000
0010
0000
0000
0000
0100
0000
0000
0000
0010
0000
0000
0001
0000
0000
1000
,
0000
0010
0000
0000
0000
0001
0000
0000
0000
0010
0000
0100
0000
0001
0000
0000
,
0000
0010
0000
0000
0000
0100
0000
0000
1000
0000
0000
0010
0000
0000
0000
1000
,
0000
0100
0000
0010
0000
0000
0000
0001
0000
0000
0000
1000
0000
0000
0000
0010
,
0000
0000
0000
0100
0000
0000
0000
0010
0000
1000
0000
0000
0100
0000
0000
0010
,
0000
1000
0000
0000
0000
0010
0000
0000
0000
0001
0000
0000
0000
1001
0000
0000
,
0000
0000
0000
0000
,
0000
0000
0000
0000
0000
0000
0000
0000
0000
1001
0000
0001
0000
1000
0000
0000
,
0000
0100
0000
0000
0000
0010
0000
0000
0000
1000
0000
0010
0000
0100
0000
1000
,
0000
0000
0000
0010
0000
0000
0000
0100
0000
0001
0000
0000
0000
0010
0000
0000
,
0000
0100
0000
0000
0000
0001
0000
0100
0000
0010
0000
0001
0000
0000
0000
1000
,
0000
0000
0000
0001
0000
0000
0000
0100
0000
0000
0000
0010
0000
0000
0000
0001
,
0000
0010
0000
0100
0000
0001
0000
0000
0000
0010
0000
0000
0000
0100
0000
1000
,
0000
0000
0000
0010
0000
0000
0000
0100
0000
0000
0000
1000
0000
0100
0000
0010
,
0000
1000
0000
0000
0000
0001
0000
0000
0000
1000
0000
0000
1001
0000
0000
0001
,
0000
0000
0100
0000
0000
0010
0000
0000
1000
0000
0100
0000
0000
0010
0000
0000
,
0001
0000
0000
1000
0000
0000
0010
0000
0100
0000
0000
0001
0000
0000
0010
0000
,
0000
0100
0000
0000
1000
0000
0010
0000
0000
0001
0000
0000
0010
0000
1000
0000
,
0001
0000
1000
0000
0000
0001
0000
0000
0010
0000
0000
0100
0000
0000
1000
0000
,
0010
0000
0000
0100
0000
0000
0001
0000
0000
1000
0000
0000
0100
0000
0010
0000
,
0000
1000
0000
0000
0001
0000
0000
0100
0000
0000
0010
0000
0001
0000
0000
0000
,
0000
1001
0000
1001
0000
0001
0000
0000
0000
0100
0000
0000
0000
0010
0000
0000
,
0000
1000
0000
0000
0000
0100
0000
0000
0000
0010
0000
0000
0000
0001
0000
1000
,
0000
0001
0000
0000
1001
0000
0000
0000
0000
0000
0000
0000
0000
0000
0000
0000
;

//--------------- dance-single - ----------------
#NOTEDATA:;
#STEPSTYPE:dance-single;
#DESCRIPTION:;
#DIFFICULTY:Medium;
#METER:14;
#RADARVALUES:0,0,0,0,0;
#NOTES:
0000
0000
0000
0000
,
0000
0000
0000
0000
,
0000
0000
0000
0001
,
0000
0000
0000
0000
,
0000
0000
0000
0000
0000
0000
1001
1000
,
0010
0000
0100
0000
0100
0000
0001
0000
0010
0100
1000
0000
0001
0000
0100
0000
,
0010
0000
1000
0000
0100
0000
0010
0100
1000
0000
0001
0000
0010
0000
0001
0000
,
1000
0000
0010
0000
0100
0010
1000
0000
0100
0000
0010
0000
0100
1000
0010
0100
,
0000
0001
1000
0000
0001
0000
0010
0000
0100
0000
0100
0000
1000
0000
0010
0100
,
0001
0000
1000
0000
0100
0000
0010
0000
0001
0000
0100
0000
0010
0100
0001
0000
,
1000
0000
0010
0000
1000
0000
0001
0000
0010
0000
0100
0010
0001
0000
0100
0000
,
0010
0000
1000
0000
0000
0110
0000
1001
0000
1000
0100
0010
0001
0000
0100
0000
,
1000
0000
0100
0000
0001
0000
1000
0000
0100
0010
0001
0000
0100
0000
1000
0000
,
0100
0000
0001
0000
1000
0000
0100
0010
0001
0000
0100
0000
1000
0000
0100
0000
,
0001
0000
1000
0000
0100
0010
0001
0000
0100
0000
1000
0000
0001
0010
0100
0000
,
0001
1000
0001
0000
1000
0000
0100
0000
0010
0000
0010
0000
0001
0000
0100
0010
,
1000
0000
0001
0000
0010
0000
0100
0000
1000
0000
0010
0000
0100
0010
1000
0000
,
0001
0000
0100
0000
0001
0000
1000
0000
0100
0000
0010
0100
1000
0000
0001
0000
,
0000
1001
0000
1001
0000
0010
0000
0010
0000
0010
0000
0010
0000
0010
0000
0010
,
0000
0010
0000
0010
0000
0010
0000
0010
0000
0010
0000
0010
0000
0010
0000
0100
,
1000
0001
0000
0000
0000
1000
0100
0000
0001
0000
0100
0000
0000
1000
0100
0000
,
0001
0000
0100
0000
0000
1000
0100
0000
0001
0000
0000
0100
1000
0001
0000
0000
,
0000
0001
0100
0000
1000
0000
0100
0000
0000
0001
0100
0000
1000
0000
0100
0000
,
0000
0001
0100
0000
1000
0000
0000
0100
0001
1000
0000
0100
0000
0010
0000
0001
,
0000
0100
0000
0000
0000
0010
0100
0000
0001
0000
0001
1000
0000
0100
0000
0010
,
0000
1000
0000
0010
0000
0001
0000
0100
0000
0010
0000
1000
0000
0100
0000
0000
,
0000
0010
0100
0000
1000
0000
1000
0001
0000
0100
0010
0000
0010
0100
0000
0001
,
0000
1000
0000
0010
0000
0100
0000
0001
0000
0010
0000
0000
0000
0100
0010
0000
,
0001
0000
0001
1000
0000
0010
0000
0100
0000
1000
0000
0100
0000
0001
0000
0010
,
0000
0100
0000
1000
0000
0010
0000
0000
0000
0100
0010
0000
1000
0000
1000
0001
,
0000
0110
0000
1001
0000
1000
0000
0010
0100
0000
0000
0001
1000
0001
0000
0010
,
0000
0100
0000
0001
0000
0100
0000
0000
0000
1000
0010
0000
0100
0000
1000
0100
,
0000
0010
0000
1000
0000
0100
0000
0010
0001
0000
0000
1000
0001
0100
0000
0010
,
0000
0001
0000
0010
0000
0100
0001
0000
0010
0000
0010
0100
0000
0000
1000
0000
,
0010
0100
0000
0001
0010
0000
0000
0001
1000
0010
0100
0000
0000
0010
0000
1000
,
0000
0100
0000
0001
0000
0100
0000
0000
0000
0010
0001
0000
0100
0000
0100
0010
,
0000
0001
0000
0010
0000
0100
0000
0001
1000
0100
0010
0000
0000
1001
0000
0000
,
0000
0001
0100
0000
0000
1000
0010
0000
0000
0001
0000
0000
1000
0000
0100
0010
,
0000
0001
0000
0000
0000
0100
0000
0010
0000
1000
0001
1000
0001
1000
0000
0100
,
0000
0001
0000
0100
0000
1000
0000
0010
0000
0100
0001
1000
0000
0100
0000
0010
,
0000
1000
0000
0010
0000
0100
0000
1000
0000
0001
0000
0100
0000
1000
0000
0100
,
0000
0001
0000
0010
0000
0100
1000
0001
0000
0100
0000
1000
0000
0001
0000
0010
,
0000
1000
0000
0001
0000
0010
0000
1000
0000
0010
0000
0001
0000
0100
0000
0010
,
1000
0001
0000
0010
0000
0100
0000
0001
0000
0100
0000
0010
0000
0001
0000
1000
,
0000
0010
0000
0001
0000
0010
0000
1000
0000
0100
0000
0010
0001
1000
0000
0010
,
0000
0001
0000
1000
0000
0100
0000
0001
0000
1000
0000
0000
1001
0000
0001
0000
,
0100
0000
1000
0000
0001
0000
0010
0000
1000
0100
1000
0000
0001
0000
0100
0000
,
1000
0000
0100
0000
0001
0000
1000
0100
0010
0000
0001
0000
0100
0000
0010
0000
,
0001
0000
0010
0000
0100
0001
1000
0000
0100
0000
0001
0000
0100
1000
0010
0100
,
0001
0010
0100
0000
1000
0000
0010
0000
0001
0000
1000
0000
0100
0000
0001
0010
,
0001
0000
1000
0000
0010
0000
0001
0000
0010
0000
1000
0000
0001
0010
0100
0000
,
1000
0010
0000
0001
1000
0000
0100
0001
0000
1000
0100
0010
0001
0100
0010
1000
,
0000
1001
0000
1001
0000
0010
0000
0010
0000
0010
0000
0010
0000
0010
0000
0010
,
0000
0010
0000
0010
0000
0010
0000
0010
0000
0010
0000
0010
0000
0010
0000
0100
,
1000
0001
1000
0000
1001
0000
0000
0000
0000
0000
0000
0000
0000
0000
0000
0000
;

//--------------- dance-single - ----------------
#NOTEDATA:;
#STEPSTYPE:dance-single;
#DESCRIPTION:;
#DIFFICULTY:Hard;
#METER:16;
#RADARVALUES:0,0,0,0,0;
#NOTES:
0000
0000
0000
0000
,
0000
0000
0000
0000
,
0000
0000
0000
0001
,
0000
0000
0000
0000
,
0000
0000
0000
0000
0000
0000
0000
0000
0000
0000
1000
0000
1001
0000
0001
0100
,
0001
0000
1000
0100
0010
0100
1000
0000
0001
0001
1000
0000
1000
0100
1000
0000
,
0001
0100
0010
0100
0001
0000
1000
1000
0001
0000
0001
0010
0001
0000
1000
0010
,
0100
0010
1000
0000
0001
0001
1000
0000
0100
0010
0100
0000
1000
0001
0100
0000
,
0010
1000
0001
0000
1000
0010
1000
0000
0001
0010
0100
0010
0001
0000
1000
1000
,
0001
0000
0001
0010
0001
0000
1000
0010
0100
0010
1000
0000
0001
0001
1000
0000
,
1000
0100
1000
0000
0001
0100
0010
0100
0001
0000
1000
1000
0001
0000
0010
0100
,
0010
0000
0001
1000
0000
1010
0000
0101
0000
0001
0010
0100
1000
0000
0010
0100
,
0010
0100
0010
1000
0001
0000
0010
0000
0100
0100
1000
0000
0010
0100
0010
0100
,
0001
1000
0100
0000
0010
0000
0001
0001
1000
0000
0010
0100
0010
1000
0001
0010
,
0100
0000
1000
0000
0001
0001
1000
0000
0010
0100
0001
1000
0100
0010
0100
0000
,
1000
0001
1000
0000
0001
0010
0001
0000
1000
0010
0100
0010
1000
0000
0001
0001
,
1000
0000
1000
0010
1000
0000
0001
0010
0100
0010
0001
0000
1000
1000
0001
0000
,
0001
0100
0001
0000
1000
0100
0010
0100
1000
0000
0001
0001
1000
0000
0010
0100
,
0001
1001
0000
1001
0000
0100
0000
0100
0000
0100
0000
0110
0000
0100
0010
0100
,
0000
0110
0000
0110
0000
0100
0000
0100
0010
0100
0000
0100
0010
0100
0000
0010
,
0010
1000
0000
0100
1000
0100
1000
0000
0001
0000
0001
0000
0100
1000
0100
0000
,
0001
0000
0001
0000
1000
0100
1000
0000
1001
0000
1000
0010
0100
0001
0000
0010
,
0001
0010
0001
0000
1000
0000
1000
0000
0010
0001
0010
0000
1000
0000
1000
0000
,
0001
0010
0001
0000
1001
0000
0001
0100
0010
1000
0000
0100
1000
0001
1000
0000
,
0010
0000
0010
0000
0100
0001
1000
0100
0010
0000
0010
0000
0001
1000
0010
0000
,
0100
0010
1000
0001
0010
0100
0000
0010
0001
1000
0001
0000
0100
0000
0100
0000
,
0010
1000
0001
0010
0100
0000
0100
0000
1000
0001
0100
0000
0110
0000
0000
0010
,
1000
0001
0000
0100
0001
1000
0001
0000
0010
0000
0010
0000
0100
1000
0001
0100
,
0010
0000
0010
0000
1000
0001
0010
0000
0100
0010
0001
1000
0010
0100
0000
0010
,
1000
0001
1000
0000
0100
0000
0100
0000
0010
0001
1000
0010
0100
0000
0100
0000
,
0001
0011
0000
1100
0000
1000
0010
0100
0001
0000
0010
0100
1000
0001
0000
0100
,
0010
0100
0001
0000
0010
1000
0010
0000
0100
0010
0000
0000
1000
0000
0010
0001
,
0000
1000
0010
0100
0001
0010
0001
1000
0010
0100
0000
1001
0000
0000
0000
0001
,
0010
0000
0100
0000
1000
0000
0001
0000
0000
0000
0100
0001
0100
0000
0000
0000
0010
0000
0000
0000
0001
0000
0000
0000
0010
0000
0000
0000
0000
0000
0100
0000
,
0000
0001
0010
0100
1000
0010
1000
0001
0010
0001
0000
1001
0000
1000
0100
1000
,
0000
0001
0100
0010
0100
0010
1000
0000
0100
0010
0000
0000
1000
0000
0010
0001
,
0000
0100
0010
1000
0001
0010
0001
1000
0100
0010
0001
1000
0000
1001
0001
1000
,
0001
1000
0001
1000
0001
1000
0001
1000
0001
1000
0001
1000
0001
1000
0001
1000
,
0001
1000
0001
1000
0001
1000
0001
1000
0010
0100
0010
0010
0010
0110
0000
0010
,
1000
0000
0001
0000
0010
0000
0001
0000
1000
0000
0010
0000
0100
0000
0001
0000
0000
0000
1000
0001
1000
0000
0100
0000
0010
0000
0100
0000
0010
0000
0100
0000
,
0000
1000
0001
0100
0010
0001
0000
0010
1000
1010
0000
1000
0001
0010
0100
0010
,
0001
0000
1000
0000
0010
0000
0100
0000
0000
0000
0010
1000
0010
0000
1000
0000
0001
0000
1000
0000
0001
0000
0010
0000
0000
0000
1000
0000
0010
0000
0001
0000
,
0000
0000
0010
0000
0100
0000
0110
0000
0000
0000
0010
0000
0001
0000
1000
0000
0010
0000
1000
0000
0001
0000
0010
0000
0100
0000
1000
0000
0000
0000
0001
1000
,
0001
0100
0010
0100
0010
0100
0000
0001
1000
0100
0010
1000
0000
0010
0001
0011
,
0000
0000
0001
0000
1000
0000
0010
0000
0100
0000
0010
0000
1000
0000
0001
0000
0010
0000
0100
0000
0000
0000
0010
0001
0010
0000
0001
0000
1000
0000
0001
0000
,
1000
0010
0000
0001
0010
1000
0100
0010
0001
1001
1000
0000
1001
0000
0001
0100
,
0010
0100
0001
1000
0100
0001
0100
0000
1000
1000
0001
0000
1000
0100
0010
0100
,
1000
0001
0100
1000
0100
0000
0001
0001
1000
0000
0001
0010
0100
0010
1000
0010
,
0100
0010
0001
0000
1000
1000
0010
0000
0100
0001
0010
0100
1000
0010
0001
1000
,
0100
0001
1000
0000
0001
0010
0100
0010
0001
1000
0010
0001
0010
0000
1000
1000
,
0001
0000
1000
0010
0100
0010
1000
0001
0010
1000
0010
0000
0001
0001
1000
0000
,
0001
0010
1000
0001
0100
1000
0010
0001
1000
0100
0001
0001
1000
0010
0100
0001
,
1000
1001
0000
1001
0000
0100
0000
0100
0000
0100
0000
0110
0000
0100
0010
0100
,
0000
0110
0000
0110
0000
0100
0000
0100
0010
0100
0000
0100
0010
0100
0000
0010
,
0010
1000
0100
0010
1001
0000
0000
0000
0000
0000
0000
0000
0000
0000
0000
0000
;

//--------------- dance-single - ----------------
#NOTEDATA:;
#STEPSTYPE:dance-single;
#DESCRIPTION:;
#DIFFICULTY:Challenge;
#METER:16;
#RADARVALUES:0,0,0,0,0;
#NOTES:
0000
0000
0000
0000
,
0000
0000
0000
0000
,
0000
0000
0000
0001
,
0000
0000
0000
0000
,
0000
0000
0000
0000
0000
0000
0000
0000
0000
0000
1000
0001
1001
0000
1000
0010
,
0100
0010
1000
0000
0001
0010
0100
0000
1000
1000
0010
0000
0001
0010
0100
0001
,
1000
0000
0100
0010
0001
0000
0100
0100
0010
0000
1000
0100
1000
0010
0100
0000
,
1000
0100
0010
0000
1000
1000
0001
0000
0010
0100
1000
0000
0010
0001
0010
0100
,
1000
0100
0001
0000
0001
0010
0100
0010
0001
0000
1000
0010
0100
0000
0001
0001
,
0010
0000
1000
0010
0100
1000
0001
0000
0100
0010
1000
0000
0100
0100
0010
0000
,
0001
0100
0001
0010
0100
0000
0001
0100
0010
0000
0001
0001
1000
0010
0001
0010
,
0100
0000
1000
0100
0001
1001
0000
1001
0000
1000
0100
0010
0001
0000
0100
0010
,
0001
0010
0100
0000
0001
0010
0100
0000
0001
0001
0100
0000
1000
0010
0100
0010
,
1000
0000
0100
1000
0010
0000
0100
0100
1000
0000
0100
0010
0001
0010
0100
0000
,
0001
0000
1001
0000
0001
0001
1000
0000
0010
0100
0001
0010
1000
0010
0001
1000
,
0010
0100
0001
0000
1000
0100
0010
0100
1000
0000
0001
0100
0010
0000
1000
1000
,
0100
0000
0001
0100
0010
0001
1000
0000
0010
0100
0001
0000
0010
0010
0100
0000
,
1000
0010
1000
0100
0010
0000
1000
0010
0100
0000
1000
1000
0001
0000
0100
0010
,
1000
1001
0000
1001
0000
1000
0010
0100
0001
0010
1000
0010
0100
0001
0100
1000
,
0010
0001
1000
0100
0001
0100
1000
0001
0010
0100
1000
0001
0010
0100
0001
1000
,
0100
1000
0000
0000
M010
0001
1000
0000
1000
0000
1000
0000
M010
0001
1000
0000
,
1000
0000
1000
0000
M010
0001
1000
0000
1100
0000
1000
0100
0010
0001
0000
0000
,
001M
1000
0001
0000
0001
0000
0001
0000
001M
1000
0001
0000
0001
0000
0001
0000
,
001M
1000
1001
0000
0101
0000
0001
0100
0010
1000
0000
M100
0001
1000
0100
0000
,
0010
1000
0010
0000
0001
1000
0010
0100
0001
0010
0100
1000
0000
0010
1000
0100
,
1000
0010
0100
0001
0010
0001
0000
001M
1000
0001
0010
0000
0100
0001
0100
0000
,
1000
0001
0100
0010
1000
0100
0010
0001
0000
0100
0101
0000
1001
0000
1000
0010
,
0100
0001
0000
010M
1000
0001
0100
0000
0010
0001
0010
0000
1000
0001
0010
0100
,
1000
0010
0100
0001
0000
0010
0001
0100
0001
0010
0100
1000
0010
1000
0000
M010
,
0001
1000
0010
0000
0100
1000
0100
0000
0001
1000
0100
0010
0001
0100
0010
1000
,
0000
1001
0000
1100
0000
1000
0010
0001
0010
1000
0000
0001
1000
0001
0000
001M
,
1000
0000
0001
0000
0100
0000
0000
0000
0001
0000
0010
0000
0001
0000
0000
0000
1000
0000
0100
1000
0100
0000
0000
0000
1000
0000
0010
0000
0100
0000
1000
0000
,
0000
0100
0010
0001
1000
0100
0001
0010
0100
1000
0000
1001
0000
0001
0010
0000
,
1000
0000
0010
0000
0001
0000
0000
0000
0000
0000
0100
0001
0100
0000
0001
0000
1000
0000
0100
0000
1000
0000
0010
0000
0000
0000
0000
0000
0100
0000
1000
0000
,
0000
0001
0010
0100
0001
0000
000M
0010
0100
0001
1000
1001
0000
M000
0100
0001
,
1000
0000
0100
0000
0010
0000
0000
0000
0001
0000
0100
0000
0001
0000
1000
0000
0000
0000
0010
1000
0010
0000
0000
0000
0100
0000
1000
0000
0100
0000
0010
0000
,
0000
0001
0010
0100
0010
1000
0001
0010
0100
1000
0001
1000
0000
1001
0000
1000
,
0100
0000
0010
0000
0001
0000
0000
0000
1000
0000
0010
0000
0100
0000
0000
0000
0001
0000
1000
0001
1000
0000
0000
0000
0001
0000
0100
0000
0010
0000
1000
0000
,
0000
0001
0010
0100
0010
0001
1000
0010
1000
0100
0010
0001
0001
1001
0000
1000
,
0010
0000
0100
0000
0001
0000
0010
0000
0100
0000
0001
0000
0100
0000
1000
0000
0000
0000
0010
0100
0001
0000
1000
0000
0100
0000
0001
0000
1000
0000
0010
0000
,
0000
0100
0001
0100
0010
1000
0000
0010
0001
1000
0000
0001
0100
0010
1000
0100
,
0010
0000
1000
0000
0010
0000
0001
0000
0000
0000
0100
0010
1000
0000
0001
0000
0010
0000
1000
0000
0001
0000
1000
0000
0100
0000
1000
0000
0010
0000
0001
0000
,
0000
0000
0100
0000
0010
0000
1000
0000
0000
0000
0001
0000
0010
0000
0100
0000
1000
0000
0010
0000
0100
0000
1000
0000
0100
0000
0001
0000
0000
0000
0010
0100
,
1000
0001
0100
1000
0001
0010
0000
0100
1000
0100
0010
0001
0000
0010
1000
0001
,
0000
0000
1000
0000
0100
0000
0010
0000
0001
0000
0100
0000
0010
0000
0001
0000
0010
0000
1000
0000
0000
0000
0100
0010
0001
0000
1000
0000
0010
0000
0001
0000
,
1000
0001
0100
0001
0010
1000
0000
0001
1000
1001
1000
0001
1001
0000
1000
0010
,
0100
0010
00M1
0000
0100
0010
1000
0000
0001
0001
1001
0000
0001
0010
0100
0010
,
10M0
0000
0100
0010
0001
0000
1000
1000
1001
0000
1000
0100
0010
0100
0M01
0000
,
0010
0100
1000
0000
0001
0001
1001
0000
0001
0100
0010
0100
0M01
1000
0100
0010
,
1000
0001
1001
0000
1000
0010
0100
1000
0100
0000
0010
0100
1M00
0000
0001
0001
,
1001
0000
0001
0010
0100
0001
0100
0000
0010
0100
0M01
0000
1000
1000
1001
0000
,
0001
001M
1000
0100
0M01
0010
0100
1M00
0010
0001
010M
0100
0010
0001
0100
0010
,
1000
1001
0000
1001
0000
1000
0010
0100
0001
0010
1000
0010
0100
0001
0100
1000
,
0010
0001
1000
0100
0001
0100
1000
0001
0010
0100
1000
0001
0010
0100
0001
1000
,
0100
1000
0010
0100
1001
0000
0000
0000
0000
0000
0000
0000
0000
0000
0000
0000
;
