#TITLE:WE INTERRUPT THIS PROGRAM TO BRING YOU AN EMERGENCY BROADCAST;
#SUBTITLE:;
#ARTIST:Unknown artist;
#TITLETRANSLIT:;
#SUBTITLETRANSLIT:;
#ARTISTTRANSLIT:;
#GENRE:;
#CREDIT:;
#BANNER:;
#BACKGROUND:;
#LYRICSPATH:;
#CDTITLE:;
#MUSIC:WE INTERRUPT THIS PROGRAM TO BRING YOU AN EMERGENCY BROADCAST.ogg;
#OFFSET:0.000000;
#SAMPLESTART:100.000000;
#SAMPLELENGTH:12.000000;
#SELECTABLE:YES;
#BPMS:0.000000=160.000000
,24.000000=80.000000
,26.000000=320.000000
,208.000000=300.000000
,264.000000=320.000000
,308.000000=150.000000
,340.000000=320.000000
,404.000000=150.000000
,412.000000=75.000000
,416.000000=340.000000
,672.000000=680.000000
,864.000000=170.000000
;
#STOPS:25.000000=1.500000,
27.500000=0.187500,
29.500000=0.187500,
31.500000=0.187500,
37.500000=0.187500,
39.500000=0.187500,
41.500000=0.187500,
71.000000=2.812500,
415.000000=3.199997,
867.000000=1.058823
;
#BGCHANGES:;
#KEYSOUNDS:;
#ATTACKS:;

//---------------dance-single - ----------------
#NOTES:
     dance-single:
     :
     Challenge:
     18:
     0.804598,1.152968,0.183209,0.437337,0.224578,953.000000,922.000000,31.000000,74.000000,0.000000,0.000000,0.804598,1.152968,0.183209,0.437337,0.224578,953.000000,922.000000,31.000000,74.000000,0.000000,0.000000:
// measure 0
0000
0000
0000
0000
,  // measure 1
0000
0000
0000
0000
,  // measure 2
0000
0000
0000
0000
,  // measure 3
0000
0000
0000
0000
,  // measure 4
1000
0000
0000
0001
0011
0000
0000
0000
,  // measure 5
1000
0000
0000
0001
0000
0000
0100
0000
0110
0000
0000
0000
0110
0000
0000
0000
,  // measure 6
2002
0000
0000
0000
3003
0000
0000
0000
1000
0000
0100
0000
0010
0000
0200
0300
,  // measure 7
1000
0000
0010
0000
0100
0000
0020
0030
1000
0000
0001
0000
0010
0000
0200
0300
,  // measure 8
1000
0100
0010
0001
0100
0010
1000
0000
,  // measure 9
0001
0000
0100
0000
0010
0000
0200
0300
0001
0000
0010
0000
0100
0000
0020
0030
,  // measure 10
0001
0000
1000
0000
0010
0000
0200
0300
0001
0000
0100
0000
0010
0000
1000
0000
,  // measure 11
0100
0010
0001
0000
1000
0100
0010
1000
,  // measure 12
0010
0000
0001
0010
0100
0001
0100
0000
,  // measure 13
1000
0010
0100
1000
0100
0000
0001
0100
,  // measure 14
0010
0001
0010
1000
0001
0010
0001
0100
,  // measure 15
0010
0001
0010
0000
1000
0010
0100
1000
,  // measure 16
0100
0000
0001
0010
0100
0001
0100
0000
,  // measure 17
1000
0010
0001
1000
0100
0002
0000
0003
,  // measure 18
2000
0000
0000
3001
0100
0000
0001
0000
,  // measure 19
2000
0000
0000
0000
3010
0000
1000
0100
,  // measure 20
1000
0000
0000
0001
0010
0000
0100
1000
,  // measure 21
0100
0000
0000
0000
1000
0001
0100
0001
,  // measure 22
2000
0000
0000
3001
0010
0000
0001
0000
,  // measure 23
2000
0000
0000
0000
3100
0000
1000
0010
,  // measure 24
2000
0000
0000
0001
0000
0000
3010
1000
,  // measure 25
0010
0000
0000
0000
2000
0000
3001
1000
,  // measure 26
0002
0000
0000
1003
0010
0000
1000
0000
,  // measure 27
0002
0000
0000
0000
0103
0000
0001
0010
,  // measure 28
0001
0000
0000
1000
0100
0000
0010
0001
,  // measure 29
0010
0000
0000
0000
0001
1000
0010
1000
,  // measure 30
0002
0000
0000
1003
0100
0000
0010
0000
,  // measure 31
0002
0000
1003
0100
,  // measure 32
2000
0000
0000
0001
0000
3020
0000
0000
,  // measure 33
0100
0000
0000
0000
1030
0000
0100
1000
,  // measure 34
0100
0000
0000
0010
0000
0000
0001
0100
,  // measure 35
0001
0000
0000
0000
1000
0001
1000
0000
,  // measure 36
0012
0000
0000
2003
0000
0000
3100
0000
,  // measure 37
1200
0000
0310
0001
,  // measure 38
2010
0000
0000
3002
0000
0000
0103
0000
,  // measure 39
0201
0000
0310
1000
,  // measure 40
2100
0000
0000
3002
0000
0000
0013
0000
,  // measure 41
0021
0000
0130
0000
,  // measure 42
1100
0000
0000
2000
0000
0000
3010
0000
,  // measure 43
1020
0000
0130
0001
,  // measure 44
0012
0000
1003
0010
,  // measure 45
0201
0000
0310
1000
,  // measure 46
2100
0000
0000
3002
0000
0000
0103
0000
,  // measure 47
0201
0000
0310
1000
,  // measure 48
2100
0000
3001
0000
,  // measure 49
1002
0000
0103
0000
,  // measure 50
0012
0000
1003
0000
,  // measure 51
1020
0000
0130
0001
,  // measure 52
1000
1000
0000
0000
,  // measure 53
0000
0000
0001
0001
,  // measure 54
0000
0000
0000
0000
,  // measure 55
1000
1000
0000
0000
,  // measure 56
0000
0000
0001
0001
,  // measure 57
0000
0000
0000
0000
,  // measure 58
1000
1000
0000
0000
,  // measure 59
0000
0000
0001
0001
,  // measure 60
1000
0000
0000
1000
0000
0000
0000
0000
,  // measure 61
0000
0000
0000
0000
0100
0000
0000
0100
,  // measure 62
0000
0000
0000
0000
,  // measure 63
0010
0000
0000
0010
0000
0000
0000
0000
,  // measure 64
0000
0000
0000
0000
0001
0000
0000
0001
,  // measure 65
0000
0000
0000
0000
0000
0100
0020
0000
0000
0000
0000
0000
,  // measure 66
1030
0100
1000
0100
0000
0000
0010
0100
,  // measure 67
0010
0100
0000
0000
1000
0100
0010
0100
,  // measure 68
0000
0000
0010
0001
0010
0100
0000
0000
,  // measure 69
1000
0100
0010
0001
0000
0000
1000
0001
,  // measure 70
0100
0001
0000
0000
0011
0000
0001
0100
,  // measure 71
2000
0000
3100
0000
0001
0100
0001
0200
,  // measure 72
0000
0000
0310
0100
0010
0200
0000
0000
,  // measure 73
0301
0100
0010
0200
0000
0000
0310
1000
,  // measure 74
0010
0200
0000
0000
0301
0100
0010
2000
,  // measure 75
0000
0000
3001
1000
0100
2000
0000
0000
,  // measure 76
3010
0000
1000
0100
0001
1000
0010
0100
,  // measure 77
2000
0000
0000
0000
,  // measure 78
3200
0000
0000
0000
,  // measure 79
0320
0000
0000
0000
,  // measure 80
0030
0000
0000
0001
,  // measure 81
0001
0000
0000
0100
0000
0100
0010
0000
0000
0100
0000
0000
,  // measure 82
0001
0000
0000
1000
0000
1000
0100
0000
0000
0010
0000
0010
,  // measure 83
0001
0000
0000
0100
0000
0010
1000
0000
0000
0001
0000
0100
,  // measure 84
0001
0000
0000
1000
0000
0100
0010
0000
0000
0020
0000
0000
,  // measure 85
0031
0000
1000
0000
0001
0000
0100
0000
0010
0000
0100
0000
,  // measure 86
1000
0000
0100
0000
0010
0000
1000
0000
0001
0000
1000
0000
,  // measure 87
0001
0000
1000
0000
0001
0000
0010
0000
0100
0000
0010
0000
,  // measure 88
1000
0000
0010
0000
0100
0000
1000
0000
0001
0000
1000
0000
,  // measure 89
0001
0000
0010
0000
0001
0000
0100
0000
0010
0000
0100
0000
,  // measure 90
1000
0000
0001
0000
0010
0000
0100
0000
0001
0000
1000
0000
,  // measure 91
0001
0000
0100
0000
0001
0000
0010
0000
0100
0000
0010
0000
,  // measure 92
1000
0000
0001
0000
0100
0000
0010
0000
0001
0000
1000
0000
,  // measure 93
0010
0000
0001
0000
0010
0000
1000
0000
0100
0000
0001
0000
,  // measure 94
1000
0000
0010
0000
0100
0000
1000
0000
0001
0000
1000
0000
,  // measure 95
0100
0000
0001
0000
0100
0000
1000
0000
0010
0000
0001
0000
,  // measure 96
1000
0000
0100
0000
0010
0000
1000
0000
0001
0000
1000
0000
,  // measure 97
0001
0000
0010
0000
0100
0000
1000
0000
0010
0000
0100
0000
,  // measure 98
0001
0000
0010
0000
0100
0000
1000
0000
0010
0000
0100
0000
,  // measure 99
0001
0000
0001
0000
0100
0000
0010
0000
1000
0000
0100
0000
,  // measure 100
1000
0000
1000
0000
0100
0000
0010
0000
0001
0000
0100
0000
,  // measure 101
0002
0000
1000
0000
,  // measure 102
1000
0000
1000
0003
,  // measure 103
2002
0000
0000
0000
0000
0000
0000
0000
0000
0000
0000
0000
0000
0000
0000
0000
0000
0000
0000
0000
0000
0000
0000
0000
0000
0000
0000
0000
0000
0000
0000
0000
0000
0000
0000
0000
0000
0000
0000
0000
0000
0000
0000
0000
0000
0000
0000
0000
0000
0000
0000
0000
0000
0000
0000
0000
0000
0000
0000
0000
0000
0000
0000
0000
0000
0000
0000
0000
0000
0000
0000
0000
0000
0000
0000
0000
0000
0000
0000
0000
0000
0000
0000
0000
0000
0000
0000
0000
0000
0000
0000
0000
0000
0000
0000
0000
0000
0000
0000
0000
0000
0000
0000
0000
0000
0000
0000
0000
0000
0000
0000
0000
0000
0000
0000
0000
0000
0000
0000
0000
0000
0000
0000
0000
0000
0000
0000
0000
0000
0000
0000
0000
0000
0000
0000
0000
0000
0000
0000
0000
0000
0000
0000
0000
0000
3003
0000
0000
0000
0000
0000
0000
0000
0000
0000
0000
0000
0000
0000
0000
0000
0000
0000
0000
0000
0000
0000
0000
0000
0000
0000
0000
0000
0000
0000
0000
0000
0000
0000
0000
0000
0000
0000
0000
0000
0000
0000
0000
0000
0000
0000
0000
,  // measure 104
1000
0100
0010
0001
1000
0000
0001
0100
,  // measure 105
0010
1000
0001
0000
1000
0100
0010
0100
,  // measure 106
1000
0001
0100
0010
1000
0000
0001
1000
,  // measure 107
0100
0010
0001
0000
1000
0010
0100
0001
,  // measure 108
1000
0100
0010
0001
0100
0000
0001
0100
,  // measure 109
0010
1000
0100
0000
0010
0001
0100
0010
,  // measure 110
1000
0100
1000
0010
1000
0000
0001
0100
,  // measure 111
0001
0010
0001
0000
1000
0100
1000
0001
,  // measure 112
1000
0010
0100
1000
0100
0000
0001
0010
,  // measure 113
0100
0001
0100
0000
1000
0010
1000
0100
,  // measure 114
0001
0100
0010
0100
1000
0000
0010
0100
,  // measure 115
0010
0001
0010
0000
1000
0001
1000
0001
,  // measure 116
1000
0100
0100
0001
1000
0000
0001
0100
,  // measure 117
0100
1000
0001
0000
1000
0010
0010
0001
,  // measure 118
1000
0010
0010
0001
1000
0000
0001
0010
,  // measure 119
0010
1000
0010
0100
0010
0001
0010
0000
,  // measure 120
1000
0100
0010
0100
1000
0001
1000
0100
,  // measure 121
0010
0100
1000
0001
1000
0010
0100
0010
,  // measure 122
1000
0001
0100
0010
0100
0001
1000
0001
,  // measure 123
0100
0010
0100
0001
1000
0001
0010
0100
,  // measure 124
1000
0100
0010
0100
0001
0100
0010
0100
,  // measure 125
1000
0100
0010
0001
1000
0100
0010
0001
,  // measure 126
1000
0010
0100
0010
0001
0010
0100
0010
,  // measure 127
1000
0010
0100
0001
1000
0010
0100
0001
,  // measure 128
1000
0100
0100
0001
1000
0001
1000
0100
,  // measure 129
0100
0001
1000
0001
1000
0010
0100
0001
,  // measure 130
1000
0001
0100
0100
1000
0001
1000
0001
,  // measure 131
0100
0100
1000
0001
1000
0001
0010
0100
,  // measure 132
1000
0001
0100
0010
1000
0001
0100
0010
,  // measure 133
1000
0001
0100
0010
1000
0001
0100
0010
,  // measure 134
1000
0100
0010
0001
1000
0100
0010
0001
,  // measure 135
1000
0100
0001
1000
0010
0001
0100
0010
,  // measure 136
2001
0000
0000
0000
,  // measure 137
3020
0000
0000
0000
,  // measure 138
0230
0000
0000
0000
,  // measure 139
0310
0000
0000
1000
0000
0000
0001
0000
,  // measure 140
1002
0000
0000
0100
,  // measure 141
0000
0000
0023
0000
,  // measure 142
1000
0000
0100
0000
,  // measure 143
0031
0000
0000
0000
0000
0000
1000
0100
0010
0001
1000
0100
,  // measure 144
0020
0000
0000
2030
,  // measure 145
0000
0000
3020
0000
,  // measure 146
0032
0000
0000
0000
,  // measure 147
0203
0000
0000
0000
,  // measure 148
0320
0000
0000
0001
,  // measure 149
0000
0000
0100
0000
,  // measure 150
1030
0000
0001
0000
,  // measure 151
1001
0000
0110
0000
,  // measure 152
1000
0000
0000
0010
0000
0000
0100
0000
,  // measure 153
0001
0000
0000
0010
0000
0000
0100
0000
,  // measure 154
1000
0000
0000
0001
0000
0000
0100
0000
,  // measure 155
0010
0000
0000
1000
0000
0000
0100
0000
,  // measure 156
0010
0000
0001
0000
,  // measure 157
1001
0000
1000
0000
,  // measure 158
0010
0000
1000
0000
,  // measure 159
1001
0000
0110
0000
,  // measure 160
0001
0000
0000
0010
0000
0000
0002
0000
,  // measure 161
1003
0000
0000
0010
0200
0000
0000
0000
,  // measure 162
0301
0000
1000
0100
,  // measure 163
0010
0000
0000
0001
0000
0000
0100
0000
,  // measure 164
0020
0000
0100
0000
,  // measure 165
0001
0000
0130
0001
,  // measure 166
0020
0000
2030
0000
,  // measure 167
3001
0000
0110
0000
,  // measure 168
1000
0100
1000
0100
,  // measure 169
0010
0001
0010
0001
,  // measure 170
1000
0010
1000
0010
,  // measure 171
0100
0001
0100
0001
,  // measure 172
1000
0100
0010
0001
,  // measure 173
1000
0010
0100
0001
,  // measure 174
1000
0100
1000
0001
,  // measure 175
0010
0001
1000
0001
,  // measure 176
1000
0010
0100
0010
,  // measure 177
0100
0001
1000
0001
,  // measure 178
1000
0100
0010
0001
,  // measure 179
0100
0010
0100
0001
,  // measure 180
0010
0001
0010
0001
,  // measure 181
0010
0100
1000
0100
,  // measure 182
1000
0001
0100
0001
,  // measure 183
0100
0010
1000
0010
,  // measure 184
1000
0001
0010
0100
,  // measure 185
1000
0001
0100
0010
,  // measure 186
1000
0001
0010
0001
,  // measure 187
1000
0100
1000
0001
,  // measure 188
1000
0001
0100
0010
,  // measure 189
0100
0010
1000
0001
,  // measure 190
1000
0001
0010
0100
,  // measure 191
1000
0010
0100
0010
,  // measure 192
1000
0100
0010
0100
,  // measure 193
0001
0100
0010
0100
,  // measure 194
1000
0010
0100
0010
,  // measure 195
0001
0010
0100
0010
,  // measure 196
1000
0010
0100
1000
,  // measure 197
0001
0010
0100
0001
,  // measure 198
1000
0010
0100
0010
,  // measure 199
0001
0010
0100
0010
,  // measure 200
1000
0100
0010
0100
,  // measure 201
0001
0100
0010
0100
,  // measure 202
1000
0100
0010
1000
,  // measure 203
0001
0100
0010
0001
,  // measure 204
0100
0100
1000
0001
,  // measure 205
0100
0100
1000
0001
,  // measure 206
0100
0100
1000
0001
,  // measure 207
0010
0010
1000
0001
,  // measure 208
0010
0010
1000
0001
,  // measure 209
0010
0010
1000
0001
,  // measure 210
1000
0100
0100
0001
,  // measure 211
1000
0010
0010
0001
,  // measure 212
1000
0100
0100
0001
,  // measure 213
1000
0010
0010
0001
,  // measure 214
1000
0100
0001
1000
,  // measure 215
0010
0001
0100
0010
,  // measure 216
0220
0000
0000
0000
0000
0000
0000
0000
0000
0000
0000
0000
0000
0000
0000
0000
0000
0000
0000
0000
0000
0000
0000
0000
0000
0000
0000
0000
0000
0000
0000
0000
0000
0000
0000
0000
0000
0000
0000
0000
0000
0000
0000
0000
0000
0000
0000
0000
0000
0330
0000
0000
0000
0000
0000
0000
0000
0000
0000
0000
0000
0000
0000
0000
;

//---------------dance-single - ----------------
#NOTES:
     dance-single:
     :
     Medium:
     14:
     0.485461,0.768645,0.130019,0.378237,0.097514,575.000000,553.000000,22.000000,64.000000,0.000000,0.000000,0.485461,0.768645,0.130019,0.378237,0.097514,575.000000,553.000000,22.000000,64.000000,0.000000,0.000000:
// measure 0
0000
0000
0000
0000
,  // measure 1
0000
0000
0000
0000
,  // measure 2
0000
0000
0000
0000
,  // measure 3
0000
0000
0000
0000
,  // measure 4
1000
0000
0011
0000
,  // measure 5
0001
0000
1010
0000
,  // measure 6
0000
0000
0000
0000
0000
0000
0000
0000
1000
0000
0000
0000
0000
0000
0200
0300
,  // measure 7
1000
0000
0000
0000
0000
0000
0200
0300
1000
0000
0000
0000
0000
0000
0200
0300
,  // measure 8
1000
0000
0100
0000
0010
0001
0000
0000
,  // measure 9
1000
0000
0000
0000
0000
0000
0020
0030
1000
0000
0000
0000
0000
0000
0020
0030
,  // measure 10
1000
0000
0000
0000
0000
0000
0020
0030
1000
0000
0000
0000
0010
0000
0000
0000
,  // measure 11
0100
0001
0000
0000
1000
0000
0000
0100
,  // measure 12
0000
0000
0010
0000
0000
0001
0000
0000
,  // measure 13
0100
0000
0000
0010
0000
0000
1000
0000
,  // measure 14
1000
0001
0001
1000
,  // measure 15
0000
0010
0000
0000
0100
0000
0000
0001
,  // measure 16
0000
0000
0010
0000
0000
0100
0000
0000
,  // measure 17
1000
1001
0001
0000
,  // measure 18
1000
0000
0100
0010
,  // measure 19
0002
0000
0000
0000
,  // measure 20
1003
0000
0001
0100
,  // measure 21
0010
0000
1000
1000
,  // measure 22
0001
0000
0100
0010
,  // measure 23
2000
0000
0000
0000
,  // measure 24
3001
0000
1000
0100
,  // measure 25
0010
0000
0011
0000
,  // measure 26
0001
0000
0010
0100
,  // measure 27
2000
0000
0000
0000
,  // measure 28
3001
0000
1000
0010
,  // measure 29
0100
0000
0001
0001
,  // measure 30
0010
0000
0001
0100
,  // measure 31
0002
0000
0000
0103
,  // measure 32
0002
0000
0000
0023
,  // measure 33
0000
0000
0000
0000
,  // measure 34
0031
0000
0100
0000
,  // measure 35
0010
0000
1000
0001
,  // measure 36
1000
0000
0000
0100
0000
0000
1000
0000
,  // measure 37
0010
0000
1000
0000
,  // measure 38
0001
0000
0000
0100
0000
0000
0001
0000
,  // measure 39
0010
0000
0001
0000
,  // measure 40
1000
0000
0000
0100
0000
0000
0010
0000
,  // measure 41
0001
0000
0001
0000
,  // measure 42
1000
0000
0000
0010
0000
0000
0100
0000
,  // measure 43
0001
0000
0001
1000
,  // measure 44
0001
0000
0000
0010
0000
0000
0100
0000
,  // measure 45
1000
0000
1000
0000
,  // measure 46
0001
0000
0000
0100
0000
0000
0010
0000
,  // measure 47
1000
0000
1000
0100
,  // measure 48
0020
0000
0031
0000
,  // measure 49
0002
0000
0103
0000
,  // measure 50
0200
0000
0310
0000
,  // measure 51
0020
0000
1030
0000
,  // measure 52
2002
0000
0000
0000
,  // measure 53
0000
0000
0000
0000
,  // measure 54
0000
0000
0000
0000
,  // measure 55
0000
0000
0000
3003
,  // measure 56
2000
0000
0000
0000
,  // measure 57
0000
0000
0000
0000
,  // measure 58
0000
0000
0000
0000
,  // measure 59
0000
0000
0000
3000
,  // measure 60
0020
0000
0000
0000
,  // measure 61
0000
0000
0000
0000
0100
0000
0000
0100
,  // measure 62
0000
0000
0000
0000
,  // measure 63
0100
0000
0000
0100
0000
0000
0000
0000
,  // measure 64
0000
0000
0000
0000
0100
0000
0000
0100
,  // measure 65
0030
0000
1001
0000
,  // measure 66
1000
0000
1000
0100
0000
0000
0010
0000
,  // measure 67
0010
0001
0000
0000
1000
0000
1000
0010
,  // measure 68
0000
0000
0100
0000
0100
0001
0000
0000
,  // measure 69
1000
0000
1000
0001
0000
0000
0010
0000
,  // measure 70
0010
0100
0000
0000
1000
0000
0010
0000
,  // measure 71
0100
0000
0010
0000
2010
0000
3000
1000
,  // measure 72
0000
0000
1200
0000
0300
0100
0000
0000
,  // measure 73
0120
0000
0030
0010
0000
0000
0021
0000
,  // measure 74
0000
0031
0000
0000
0102
0000
0000
0103
,  // measure 75
0000
0000
0210
0000
0000
0310
0000
0000
,  // measure 76
1010
1000
0001
1000
,  // measure 77
0002
0000
0000
0000
,  // measure 78
0000
0000
0000
0000
,  // measure 79
2003
0000
0000
0000
,  // measure 80
0000
0000
0000
0001
,  // measure 81
3002
0000
0023
0000
,  // measure 82
0230
0000
2300
0000
,  // measure 83
3020
0000
0230
0000
,  // measure 84
0302
0000
0000
0000
0000
0000
1003
0000
0000
0000
0000
0001
,  // measure 85
1000
0000
0000
0000
1000
0000
0100
0000
0000
0000
0100
0000
,  // measure 86
0010
0000
0000
0000
0010
0000
0001
0000
0000
0000
0001
0000
,  // measure 87
1000
0000
0000
0000
1000
0000
0001
0000
0000
0000
0001
0000
,  // measure 88
0100
0000
0000
0000
0010
0000
0000
0000
0100
0000
0000
0000
,  // measure 89
0001
0000
0000
0000
0001
0000
0100
0000
0000
0000
0100
0000
,  // measure 90
0010
0000
0000
0000
0010
0000
1000
0000
0000
0000
1000
0000
,  // measure 91
0001
0000
0000
0000
0001
0000
1000
0000
0000
0000
1000
0000
,  // measure 92
0100
0000
0000
0000
0010
0000
0000
0000
0001
0000
0000
0000
,  // measure 93
1000
0000
0000
0000
1000
0000
0001
0000
0000
0000
0001
0000
,  // measure 94
0010
0000
0000
0000
0010
0000
0001
0000
0000
0000
0001
0000
,  // measure 95
1000
0000
0000
0000
1000
0000
0010
0000
0000
0000
0010
0000
,  // measure 96
0100
0000
0000
0000
0001
0000
0000
0000
0010
0000
0000
0000
,  // measure 97
0001
0000
0000
0000
0001
0000
1000
0000
0000
0000
1000
0000
,  // measure 98
0010
0000
0000
0000
0010
0000
1000
0000
0000
0000
1000
0000
,  // measure 99
0001
0000
0000
0000
0010
0000
0000
0000
0100
0000
0000
0000
,  // measure 100
1000
0000
0000
0000
0010
0000
0000
0000
0110
0000
0000
0000
,  // measure 101
2002
0000
0000
0000
,  // measure 102
0000
0000
0000
3000
,  // measure 103
0200
0000
0000
0303
,  // measure 104
1000
0100
0010
0001
,  // measure 105
0010
0100
1000
0100
,  // measure 106
0010
0001
0010
0100
,  // measure 107
1000
0100
0010
0000
,  // measure 108
0001
0100
0010
1000
,  // measure 109
0010
0100
0001
0100
,  // measure 110
0010
1000
0010
0100
,  // measure 111
0001
0100
0010
0000
,  // measure 112
1000
0100
0010
0001
,  // measure 113
0100
0010
1000
0100
,  // measure 114
0010
0001
0100
0010
,  // measure 115
1000
0100
0010
0000
,  // measure 116
0001
0010
0001
1000
,  // measure 117
0010
1000
0001
0100
,  // measure 118
0001
1000
0100
1000
,  // measure 119
0010
0100
0001
0000
,  // measure 120
1000
0000
0100
1000
0000
0000
0001
0000
,  // measure 121
0100
0001
0000
0000
1000
0000
0100
0010
,  // measure 122
0001
0000
0010
0001
0000
0000
1000
0000
,  // measure 123
0010
1000
0000
0000
0001
0000
0100
0010
,  // measure 124
1000
0000
0100
0010
0000
0000
0001
0000
,  // measure 125
0100
0010
0000
0000
1000
0000
0100
0010
,  // measure 126
0001
0000
1000
0001
0000
0000
0010
0000
,  // measure 127
0100
0010
0000
0000
0001
0000
0100
0010
,  // measure 128
1000
0000
0001
1000
0000
0000
0010
0000
,  // measure 129
0100
0010
0000
0000
1000
0000
0001
1000
,  // measure 130
0001
0000
0010
0100
0000
0000
0010
0000
,  // measure 131
0001
1000
0000
0000
0001
0000
1000
0001
,  // measure 132
1000
0010
0100
0010
,  // measure 133
1000
0100
0010
0100
,  // measure 134
1000
0010
1000
0000
0001
0000
0010
0000
,  // measure 135
0001
0010
0001
0000
1000
0100
1000
0000
,  // measure 136
0002
0000
0000
0000
,  // measure 137
0023
0000
0000
0000
,  // measure 138
0230
0000
0000
0000
,  // measure 139
1300
0000
0000
1000
0000
0000
1000
0000
,  // measure 140
0002
0000
0000
0203
,  // measure 141
0000
0000
0320
0000
,  // measure 142
1030
0000
0000
0000
,  // measure 143
1100
0000
0000
0000
0001
0010
0001
0000
,  // measure 144
2000
0000
0000
3020
,  // measure 145
0000
0000
0230
0000
,  // measure 146
0302
0000
0000
0000
,  // measure 147
2003
0000
0000
0000
,  // measure 148
3200
0000
0000
0320
,  // measure 149
0000
0000
0000
0000
,  // measure 150
0031
0000
0000
0000
,  // measure 151
0110
0000
1001
0000
,  // measure 152
2000
0000
0100
0000
,  // measure 153
3002
0000
0100
0000
,  // measure 154
2003
0000
0010
0000
,  // measure 155
3002
0000
0010
0000
,  // measure 156
2003
0000
0000
3000
,  // measure 157
1001
0000
0000
0000
,  // measure 158
0100
0000
0000
0000
,  // measure 159
1001
0000
0110
0000
,  // measure 160
2000
0000
0001
0000
,  // measure 161
3002
0000
1000
0000
,  // measure 162
2003
0000
0100
0000
,  // measure 163
3002
0000
0010
0000
,  // measure 164
0203
0000
0000
0000
,  // measure 165
0320
0000
0000
0000
,  // measure 166
0032
0000
0000
0000
,  // measure 167
0013
0000
0110
0000
,  // measure 168
1000
0000
0100
0010
,  // measure 169
0000
0000
0001
0000
,  // measure 170
0010
0100
0000
0000
,  // measure 171
1000
0000
0100
0010
,  // measure 172
0000
0000
0001
0000
,  // measure 173
0010
0100
1000
0000
,  // measure 174
0001
0000
0100
0010
,  // measure 175
0000
0000
1000
0000
,  // measure 176
0010
0100
0000
0000
,  // measure 177
0001
0000
0100
0010
,  // measure 178
0000
0000
1000
0000
,  // measure 179
0010
0100
0001
0000
,  // measure 180
1000
0000
0001
0010
,  // measure 181
0001
0000
1000
0000
,  // measure 182
0001
0100
0001
0000
,  // measure 183
1000
0000
0001
0010
,  // measure 184
0001
0000
1000
0000
,  // measure 185
0001
0100
0001
0100
,  // measure 186
0001
0000
1000
0010
,  // measure 187
1000
0000
0001
0000
,  // measure 188
1000
0100
1000
0000
,  // measure 189
0001
0000
1000
0010
,  // measure 190
1000
0000
0001
0000
,  // measure 191
0010
0100
1000
0000
,  // measure 192
0001
0000
0001
0000
,  // measure 193
0001
0000
1000
0000
,  // measure 194
1000
0000
1000
0000
,  // measure 195
0100
0000
0100
0000
,  // measure 196
0100
0000
0010
0000
,  // measure 197
0010
0000
0010
0000
,  // measure 198
0001
0000
0100
0000
,  // measure 199
0010
0000
0100
0000
,  // measure 200
1000
0000
0100
0000
,  // measure 201
0001
0000
0010
0000
,  // measure 202
0100
0000
0010
0000
,  // measure 203
1000
0000
0010
0000
,  // measure 204
0001
1000
0001
1000
,  // measure 205
0001
0000
1000
0001
,  // measure 206
1000
0001
1000
0000
,  // measure 207
0001
1000
0001
1000
,  // measure 208
0001
0000
1000
0001
,  // measure 209
1000
0001
1000
0000
,  // measure 210
0010
0100
0010
0100
,  // measure 211
0010
0000
1000
0001
,  // measure 212
1000
0001
1000
0000
,  // measure 213
0100
0010
0100
0010
,  // measure 214
0100
0000
1000
0001
,  // measure 215
1000
0001
1000
0001
,  // measure 216
2000
0000
0000
0000
0000
0000
0000
0000
0000
0000
0000
0000
0000
0000
0000
0000
0000
0000
0000
0000
0000
0000
0000
0000
0000
0000
0000
0000
0000
0000
0000
0000
0000
0000
0000
0000
0000
0000
0000
0000
0000
0000
0000
0000
0000
0000
0000
0000
0000
3000
0000
0000
0000
0000
0000
0000
0000
0000
0000
0000
0000
0000
0000
0000
;
