#TITLE:Scatman (Ryu☆ Remix);
#SUBTITLE:;
#ARTIST:Ryu☆ / Scatman John;
#TITLETRANSLIT:Scatman (Ryu Remix);
#SUBTITLETRANSLIT:;
#ARTISTTRANSLIT:Ryu / Scatman John;
#GENRE:;
#CREDIT:;
#MUSIC:Scatman (Ryu Remix).ogg;
#BANNER:Scatman (Ryu Remix).png;
#BACKGROUND:Scatman (Ryu Remix)-bg.png;
#CDTITLE:;
#SAMPLESTART:14.497;
#SAMPLELENGTH:15.000;
#SELECTABLE:YES;
#OFFSET:0.000;
#BPMS:0.000=149.000;
#STOPS:;
#BGCHANGES:15.750=circle1.avi=1.179=1=1=1=StretchRewind==CrossFade==,
19.750=circle1r.avi=1.179=0=1=1=StretchRewind====,
23.750=circle1.avi=1.179=0=1=1=StretchRewind====,
25.750=circle1r.avi=1.179=0=1=1=StretchRewind====,
27.750=circle1.avi=1.179=0=1=1=StretchRewind====,
35.750=tuxedo1.avi=1.103=0=1=1=StretchRewind====,
42.750=circle1d.avi=1.000=0=1=1=StretchRewind====,
43.750=tuxedo2.avi=1.103=0=1=1=StretchRewind====,
50.750=circle1d.avi=1.000=0=1=1=StretchRewind====,
51.750=tuxedo1.avi=1.103=0=1=1=StretchRewind====,
58.750=circle1d.avi=1.000=0=1=1=StretchRewind====,
59.750=tuxedo2.avi=1.103=0=1=1=StretchRewind====,
66.750=circle1d.avi=1.000=0=1=1=StretchRewind====,
67.750=letters1.avi=1.000=0=1=1=StretchRewind====,
75.750=lightning1.avi=1.000=0=1=1=StretchRewind====,
83.750=letters1.avi=1.000=0=1=1=StretchRewind====,
91.750=lightning1.avi=1.000=0=1=1=StretchRewind====,
99.750=circle1r.avi=1.179=0=1=1=StretchRewind====,
103.750=ring8.avi=1.000=0=1=1=StretchRewind====,
111.750=numbers1.avi=1.000=0=1=1=StretchRewind====,
119.750=ring9.avi=1.000=0=1=1=StretchRewind====,
127.750=numbers2.avi=1.000=0=1=1=StretchRewind====,
135.750=circle1.avi=1.179=0=1=1=StretchRewind====,
151.750=ring8.avi=1.000=0=1=1=StretchRewind====,
159.750=numbers1.avi=1.000=0=1=1=StretchRewind====,
167.750=ring9.avi=1.000=0=1=1=StretchRewind====,
175.750=numbers2.avi=1.000=0=1=1=StretchRewind====,
183.750=circle1r.avi=1.179=0=1=1=StretchRewind====,
187.750=tuxedo1.avi=1.103=0=1=1=StretchRewind====,
195.750=tuxedo2.avi=1.103=0=1=1=StretchRewind====,
203.750=tuxedo1.avi=1.103=0=1=1=StretchRewind====,
211.750=tuxedo2.avi=1.103=0=1=1=StretchRewind====,
219.750=letters1.avi=1.000=0=1=1=StretchRewind====,
227.750=lightning1.avi=1.000=0=1=1=StretchRewind====,
235.750=letters1.avi=1.000=0=1=1=StretchRewind====,
243.750=lightning1.avi=1.000=0=1=1=StretchRewind====,
251.750=Scatman (Ryu Remix)-bg.png=1.000=0=1=1=StretchRewind====
;
#FGCHANGES:;

//--------------- dance-single - PsyHunter29 ----------------
#NOTES:
     dance-single:
     PsyHunter29:
     Beginner:
     3:
     0,0,0,0,0:
0000
0000
0000
0000
,
0000
0000
0000
0000
,
0000
0000
0000
0000
,
0000
0000
0000
0000
,
1001
0000
0000
0000
,
1001
0000
0000
0000
,
1001
0000
1001
0000
,
0100
0100
0100
0100
,
0100
0000
0000
0000
,
0010
0010
0010
0000
,
0100
0000
0010
0000
,
0001
0001
0001
0000
,
0010
0000
0100
0000
,
1000
1000
1000
0000
,
0001
0000
1000
0000
,
0100
0100
0100
0000
,
1000
0000
0001
0000
,
1001
0000
0001
0000
,
1000
1000
1000
0000
,
0110
0000
1000
0000
,
0001
0001
0001
0000
,
0110
0000
0010
0000
,
0100
0100
0100
0000
,
1001
0000
0100
0000
,
0010
0010
0000
0020
,
0000
0000
0030
0000
,
0001
0000
0100
0000
,
1000
0000
0100
0000
,
0001
0000
1000
0000
,
0100
0100
0100
0000
,
0001
0000
0010
0000
,
1000
0000
0010
0000
,
0001
0000
1000
0000
,
0010
0010
0010
0000
,
2000
0000
3000
0000
,
0002
0000
0003
0000
,
0020
0000
0030
0000
,
0200
0000
0300
0000
,
0010
0000
0001
0000
,
0100
0100
0100
0000
,
0010
0000
1000
0000
,
0100
0100
0100
0000
,
1000
0000
0001
0000
,
0010
0010
0010
0000
,
0001
0000
1000
0000
,
0010
0010
0010
0000
,
0200
0000
0300
0000
,
0001
0001
0001
0000
,
0100
0000
0010
0000
,
1000
1000
1000
0000
,
0010
0000
1000
0000
,
0100
0100
0100
0000
,
1000
0000
0001
0000
,
0010
0010
0010
0000
,
0001
0000
0100
0000
,
1001
0000
0100
0000
,
1000
1000
1000
0000
,
1001
0000
0001
0000
,
0010
0010
0010
0000
,
0110
0000
1000
0000
,
0001
0001
0001
0000
,
0110
0000
0001
0000
,
0100
0100
0000
0020
,
0000
0030
0000
0000
;

//--------------- dance-single - PsyHunter29 ----------------
#NOTES:
     dance-single:
     PsyHunter29:
     Easy:
     7:
     0,0,0,0,0:
0000
0000
0000
0000
,
0000
0000
0000
0000
,
0000
0000
0000
0000
,
0000
0000
0000
0000
,
2002
0000
0000
3003
,
0220
0000
0000
0330
,
2002
3003
0220
0330
,
0100
0100
0100
0100
,
2002
0000
0000
3003
,
0110
1000
0001
0100
,
0010
1000
0200
0300
,
1010
0100
0001
1000
,
0100
0000
0010
0000
0002
0000
1003
1000
,
2000
3010
1000
0100
,
0010
0001
0200
0300
,
1010
0001
0101
1000
,
1100
0001
0011
1000
,
2002
0000
3003
0000
1000
0001
1000
0000
,
0100
1000
0001
0010
,
0011
0100
1000
0100
,
0010
0000
0100
0000
1000
0001
0000
0000
,
0220
0330
0001
0100
,
1000
0100
0001
0010
,
2100
3010
0102
0013
,
1000
0000
0001
0000
0000
0010
0020
0000
,
0000
0000
0000
0030
,
0001
0100
0010
0100
,
0001
1000
0200
0300
,
2010
3100
0102
0013
,
0001
0000
1000
0000
1000
0001
0100
0000
,
0010
1000
0001
1000
,
0100
1000
0002
0003
,
1100
0001
0011
1000
,
1001
0010
0110
0001
,
2001
0000
0000
0100
0000
0000
3100
0000
,
0002
0000
0000
0100
0000
0000
0103
0000
,
0020
0000
0000
1000
0000
0000
1030
0000
,
0200
0000
0000
0001
0000
0000
0301
0000
,
0010
0001
0100
0001
,
0010
0100
2000
3000
,
2100
3001
0102
1003
,
0010
0000
1000
0000
0100
0100
0200
0000
,
0310
0100
1000
0010
,
0100
0001
0020
0030
,
0011
1000
0101
1000
,
1100
0001
1010
0001
,
2000
0002
0000
3003
,
2010
3001
0100
0001
,
1000
0100
0010
0100
,
2100
3001
0100
0010
,
1000
0000
0001
0000
1000
0000
0010
0010
,
0020
0031
0100
0101
,
0100
0001
1000
1010
,
2000
3001
0010
0100
,
2000
3000
0002
0003
,
0020
0030
0001
0100
,
0001
1000
1100
1001
,
0022
0033
0100
0010
,
1000
0000
0001
0000
0010
0001
0100
0000
,
0002
0003
1000
0001
,
0100
0001
0101
0110
,
2020
3030
0001
1000
,
0001
0100
0000
0220
,
0030
0300
0000
0000
;

//--------------- dance-single - PsyHunter29 ----------------
#NOTES:
     dance-single:
     PsyHunter29:
     Medium:
     10:
     0,0,0,0,0:
0000
0000
0000
0000
,
0000
0000
0000
0000
,
0000
0000
0000
0000
,
0000
0000
0000
0000
,
1000
2000
0000
0000
0000
0000
0000
0000
,
3001
0002
0000
0000
0000
0000
0000
0000
,
1003
2000
0000
0000
3001
0002
0000
0000
,
1003
0001
1000
0001
1000
0001
1000
0001
,
2000
0000
3000
0000
,
1010
0000
1010
0000
0100
1000
0010
0000
,
0101
0000
0010
0001
1000
0001
0010
0000
,
0101
0000
0101
0000
0010
0001
0100
0000
,
1100
0000
1000
0100
2000
0000
3001
0000
,
0011
0000
1100
0000
0001
1000
0010
0000
,
0101
0000
0010
0100
0001
0100
0010
0000
,
1010
0000
0101
0000
1000
0100
0001
0000
,
1100
0000
0001
0100
1000
0100
0001
0000
,
1002
0000
0013
0000
0100
1000
0001
0000
,
0100
0001
1000
0000
1100
0000
0101
0000
,
2001
0000
3100
0000
0010
0001
0100
0000
,
0010
1000
0200
0000
0010
0010
0310
0000
,
0110
0000
1001
0000
0010
1000
0100
0000
,
0010
0100
1000
0000
1010
0000
0011
0000
,
0102
0000
1003
0000
0010
0100
0001
0000
,
0010
0001
1000
0020
0000
0100
0200
0000
,
0000
0000
0000
0330
,
0010
1000
0100
0000
0010
0001
0100
0000
,
0020
0000
0130
0001
1000
0000
1001
0000
,
0100
1000
0010
0000
0100
0001
0010
0000
,
0001
1000
0100
1000
0001
0001
0001
0000
,
0100
0010
1000
0000
0100
0010
0001
0000
,
0200
0000
0310
1000
0100
0000
1001
0000
,
1000
0100
0001
0000
1000
0010
0001
0000
,
0001
0100
1000
0000
0001
0010
1000
0000
,
0010
1000
0100
0010
0001
0100
0020
0000
,
0130
0001
0010
0100
1000
0010
0200
0000
,
0310
0100
0001
0010
0100
1000
0020
0000
,
0130
0010
1000
0100
0010
0001
0200
0000
,
0302
0000
1003
0100
1000
0002
0000
1003
,
0200
0000
0310
0001
0100
0000
0101
0000
,
1020
0000
0130
0010
1000
0002
0000
1003
,
0100
0000
1000
0001
0010
0000
0110
0000
,
2001
0000
3010
1000
0100
0020
0000
0031
,
1000
0000
0010
1000
0100
0000
0120
0000
,
0031
0000
0100
0010
0100
0002
0000
1003
,
0100
0000
0010
0100
1000
0001
0020
0000
,
0230
2000
0000
3300
,
1001
0000
1100
0000
0001
0100
0001
0000
,
1010
0000
0100
0010
0100
0001
0100
0000
,
0110
0000
1010
0000
0100
0001
0010
0000
,
0011
0000
0100
0010
0200
0000
1300
0000
,
1010
0000
0110
0000
0100
0001
0010
0000
,
1100
0000
0010
0100
1000
0100
0010
0000
,
0011
0000
1001
0000
0010
1000
0200
0000
,
0310
0000
0001
0100
1000
0100
0001
0000
,
0020
0000
0000
0130
1000
0001
0100
0000
,
0101
1100
0011
1100
,
0120
0000
0000
1030
0001
0010
0100
0000
,
1000
0010
0100
0002
0010
0010
0013
0000
,
0011
1100
1010
0101
,
0010
0100
0001
1000
0200
0000
1300
0000
,
1010
1100
0101
0011
,
0010
0100
1000
0001
0000
0200
0020
0000
,
0300
0030
0000
0000
;

//--------------- dance-single - PsyHunter29 ----------------
#NOTES:
     dance-single:
     PsyHunter29:
     Hard:
     13:
     0,0,0,0,0:
0000
0000
0000
0000
,
0000
0000
0000
0000
,
0000
0000
0000
0000
,
0000
0000
0000
0000
,
1001
2002
0000
3003
0010
0000
0100
0000
,
0110
0220
0000
0330
1000
0000
0001
0000
,
1001
1002
0010
0003
0110
0210
1000
0300
,
1000
0000
0001
0000
1000
0000
0001
0000
0010
0000
0100
0000
0010
0100
1000
0001
,
2000
0000
0000
0000
0000
0000
0000
0000
3000
0000
0000
1000
0001
1000
0001
1000
,
0002
0000
0000
0000
0013
0000
0100
0000
1000
0001
0000
0010
0000
0000
0001
0000
,
2000
0000
0000
0000
3001
0000
0100
0000
0010
1000
0000
1000
0200
0000
0000
0000
,
0320
0000
0000
0000
0031
0000
1000
0000
0001
0010
0000
0100
0000
0000
1000
0000
,
0200
0000
0000
0000
1300
0000
0001
0000
0010
0100
0000
1000
0100
0000
0100
0000
,
2000
0000
0000
0000
3100
0000
1000
0000
0010
0100
0000
0001
0000
0000
0010
0000
,
0200
0000
0000
0000
0310
0000
0001
0000
1000
0010
0000
0010
0200
0000
0000
0000
,
0302
0000
0000
0000
0013
0000
0100
0000
1000
0001
0000
0100
0000
0000
0010
0000
,
2000
0000
0000
0000
3010
0000
0100
0000
0001
1000
0000
0010
0000
0000
0000
0000
,
0120
0000
0000
0000
0100
0000
0130
0000
0010
1000
0000
0002
0000
0000
0000
1003
,
0100
1000
0001
0100
0101
0000
1010
0000
,
0210
0000
0000
0000
0001
0000
0301
0000
0010
0100
0000
1000
0000
0001
0000
0001
,
0100
0001
1000
0010
1010
1020
0200
0030
,
0302
0000
0000
0000
0010
0000
0013
0000
0100
1000
0000
0010
0000
0100
0000
0100
,
0001
0100
1000
0001
0020
0000
2030
0000
,
3020
0000
0000
0000
0100
0000
0130
0000
0010
1000
0000
0100
0000
0010
0000
0010
,
0100
1000
0001
0010
0000
0002
2000
0000
,
0000
0000
0000
3003
,
2001
0000
3010
1000
0100
0020
0000
0031
,
0020
0000
0000
0000
0130
0000
1000
0000
0010
0000
0100
0000
0001
0100
0001
0000
,
2000
0000
3001
0010
0100
2000
0000
3001
,
1000
0000
0100
0000
0010
0000
0001
0000
1000
0000
0010
0000
0100
0001
0100
0000
,
0020
0000
0130
0010
1000
0002
0000
0013
,
2000
0000
0000
0000
3010
0000
0001
0000
0100
0000
0010
0000
1000
0100
1000
0000
,
0200
0000
0310
0100
1000
0002
0000
1003
,
0001
0100
0010
1000
0010
0100
0110
1001
,
1000
0100
1000
0001
0100
0001
1000
0100
,
0010
0001
0010
0100
1000
0100
0010
0001
,
0100
0010
1000
0100
0010
0001
0010
0100
,
0010
0001
0100
0010
1000
0100
2000
0000
,
3020
0000
0130
0010
1000
0002
0000
1003
,
0200
0000
0000
0000
0310
0000
0001
0000
1000
0000
0100
0000
1000
0001
0010
0100
,
2000
0000
3010
0100
0001
0020
0000
0130
,
0001
0000
0100
0000
1000
0000
0010
0000
1000
0000
0001
0000
0100
0010
0100
0001
,
2000
0000
3010
1000
0100
0020
0000
0130
,
2000
0000
0000
0000
3010
0000
0100
0000
0001
0000
1000
0000
0001
0100
1000
0100
,
0002
0000
0013
0001
1000
0020
0000
1030
,
0001
0100
0010
0001
0010
1000
0200
0000
,
0020
0000
0000
0000
0000
0000
0000
0000
0330
0000
0000
0001
1000
0001
1000
0001
,
2000
0000
0000
0000
3010
0000
0100
0000
0010
1000
0000
0100
0000
0000
0010
0000
,
0002
0000
0000
0000
0013
0000
0100
0000
0010
0001
0000
1000
0200
0000
0000
0000
,
2300
0000
0000
0000
3010
0000
0100
0000
0001
0100
0000
1000
0000
0000
0100
0000
,
0001
0000
0100
0000
0010
0000
1000
0000
0001
0200
0000
0000
0001
0000
0301
0000
,
0020
0000
0000
0000
0130
0000
0010
0000
0001
1000
0000
0010
0000
0000
1000
0000
,
0002
0000
0000
0000
0103
0000
0010
0000
1000
0100
0000
0010
0002
0000
0000
0000
,
0203
0000
0000
0000
0310
0000
1000
0000
0001
0010
0000
0100
0000
0000
0010
0000
,
0002
0000
0000
0000
1003
0000
0010
0000
1000
0001
0000
0001
0200
0000
0000
0000
,
0320
0000
0000
0000
0130
0000
0100
0000
0010
1000
0000
0001
0000
1000
0000
1000
,
0100
0010
0100
1000
1100
0000
1010
0000
,
0210
0000
0000
0000
0001
0000
0301
0000
0010
0001
0000
1000
0000
0010
0000
0010
,
0100
0001
1000
0010
0110
0210
0002
0300
,
2003
0000
0000
0000
0100
0000
3100
0000
0010
0100
0000
1000
0000
0001
0000
0001
,
1000
0010
0100
0001
0011
0000
0101
0000
,
1020
0000
0000
0000
0100
0000
0130
0000
0001
1000
0000
0100
0000
1000
0000
0001
,
0100
0001
1000
0200
0000
0310
2002
0000
,
3000
0003
0000
0000
;

//--------------- dance-single - PsyHunter29 ----------------
#NOTES:
     dance-single:
     PsyHunter29:
     Challenge:
     16:
     0,0,0,0,0:
0000
0000
0000
0000
,
0000
0000
0000
0000
,
0000
0000
0000
0000
,
0000
0000
0000
0000
,
1001
1001
MMMM
0000
0010
0000
0100
0000
,
0110
0110
MMMM
0000
1000
0000
0001
0000
,
1001
1001
MMMM
0000
0110
0110
MMMM
0000
,
1000
0001
1000
0001
1000
0001
1000
0001
0010
0100
0010
0100
0010
0100
0010
0100
,
2000
0000
0000
0000
0000
0000
3000
0000
MMMM
0000
0000
1000
0100
1000
0001
1000
,
0020
0000
0000
0000
0130
0000
0010
0000
1000
0100
0000
0010
0000
0100
1000
0000
,
0002
0000
0000
0000
1003
0000
0100
0000
0010
0001
0000
0001
0100
0000
MMMM
0000
,
2010
0000
0000
0000
3001
0000
1000
0000
0001
0010
0000
0100
0000
0010
0001
0000
,
0200
0000
0000
0000
0301
0000
1000
0000
0010
0100
0000
0001
0100
1000
0100
0001
,
2000
0000
0000
0000
3010
0000
0100
0000
0001
0010
0000
0100
0000
1000
0010
0000
,
2000
0000
0000
0000
3010
0000
1000
0000
0001
0010
0000
0010
0100
0000
MMMM
0000
,
2001
0000
0000
0000
3010
0000
0100
0000
0001
1000
0000
0100
0000
0010
0100
0000
,
2000
0000
0000
0000
3010
0000
0100
0000
0001
1000
0000
0010
0000
0000
MMMM
0000
,
0110
0000
MMMM
0000
0100
0000
0100
0000
0010
1000
0000
0002
0000
0000
0000
1003
,
0100
1000
0001
0100
0101
MMMM
1100
MMMM
,
0110
0000
MMMM
0000
0001
0000
0001
0000
0010
0100
0000
1000
0000
0001
0000
0001
,
0100
0001
1000
0010
1010
0110
0101
MMMM
,
1001
0000
MMMM
0000
0010
0000
0010
0000
0100
1000
0000
0010
0000
0100
0000
0100
,
0001
0100
1000
0001
0011
MMMM
1010
MMMM
,
1001
0000
MMMM
0000
0100
0000
0100
0000
0010
1000
0000
0100
0000
0010
0000
0010
,
0100
1000
0001
0010
MMMM
0110
2002
0000
,
0000
0000
0000
0000
0000
3003
MMMM
0000
,
0001
1000
0001
0000
0100
0000
0010
0000
1000
0001
1000
0000
0100
0000
0010
0000
,
0001
0100
0000
0010
1000
0010
0100
0002
0000
0000
0003
0000
MMMM
0000
0000
0000
,
0010
0001
0100
0010
0000
0100
0001
0000
1000
0100
1000
0001
0200
0000
0000
0000
,
0310
0000
0100
0000
0001
0010
0000
0000
1100
0000
0011
0000
1100
0000
MMMM
0000
,
0010
1000
0100
1000
0010
0000
0100
0000
0010
0000
1000
0000
0001
0010
0100
0000
,
0001
0100
1000
0000
0001
0100
1000
0100
0002
0000
0000
0000
1003
0000
MMMM
0000
,
0001
0010
0100
0000
1000
0000
0001
0100
0010
1000
0100
0000
0010
0000
0100
1000
,
0010
0000
0100
0001
0010
0000
0010
1000
0100
0000
0010
0001
0100
0000
0010
1000
,
0001
0100
1000
0001
0010
1000
0001
0100
,
0001
0010
1000
0001
0100
1000
0001
0010
,
1000
0010
0001
1000
0100
0001
1000
0010
,
0001
0100
1000
0001
0010
1000
0200
0000
,
0310
0100
1000
0100
0010
0000
0001
0000
0100
0010
0100
0001
0010
0000
0100
0000
,
1000
0001
0100
1000
0100
0000
0001
0000
0010
0000
0001
0000
0100
0000
MMMM
0000
,
0010
0100
0001
1000
0100
0000
0010
0000
0100
1000
0001
0100
0010
0000
0100
0000
,
0001
0100
0001
1000
0010
1000
0001
0000
0101
0000
1100
0000
1001
0000
MMMM
0000
,
0010
0100
0001
0010
0100
0000
1000
0020
0000
0130
0001
0020
0000
0130
0000
1100
,
0000
0101
0000
1000
0100
0001
0100
2000
0000
0000
3001
0000
1001
0000
MMMM
0000
,
0100
0010
0100
0001
0000
0010
0100
0000
1000
0010
0001
0010
1000
0000
0100
0010
,
0100
0000
0100
0000
1000
0100
0001
0100
1000
0000
1000
0000
0001
0100
0000
1000
,
0100
0000
0000
0202
0000
0000
0303
0000
MMMM
0000
0000
1000
0001
0010
0001
0100
,
0002
0000
0000
0000
0013
0000
0100
0000
0010
0001
0000
0100
0000
0010
0100
0000
,
1002
0000
0000
0000
0013
0000
0100
0000
0010
0001
0000
1000
0100
0000
1000
0000
,
2001
0000
0000
0000
3010
0000
0100
0000
0001
0100
0000
1000
0000
0100
0001
0000
,
1000
0000
0100
0000
0010
0000
0001
0000
1000
0100
0000
0010
0100
1000
0001
0100
,
0020
0000
0000
0000
0130
0000
0010
0000
1000
0001
0000
0010
0000
0001
0100
0000
,
2100
0000
0000
0000
3010
0000
0100
0000
1000
0100
0000
0010
0001
0000
0100
0000
,
0201
0000
0000
0000
0310
0000
1000
0000
0001
0010
0000
0100
0000
1000
0100
0000
,
0120
0000
0000
0000
0031
0000
0010
0000
0001
1000
0000
1000
0100
0000
MMMM
0000
,
1001
0000
MMMM
0000
0100
0000
0100
0000
0010
0001
0000
1000
0000
0001
0000
0001
,
0100
0010
0100
0001
0101
MMMM
1010
MMMM
,
0110
0000
MMMM
0000
1000
0000
1000
0000
0010
1000
0000
0001
0000
0010
0000
0010
,
0100
1000
0001
0010
0110
0110
1001
MMMM
,
0110
0000
MMMM
0000
0100
0000
0100
0000
0010
0100
0000
0001
0000
1000
0000
1000
,
0001
0010
0100
1000
0011
MMMM
1100
MMMM
,
1001
0000
MMMM
0000
0100
0000
0100
0000
1000
0001
0000
0100
0000
0001
0000
1000
,
0100
1000
0001
0200
0000
0310
2002
0000
,
0003
3000
0000
0000
;
