#TITLE:Rice & Curry;
#SUBTITLE:;
#ARTIST:Dr. Bombay;
#TITLETRANSLIT:;
#SUBTITLETRANSLIT:;
#ARTISTTRANSLIT:;
#CREDIT:;
#BANNER:Rice & Curry.png;
#BACKGROUND:Rice & Curry-bg.png;
#LYRICSPATH:;
#CDTITLE:;
#MUSIC:Rice & Curry.ogg;
#OFFSET:-0.010;
#SAMPLESTART:41.355;
#SAMPLELENGTH:12.000;
#SELECTABLE:YES;
#BPMS:0.000=137.000;
#STOPS:;
#BGCHANGES:15.000=Rice & Curry.avi=1.000=0=0=1,
190.750=Rice & Curry-bg.png=1.000=0=0=1,
99999=-nosongbg-=1.000=0=0=0 // don't automatically add -songbackground-
;

//---------------dance-single - ----------------
#NOTES:
     dance-single:
     :
     Hard:
     13:
     0.572,0.668,0.210,0.047,0.327:
0000
0000
0000
0000
,
0000
0000
0000
0000
,
0000
0000
0000
0000
,
0000
0000
0000
0000
,
0000
0000
0000
0000
,
0000
0000
0000
0000
,
0000
0000
0000
0000
,
0000
0000
0000
0000
0000
0000
1000
1000
,
1000
0000
0100
0010
0001
0000
1000
0010
0000
0010
1000
0000
0001
0100
0010
0000
,
0010
0000
0100
0001
0000
0001
0000
0010
0100
1000
0001
1000
0100
0000
0100
0000
,
0100
0000
0010
0001
1000
0000
0010
1000
0000
1000
0010
0100
0001
1000
0100
0000
,
0100
0000
1000
0100
1000
0000
1000
0001
0100
0001
1000
0000
0001
0000
0001
0000
,
0001
0000
0010
0100
1000
0000
0001
0100
0000
0100
0001
0000
1000
0100
0010
0000
,
0001
0000
0100
0001
0000
0001
0000
1000
0010
0100
0001
1000
0001
0000
0001
0000
,
0001
0000
0010
0100
1000
0000
0001
0100
0000
0100
0001
1000
0100
0000
0100
0000
,
0100
0000
0010
0001
1000
0001
0010
0100
1000
0000
0001
0000
0100
0000
0001
0000
,
1000
0100
0010
0000
0011
1000
0010
0100
,
0010
1000
0100
0000
1100
0001
0010
0100
,
0010
0001
0100
0000
0101
1000
0010
0100
,
0010
1000
0001
0000
0011
0100
1000
0001
,
1000
0100
0010
0000
0011
1000
0010
0100
,
0010
1000
0001
0000
0011
1000
0100
0000
,
0010
0000
0001
0000
0100
0010
0100
1000
,
0100
0000
0001
0000
1000
0100
1000
0100
0010
0000
0001
0000
0011
0000
0001
0000
,
1000
1000
0010
0100
0000
0001
0100
1000
,
0010
1000
0100
0001
0000
1000
0100
0001
,
0010
0001
0100
1000
0000
0010
1010
1000
,
1001
1000
1010
0010
0000
0100
0101
0001
,
1000
1000
0100
0010
0000
0001
0100
1000
,
0010
1000
0100
0001
0000
0010
0100
1000
,
0001
0100
0000
0000
0000
0110
0000
0010
,
1000
0000
0100
0000
0010
0001
0010
0001
0010
0000
0001
0000
0101
0000
0100
0000
,
0010
0010
1000
1000
0000
0001
0010
1000
,
0100
1000
0010
0001
0000
1000
0010
0001
,
0100
0001
0010
1000
0000
0001
0011
0001
,
1001
0001
0011
0010
0000
0100
1100
1000
,
0010
0010
0100
0100
0000
1000
0100
0001
,
0010
0001
0100
1000
0000
0001
0010
1000
,
0100
0010
0000
0000
0000
0011
0000
0001
,
0100
0000
0010
0000
1000
0100
1000
0100
1000
0001
0100
0001
0200
0000
0000
0000
,
1000
0000
0000
0000
0310
0000
0000
0000
0000
0000
1000
0010
0100
0000
0100
0000
,
0001
0000
0001
0010
0000
0010
0001
1000
0001
0000
0001
0000
0020
0000
0000
0000
,
1000
0000
0000
0000
0130
0000
0000
0000
0000
0000
0100
1000
0001
0000
0001
0000
,
0100
0001
0100
0001
1000
0000
1000
0000
0100
1000
0100
1000
0200
0000
0000
0000
,
0001
0000
0000
0000
0310
0000
0000
0000
0000
0000
0001
0100
0010
0000
0010
0000
,
1000
0000
0010
1000
0000
1000
0010
0100
0001
0000
0001
0000
0020
0000
0000
0000
,
1000
0000
0130
0000
0001
0000
0100
0100
,
1000
0000
1000
0001
0100
0000
0100
0000
0010
0000
0010
1000
0000
0000
0000
0000
;

//---------------dance-single - ----------------
#NOTES:
     dance-single:
     :
     Medium:
     10:
     0.434,0.445,0.058,0.047,0.047:
0000
0000
0000
0000
,
0000
0000
0000
0000
,
0000
0000
0000
0000
,
0000
0000
0000
0000
,
0000
0000
0000
0000
,
0000
0000
0000
0000
,
0000
0000
0000
0000
,
0000
0000
0000
0000
0000
0000
1000
1000
,
1000
0000
0010
0000
0100
0000
0000
0001
0000
0000
0100
0000
0010
0000
1000
0000
,
0001
0000
0001
0010
0001
0000
0001
0001
,
0001
0000
0100
0000
0010
0000
0000
1000
0000
0000
0010
0000
0100
0000
0001
0000
,
0001
1000
0100
1000
0001
0000
1000
1000
,
1000
0000
0100
0000
0010
0000
0000
0001
0000
0000
0010
0000
0100
0000
1000
0000
,
0001
0000
0001
0010
0001
0000
0001
0001
,
0001
0000
0010
0000
0100
0000
0000
1000
0000
0000
0100
0000
0010
0000
0010
0000
,
0010
0001
1000
0010
0110
0000
0100
0001
,
0100
0001
1000
0000
0000
0100
0000
1000
,
0100
1000
0001
0000
0000
0001
1000
0010
,
1000
0010
0100
0000
0000
0000
0001
0010
,
0100
0010
1000
0000
0000
0000
0001
0100
,
0010
0100
0001
0000
0000
0000
0001
0100
,
1000
0010
0100
0000
0000
0000
1000
0000
,
0100
0000
0001
0000
0000
0000
0001
0100
,
1000
0100
0001
0010
0100
0000
1000
1000
,
0010
0010
1000
1000
0000
0001
0010
0100
,
1000
0001
0100
0001
0000
1000
0010
0100
,
0001
1000
0010
1000
0000
1000
0001
0100
,
1000
0100
0001
1000
0000
0000
0001
0001
,
0010
0010
0100
0100
0000
0010
0001
1000
,
0010
0100
0001
1000
0000
0100
0010
0100
,
1000
1001
0000
0000
0000
0001
0100
0010
,
1000
0100
0010
0001
0011
0000
1000
1000
,
0001
0001
0100
0100
0000
0010
1000
0001
,
0010
0100
1000
0100
0000
0010
0001
1000
,
0010
0100
0001
0100
0000
0100
0001
0010
,
1000
0010
0001
0100
0000
0010
1000
1000
,
0100
0100
0010
0010
0000
0001
1000
0010
,
0100
0001
0010
0001
0000
1000
0010
0100
,
0001
0010
0000
0001
0100
0110
0000
0010
,
1000
0010
0100
0100
0001
0001
0012
0000
,
1000
0000
0013
0000
0000
0001
0100
0100
,
0010
0000
1000
0010
0000
0010
1000
0000
0001
0000
0001
0000
0020
0000
0000
0000
,
1000
0000
0130
0000
0000
0010
0001
0001
,
1000
1000
0001
0001
1000
1000
0020
0000
,
0001
0000
0130
0000
0000
0001
0100
0100
,
0001
0000
0010
0001
0000
0001
0010
0000
0100
0000
0100
0000
2000
0000
0000
0000
,
0010
3001
0100
0010
,
1000
0000
0100
0000
0001
0001
0000
0000
;

//---------------dance-single - ----------------
#NOTES:
     dance-single:
     :
     Easy:
     5:
     0.245,0.277,0.117,0.047,0.000:
0000
0000
0000
0000
,
0000
0000
0000
0000
,
0000
0000
0000
0000
,
0000
0000
0000
0000
,
0000
0000
0000
0000
,
0000
0000
0000
0000
,
0000
0000
0000
0000
,
0000
0000
0000
1000
,
0010
0100
0100
0001
,
1000
0100
0010
0100
,
0100
1000
0001
0100
,
0010
0100
1000
0001
,
0001
0010
0100
0010
,
1000
1000
0010
0100
,
0100
0010
0001
0010
,
0100
0010
1000
0100
,
1000
0100
0000
0010
,
0100
0010
0000
0001
,
0010
0001
0000
0001
,
0100
0001
0000
0100
,
0010
0100
0000
0010
,
1000
0010
0000
1000
,
0100
0010
0000
0010
,
0100
0001
0000
0001
,
0100
1000
0000
1000
,
0010
1000
0000
1000
,
0010
1000
0000
1001
,
0110
1001
0000
0001
,
0010
1000
0000
1000
,
0010
0100
0000
0100
,
0010
0001
0000
0001
,
1000
0001
0000
1000
,
0010
0001
0000
0001
,
0010
0001
0000
0001
,
0010
0001
0000
1001
,
0110
1001
0000
0001
,
0010
1000
0000
1000
,
0010
0100
0000
0100
,
1000
0001
0000
0001
,
0100
0010
0000
2010
,
0001
3010
0000
1000
,
0100
1000
0100
0012
,
1000
0000
0013
0000
0000
0000
0001
0001
,
0000
0000
1000
1000
0000
0000
0012
0000
,
1000
0013
0000
0001
,
0100
0001
0100
2010
,
0001
3010
1000
0100
,
0001
0100
1000
0000
;

//---------------dance-double - ----------------
#NOTES:
     dance-double:
     :
     Medium:
     10:
     0.430,0.416,0.093,0.047,0.012: // measure 1
00000000
00000000
00000000
00000000
,  // measure 2
00000000
00000000
00000000
00000000
,  // measure 3
00000000
00000000
00000000
00000000
,  // measure 4
00000000
00000000
00000000
00000000
,  // measure 5
00000000
00000000
00000000
00000000
,  // measure 6
00000000
00000000
00000000
00000000
,  // measure 7
00000000
00000000
00000000
00000000
,  // measure 8
00000000
00000000
00000000
00000000
00000000
00000000
10000000
01000000
,  // measure 9
00010000
00000000
00001000
00000000
00011000
00000000
00000001
00000100
,  // measure 10
00001000
00000000
00010000
00100000
00010000
00000000
00001000
00000100
,  // measure 11
00000001
00000000
00011000
00000000
10000000
00000000
01000000
00010000
,  // measure 12
00001000
00000000
00001000
00010000
01000000
00010000
00001000
00000100
,  // measure 13
00000001
00000000
00011000
00000000
10000000
00000000
00100000
00010000
,  // measure 14
00001000
00000000
00001000
00000010
00001000
00000000
00000001
00000100
,  // measure 15
00001000
00000000
10010000
00000000
00001000
00000000
10000000
00100000
,  // measure 16
00010000
00000000
00010000
00001000
00000100
00000000
00000001
00000010
,  // measure 17
00000100
00000010
00000001
00000000
00000000
00000001
00000000
00000100
,  // measure 18
00001000
00010000
00001000
00000000
00000000
00010000
00001000
00010000
,  // measure 19
00001000
00010000
01000000
00000000
10000000
00100000
10000000
01000000
,  // measure 20
00010000
01000000
10000000
00000000
00100000
00010000
00001000
00010000
,  // measure 21
00001000
00010000
00100000
00000000
10000000
01000000
00010000
01000000
,  // measure 22
00010000
00001000
00000100
00000000
00000001
00000010
00001000
00000000
,  // measure 23
00000010
00000000
00000001
00000000
00000100
00000000
00001000
00010000
,  // measure 24
01000000
10000000
01000000
01000000
00100000
00010000
00000000
00010000
,  // measure 25
10000000
00100000
01000000
00001000
00000000
00001000
00010000
00000100
,  // measure 26
00000010
00000001
00000100
00000001
00000000
00000001
00000010
00000100
,  // measure 27
00010000
00001000
01000000
00100000
00000000
00100000
10000000
01000000
,  // measure 28
00010000
00001000
00000100
00000001
00000000
00000010
00000100
00010000
,  // measure 29
00001000
01000000
00100000
10000000
00000000
01000000
00100000
00010000
,  // measure 30
10000000
00100000
01000000
00001000
00000000
00010000
00000100
00000000
,  // measure 31
00000010
00000001
00000000
00000001
00000100
00001000
00000000
00001000
,  // measure 32
00010000
01000000
10000000
01000000
00100000
00010000
00000000
10000000
,  // measure 33
00100000
01000000
00100000
10000000
00000000
10000000
01000000
00100000
,  // measure 34
00001000
00010000
00000010
00000100
00000000
00000001
00000010
00000100
,  // measure 35
00010000
00001000
01000000
00100000
00000000
10000000
00100000
00010000
,  // measure 36
00001000
00000010
00001000
00010000
00000000
00000001
00000100
00000010
,  // measure 37
00010000
00001000
00000010
00000100
00000000
00010000
00001000
00100000
,  // measure 38
00010000
01000000
00100000
01000000
00000000
00010000
10000000
00000000
,  // measure 39
01000000
00100000
00000000
00001000
00010000
00000010
00000000
00000100
,  // measure 40
00001000
00010000
00001000
00000100
00000001
00001000
00002100
00000000
,  // measure 41
00010000
00000000
00003100
00000000
00000000
00000010
00000001
00000100
,  // measure 42
00001000
00000000
00000000
00001000
00000000
00000000
00010000
00000000
01000000
00000000
10000000
00000000
21000000
00000000
00000000
00000000
,  // measure 43
00100000
00000000
30010000
00000000
00000000
10000000
00100000
00100000
,  // measure 44
00010000
00010000
00001000
00001000
00000010
00000010
00000012
00000000
,  // measure 45
00001000
00000000
00000103
00000000
00000000
00000001
00000010
00000100
,  // measure 46
00010000
00000000
00000000
01000000
00000000
00000000
00010000
00000000
00001000
00000000
00010000
00000000
02010000
00000000
00000000
00000000
,  // measure 47
00100000
13000000
01000000
00010000
,  // measure 48
00001000
00000010
00000001
00000000
;

//---------------dance-double - ----------------
#NOTES:
     dance-double:
     :
     Easy:
     4:
     0.244,0.277,0.117,0.000,0.000:
00000000
00000000
00000000
00000000
,
00000000
00000000
00000000
00000000
,
00000000
00000000
00000000
00000000
,
00000000
00000000
00000000
00000000
,
00000000
00000000
00000000
00000000
,
00000000
00000000
00000000
00000000
,
00000000
00000000
00000000
00000000
,
00000000
00000000
00000000
10000000
,
01000000
00010000
00000000
00001000
,
00010000
00001000
00000000
00001000
,
00000100
00000001
00000000
00001000
,
00000001
00001000
00000000
00000001
,
00000010
00001000
00000000
00001000
,
00010000
00001000
00000000
00010000
,
00100000
10000000
00000000
00010000
,
10000000
00010000
00100000
00010000
,
10000000
00100000
00000000
10000000
,
00010000
00100000
00000000
01000000
,
00100000
00010000
00000000
10000000
,
00100000
00010000
00000000
00001000
,
00000010
00000001
00000000
00000001
,
00000010
00000001
00000000
00000001
,
00000100
00001000
00000000
00010000
,
00001000
00000100
00000000
00000001
,
00000001
00001000
00001000
00000100
,
00001000
00000100
00001000
00010000
,
00100000
00010000
00100000
01000000
,
01000000
01000000
00000000
10000000
,
10000000
00010000
00010000
10000000
,
00100000
10000000
00100000
01000000
,
00010000
01010000
00000000
10000000
,
01000000
10000000
00000000
10000000
,
10000000
00010000
00010000
01000000
,
00010000
01000000
00010000
00001000
,
00000010
00001000
00000010
00000100
,
00000100
00000001
00000000
00000001
,
00000001
00001000
00001000
00000001
,
00000010
00000001
00000010
00000100
,
00010000
00001000
00000000
00100000
,
00010000
01010000
00000000
01100000
,
00001000
01100000
00000000
10000000
,
01000000
01000000
00010000
00011000
,
00000001
00011000
00000000
00000001
,
00000100
00001000
00010000
00011000
,
10000000
00011000
00000000
00010000
,
00001000
00000100
00000001
00001001
,
00010000
00001001
00000001
00000100
,
00001000
00010000
00001000
00000000
;

//---------------dance-double - ----------------
#NOTES:
     dance-double:
     :
     Hard:
     13:
     0.525,0.640,0.023,0.047,0.269: // measure 1
00000000
00000000
00000000
00000000
,  // measure 2
00000000
00000000
00000000
00000000
,  // measure 3
00000000
00000000
00000000
00000000
,  // measure 4
00000000
00000000
00000000
00000000
,  // measure 5
00000000
00000000
00000000
00000000
,  // measure 6
00000000
00000000
00000000
00000000
,  // measure 7
00000000
00000000
00000000
00000000
,  // measure 8
00000000
00000000
00000000
00000000
00000000
00000000
00010000
00001000
,  // measure 9
00000100
00000000
00000001
00000010
00000001
00000000
00000100
00001000
00000000
00001000
00010000
00000000
01000000
10000000
01000000
00000000
,  // measure 10
00100000
00000000
00010000
01000000
00000000
00100000
00000000
10000000
01000000
00000000
00010000
00000000
00001000
00000000
00000100
00000000
,  // measure 11
00000001
00000000
00000010
00001000
00000010
00000000
00000001
00000100
00000000
00000100
00001000
00000000
00010000
01000000
00010000
00000000
,  // measure 12
00001000
00000000
00010000
00100000
00010000
00000000
00001000
00000010
00001000
00000010
00001000
00000000
00010000
00000000
01000000
00000000
,  // measure 13
10000000
00000000
00100000
10000000
00100000
00000000
00010000
00001000
00000000
00001000
00000010
00000000
00000001
00000100
00000001
00000000
,  // measure 14
00000010
00000000
00001000
00010000
00000000
00100000
00000000
00010000
00001000
00000000
00000010
00000000
00000001
00000000
00000100
00000000
,  // measure 15
00001000
00000000
00010000
01000000
00010000
00000000
01000000
10000000
00000000
10000000
00100000
00000000
00010000
00000000
00001000
00000000
,  // measure 16
00000010
00000000
00001000
00000000
00010000
00100000
00010000
00100000
00010000
00000000
00001000
00000000
00000010
00000000
00000001
00000000
,  // measure 17
00000100
00001000
00010000
00000000
00000000
00010000
01000000
10000000
,  // measure 18
00100000
01000000
00010000
00000000
00000000
00100000
01000000
10000000
,  // measure 19
01000000
00010000
00001000
00000000
00000000
00000100
00000001
00000010
,  // measure 20
00000100
00000010
00000001
00000000
00000000
00000100
00001000
00010000
,  // measure 21
01000000
10000000
00100000
00000000
00000000
01000000
00010000
00100000
,  // measure 22
00010000
01000000
00100000
00000000
00100000
00010000
00001000
00000000
,  // measure 23
00001001
00000000
00000011
00000000
00000010
00000001
00000100
00001000
,  // measure 24
00010000
00000000
01000000
00000000
10000000
00010000
10000000
00010000
10000000
00000000
00100000
00000000
10000000
00000000
01000000
00000000
,  // measure 25
00010000
00001000
00010000
01000000
00000000
10000000
01000000
00010000
,  // measure 26
00001000
00000100
00000001
00000010
00000000
00000010
00000001
00000100
,  // measure 27
00001000
00010000
01000000
10000000
00000000
00100000
10000000
00010000
,  // measure 28
00001000
00000001
00001000
00010000
00000000
10000000
00100000
00010000
,  // measure 29
00001000
00010000
00100000
10000000
00000000
10000000
00100000
00010000
,  // measure 30
00001000
00000010
00000001
00000100
00000000
00000001
00000010
00000100
,  // measure 31
00010000
00001000
00000000
00001000
00010000
00100000
00000000
00100000
,  // measure 32
10000000
01000000
00010000
00001000
00010000
01000000
00000000
00010000
,  // measure 33
00001000
00000100
00000001
00000100
00000000
00000001
00000010
00001000
,  // measure 34
00010000
00100000
10000000
00100000
00000000
10000000
00100000
00010000
,  // measure 35
00001000
00000010
00000001
00000010
00000000
00000010
00000001
00001000
,  // measure 36
00010000
10000000
00010000
00001000
00000000
00000001
00000100
00001000
,  // measure 37
00010000
00001000
00000100
00000001
00000000
00000001
00000100
00001000
,  // measure 38
00010000
01000000
10000000
01000000
00000000
00100000
00001000
00010000
,  // measure 39
00100000
10000000
00000000
01000000
00010000
00001000
00000000
00000010
,  // measure 40
00000001
00000000
00000100
00000000
00001000
00000000
00010000
00000000
01000000
00010000
01000000
00010000
00002000
00000000
00000000
00000000
,  // measure 41
00000010
00000000
00000000
00000000
00003001
00000000
00000000
00000000
00000000
00000000
00001000
00000010
00000001
00000000
00000001
00000000
,  // measure 42
00000100
00000000
00001000
00010000
00000000
00010000
01000000
10000000
00100000
00000000
00100000
00000000
00020000
00000000
00000000
00000000
,  // measure 43
00100000
00000000
00000000
00000000
10030000
00000000
00000000
00000000
00000000
00000000
10000000
01000000
00100000
00000000
00100000
00000000
,  // measure 44
10000000
01000000
10000000
01000000
00100000
00000000
00100000
00000000
00001000
00010000
00001000
00010000
00002000
00000000
00000000
00000000
,  // measure 45
00000100
00000000
00000000
00000000
00003001
00000000
00000000
00000000
00000000
00000000
00000001
00000010
00001000
00000000
00001000
00000000
,  // measure 46
00000100
00000000
00000010
00001000
00000000
00001000
00010000
00100000
10000000
00000000
10000000
00000000
00020000
00000000
00000000
00000000
,  // measure 47
00000100
00000000
00000000
00000000
00030001
00000000
00000000
00000000
00000010
00000000
00000000
00000000
00001000
00000000
00000100
00000010
,  // measure 48
00001000
00000000
00010000
00000000
01000000
00000000
00100000
00010000
10000000
00000000
00100000
01000000
00000000
00000000
00000000
00000000
;
