#TITLE:Raw Unfiltered;
#SUBTITLE:;
#ARTIST:Karl with a K;
#TITLETRANSLIT:;
#SUBTITLETRANSLIT:;
#ARTISTTRANSLIT:;
#GENRE:;
#CREDIT:;
#BANNER:Raw Unfiltered.png;
#BACKGROUND:Raw Unfiltered bg.png;
#LYRICSPATH:;
#CDTITLE:;
#MUSIC:Raw Unfiltered.ogg;
#OFFSET:0.000000;
#SAMPLESTART:100.000000;
#SAMPLELENGTH:12.000000;
#SELECTABLE:YES;
#BPMS:0.000000=168.000000
,232.000000=84.000000
;
#STOPS:
;
#BGCHANGES:;
#KEYSOUNDS:;
#ATTACKS:;

//---------------dance-single - ----------------
#NOTES:
     dance-single:
     :
     Hard:
     16:
     0.472730,0.643327,0.146364,0.534548,0.372275,520.000000,497.000000,23.000000,84.000000,0.000000,0.000000,0.472730,0.643327,0.146364,0.534548,0.372275,520.000000,497.000000,23.000000,84.000000,0.000000,0.000000:
// measure 0
0000
0000
0000
0000
,  // measure 1
0000
0000
0000
0000
,  // measure 2
0000
0000
0000
0000
,  // measure 3
0000
0000
0000
0000
0000
0000
0000
0000
1000
0000
0100
0000
0010
0000
0100
1000
,  // measure 4
0000
0000
0001
1000
0001
0000
0100
0000
0001
0000
0010
0000
0001
0010
0000
0100
,  // measure 5
1000
0100
1000
0000
0001
0000
0100
0000
0010
0000
0100
0001
0000
1000
0000
0001
,  // measure 6
1000
0000
0100
0000
1000
0000
0010
0000
0100
0001
0100
0000
1000
0100
0010
0001
,  // measure 7
1000
0000
1010
0000
0010
0100
0001
1000
,  // measure 8
0000
0100
0010
0000
0000
0001
0100
0000
0010
0000
1000
0000
0001
0000
0000
0000
,  // measure 9
0011
0000
0000
0010
0100
1000
0001
0000
0100
0000
0001
0000
0000
0000
0110
0000
,  // measure 10
1000
0100
0000
1000
0001
0000
0101
1000
,  // measure 11
0100
0010
0000
0000
0001
0000
1000
0000
0000
0000
0110
0000
1000
0000
0100
0000
,  // measure 12
0010
0000
0001
0000
1000
0000
0000
0000
1100
0000
0100
0000
0010
0001
1000
0000
,  // measure 13
0010
0000
1000
0000
0000
0000
0110
0000
0000
0000
0001
0100
0010
0100
0010
1000
,  // measure 14
0200
0000
1000
1000
1000
1300
0001
0200
,  // measure 15
0000
0001
0001
0001
0001
0301
0020
0000
,  // measure 16
0031
0000
1000
0000
0001
0000
0100
0000
0001
0000
0100
0000
0000
0000
0010
1000
,  // measure 17
0001
0000
0010
0100
0010
0000
0100
0000
1000
0000
1000
0000
0001
0000
1000
0000
,  // measure 18
0000
1000
0000
0000
0010
0000
0200
0000
0000
0000
1000
0000
0000
0000
1300
0000
,  // measure 19
0000
0000
0100
0000
0001
0000
0000
0000
1000
0000
0100
0000
0001
0000
0100
0010
,  // measure 20
0100
1000
0020
0000
0000
0000
0030
0100
,  // measure 21
0000
0001
0000
0000
0020
0000
0000
0000
0030
0000
0001
0000
0010
0000
0001
0000
0010
0000
0001
0000
0010
0000
0001
0000
0010
0000
0000
0000
0200
0000
0000
0000
,  // measure 22
0000
0000
0001
0000
0000
0000
0301
0000
0100
0010
0100
0010
0001
2000
0000
0000
,  // measure 23
3001
2000
0000
3000
1000
0002
0000
0000
1003
0001
0200
0000
0300
0000
0010
0000
,  // measure 24
0000
0010
0100
0000
0000
0000
0010
0000
0100
0000
0000
0000
0010
0000
0000
0000
0100
0010
0000
0000
0000
0000
0010
0000
1000
0000
0000
0000
0000
0010
0000
0000
,  // measure 25
1000
0000
0010
0000
0100
0000
0000
0010
1000
0000
0000
0010
2000
0000
0000
0000
0000
0000
0000
0000
0100
0000
0000
0000
0000
0000
0000
0000
3100
0000
0000
0000
,  // measure 26
0010
0200
0001
0000
0001
0000
0301
0100
,  // measure 27
1000
0000
0020
0000
0000
0000
0100
0000
0130
0001
1000
0001
1000
0001
0100
0000
,  // measure 28
0010
0200
1000
1000
1000
1000
1300
0200
,  // measure 29
0000
0000
0310
0100
0000
0000
0001
1000
0001
0000
1000
0000
0100
0000
0000
0000
,  // measure 30
0010
0001
0000
0000
0001
0000
1000
0001
0100
0000
0002
0000
1003
0100
0010
0000
,  // measure 31
0001
0100
0010
0000
0100
0000
0001
0000
1000
0000
0100
0010
0100
0000
0000
0100
,  // measure 32
0001
0000
0100
0010
0001
2000
0000
0000
0000
3001
0000
0000
0200
0000
0000
0000
,  // measure 33
0301
0020
0100
0000
0032
0000
0000
0203
,  // measure 34
0000
0000
2300
0100
0000
3200
0000
0301
,  // measure 35
0020
0000
0000
0030
0120
0000
0000
0030
0020
0000
0000
0000
1030
0000
0020
0000
,  // measure 36
0000
1030
0010
1000
1000
0010
0100
0010
,  // measure 37
0100
0010
0001
0010
0001
0010
0001
0100
,  // measure 38
0010
0100
0010
0000
0100
0000
0001
0000
0000
0000
2000
0000
3010
0000
0200
0000
,  // measure 39
0000
0000
2300
0000
0000
0000
3100
0000
2000
0000
0000
0000
3100
0000
1000
0100
,  // measure 40
1000
0000
0100
0000
1000
0100
1000
0000
0100
0000
0010
0100
0010
0100
0001
0100
,  // measure 41
0001
0100
0001
1000
0001
2000
0001
0000
0000
0000
3001
0000
1000
0100
0010
0000
,  // measure 42
2001
0000
0000
0000
0000
0000
3001
0100
0020
0000
0000
0000
0130
0000
0000
0001
,  // measure 43
2000
0100
3001
0010
,  // measure 44
0120
0100
0000
0031
1000
0010
0010
0100
,  // measure 45
1000
0100
0010
2000
0010
0000
3001
0100
,  // measure 46
1002
0000
0000
0000
0000
0000
1003
0100
0020
0000
0000
0000
0130
0000
0000
0000
,  // measure 47
1002
0000
0103
0020
1000
0000
1030
0010
,  // measure 48
0120
0000
0000
0000
0000
0000
0000
0000
0000
0000
0000
0000
0000
0000
0000
0000
0000
0000
1030
0000
0000
0000
0000
0000
0001
0000
0000
0000
0000
0000
0010
0000
0000
0000
0000
0000
0000
0000
0100
0000
0000
0000
0000
0000
0000
0010
0000
0000
,  // measure 49
0001
0000
0000
0000
0000
0000
0100
0000
0000
0000
0000
0000
0000
1000
0000
0000
0000
0000
0000
0000
0100
0000
0000
0000
0000
0000
0000
0000
0000
0000
0000
0000
,  // measure 50
1002
0000
0000
0000
0000
0000
1003
0010
0200
0000
0000
0000
0310
0000
1000
0000
,  // measure 51
0002
0000
0013
0001
1000
0000
0100
0010
,  // measure 52
0110
0100
0000
1000
0001
0100
0010
0001
,  // measure 53
0010
0000
0100
0000
0001
0000
0000
0000
0100
0010
0000
0000
1000
0000
0100
0000
,  // measure 54
2001
0000
0000
0000
0000
0000
3001
0010
0200
0000
0000
0000
0310
0000
0001
0000
,  // measure 55
1000
1000
0010
0100
1001
0000
0001
0010
,  // measure 56
0110
0000
0200
0000
0000
0000
1300
0000
0001
0000
0100
0000
0000
0000
0001
1000
,  // measure 57
0001
0000
0000
0010
0000
0000
0100
0000
0010
0000
0001
0000
0100
0000
0010
0000
,  // measure 58
2002
0000
0000
0000
,  // measure 59
0000
0000
0000
0000
0000
0000
0000
0000
0000
0000
0000
0000
0000
0000
0000
0000
0000
0000
0000
0000
0000
0000
0000
0000
0000
0000
0000
0000
3003
0000
1000
0100
,  // measure 60
0020
0000
0000
0000
,  // measure 61
0000
0000
0000
0000
0032
0000
0000
0000
0000
2003
0000
0000
,  // measure 62
3020
0000
0000
0000
,  // measure 63
0000
0000
0000
0000
,  // measure 64
0230
0000
0000
0000
,  // measure 65
0000
0000
0000
0000
0000
0000
0000
0000
0000
0000
0000
0000
0000
0000
0000
0000
0000
0000
0002
0000
0000
0000
0303
0000
1000
0000
0100
0000
1000
0000
0000
0001
,  // measure 66
0020
0000
0000
0000
0000
0000
0000
0000
0001
0000
0000
0000
0000
0000
0000
0000
0130
2000
0000
0000
0000
0000
0000
0000
0001
0000
0000
0000
0000
0000
0000
0000
,  // measure 67
0010
0000
0000
0000
0000
0000
0000
0000
0000
0000
0000
0000
3001
0000
0000
0000
0000
0000
0100
0000
0000
0000
0000
0000
0010
0000
0000
1000
0000
0000
0000
0000
0000
0010
0000
0000
1000
0000
0000
0000
0001
0000
0000
0000
1000
0000
0000
0000
,  // measure 68
0200
0000
0000
0000
0010
0000
0000
0000
1300
0001
1000
0001
0000
0100
0001
0000
,  // measure 69
0200
0000
0000
0320
1000
0000
0230
0000
0000
0001
0000
0000
0301
1000
0001
0000
,  // measure 70
2100
0000
0000
0000
0000
0000
0000
0000
0000
0000
0000
0000
0000
0000
0000
0000
3001
0000
0000
0000
0000
0000
0000
0000
0000
0000
0000
0000
0100
0000
0000
0000
0002
0000
0000
0000
0000
0000
0000
0000
0000
0000
0000
0000
0000
0000
0000
0000
1003
0000
0000
0000
0000
0000
0000
0200
0000
0000
0000
0000
0000
0000
0000
0000
,  // measure 71
1300
0002
0000
0000
0000
0000
2003
0000
0000
0000
0000
0000
3001
0010
0001
0000
2000
0000
0000
0000
0000
0000
3200
0000
1000
0000
0000
0000
0300
0000
1000
0000
,  // measure 72
0020
0100
2030
0100
,  // measure 73
3001
0000
1000
0100
0010
0001
1000
0001
0100
0010
0001
0010
0100
0010
1000
0010
,  // measure 74
0002
0000
0020
0000
0000
0000
0030
0000
1003
0002
0000
0000
1000
0000
0000
0000
,  // measure 75
0023
0000
0200
0000
0000
0000
0330
0000
0010
0000
0000
0020
0000
0000
0031
0000
,  // measure 76
2020
3030
0022
0033
,  // measure 77
2002
0000
0000
0000
,  // measure 78
0000
0000
0000
0000
,  // measure 79
0000
0000
0000
0000
,  // measure 80
0000
0000
0000
0000
0000
0000
0000
0000
0000
0000
0000
0000
0000
0000
0000
0000
3003
0000
0000
0000
0001
0000
1000
0000
0010
0000
0100
0010
0100
0000
0000
0000
;

//---------------dance-single - ----------------
#NOTES:
     dance-single:
     :
     Medium:
     13:
     0.303638,0.436786,0.152728,0.477275,0.108182,334.000000,310.000000,24.000000,75.000000,0.000000,0.000000,0.303638,0.436786,0.152728,0.477275,0.108182,334.000000,310.000000,24.000000,75.000000,0.000000,0.000000:
// measure 0
0000
0000
0000
0000
,  // measure 1
0000
0000
0000
0000
,  // measure 2
0000
0000
0000
0000
,  // measure 3
0000
0000
0000
0000
1000
0100
0010
0100
,  // measure 4
1000
0000
0001
1000
0010
0100
0010
0000
,  // measure 5
1000
0001
0100
0010
0100
0001
1000
0001
,  // measure 6
0010
0100
0010
0001
1000
1000
0001
1000
,  // measure 7
0001
0000
0010
0000
0010
0001
1000
0100
,  // measure 8
0000
1000
0000
1000
0000
0001
1000
0000
,  // measure 9
0010
0000
0010
1000
0001
0100
0000
0001
,  // measure 10
0000
0001
0000
1000
0001
0000
0010
0000
,  // measure 11
0010
0100
1000
0010
0000
1000
0000
1000
,  // measure 12
0000
0001
1000
0000
0100
0000
0010
1000
,  // measure 13
0100
0010
0000
0001
0000
0001
1000
0001
,  // measure 14
2000
0000
0100
0000
0001
0000
3100
2000
,  // measure 15
0000
3002
0000
2003
0000
3002
0013
0000
,  // measure 16
0001
1000
0001
0100
0001
0100
0000
0001
,  // measure 17
1000
0001
0001
1000
0100
0100
0000
1000
,  // measure 18
0000
1000
0000
0000
0001
0000
2000
0000
0000
0000
3002
0000
0000
0000
2003
0000
,  // measure 19
0000
3000
0020
0000
0230
0000
0301
1000
,  // measure 20
0100
2000
0000
0100
0000
3001
0000
0100
,  // measure 21
0001
0000
0000
0010
0000
0000
0010
0000
0001
0000
0010
0000
0001
0000
1000
0000
,  // measure 22
0000
0001
0000
1000
0010
0010
1000
0000
,  // measure 23
1000
0000
1000
0000
1000
0001
0100
0001
,  // measure 24
0000
1000
0000
0000
0000
0000
0001
0000
0000
0000
0000
0000
1000
0000
0000
0000
0000
0001
0000
0000
0000
0000
1000
0000
0000
0000
0000
0000
0000
0001
0000
0000
,  // measure 25
0000
0000
1000
0000
0000
0000
0000
0001
0000
0000
0000
1000
0000
0000
0000
0000
0000
0000
0000
0000
0001
0000
0000
0000
0000
0000
0000
0000
1000
0000
0000
0000
,  // measure 26
0001
1000
1000
1000
,  // measure 27
1000
0020
0000
0100
0000
0100
0000
0130
,  // measure 28
0000
0001
0000
0001
1000
0100
1000
0001
,  // measure 29
0000
0100
0000
0100
0001
0000
1000
0000
,  // measure 30
0100
0000
0100
0000
0010
0002
0000
0000
,  // measure 31
0000
0000
0000
0000
0000
0000
0003
0000
0000
0000
1000
0000
0000
0000
0000
0010
,  // measure 32
0000
0000
0000
0000
0000
0200
0000
0000
0000
0000
0000
0000
0302
0000
0000
0000
,  // measure 33
0000
0000
0000
0023
0000
0000
0000
0000
0000
0230
0000
0000
0000
0000
0000
2300
,  // measure 34
0000
0000
3020
0000
0000
0000
0000
0030
,  // measure 35
0010
0000
0010
0000
0010
0000
1000
0010
,  // measure 36
0000
0100
0010
0100
0010
0100
0010
0100
,  // measure 37
0010
0100
0010
0100
0010
0100
0010
0100
,  // measure 38
0010
0100
0010
1000
0000
0002
0000
1003
,  // measure 39
1000
0002
0000
1003
0002
1000
1003
0002
,  // measure 40
0010
0013
0001
0100
0010
1000
0100
0010
,  // measure 41
0001
0100
0010
2000
0000
0100
3100
0000
,  // measure 42
2100
0000
3001
0000
,  // measure 43
0102
0000
1003
0000
,  // measure 44
2002
0000
3003
0000
0001
0010
0001
0000
,  // measure 45
0010
0001
0100
0000
0010
0000
0100
0000
,  // measure 46
2010
0000
3001
0000
,  // measure 47
0012
0000
1003
0000
,  // measure 48
2002
0000
0000
0000
0000
0000
0000
0000
0000
0000
0000
0000
3003
0000
0000
0000
0000
0000
0000
0000
0000
0000
0000
0000
0001
0000
0000
0000
0000
0000
0010
0000
0000
0000
0000
0000
0000
0000
0100
0000
0000
0000
0000
0000
0000
1000
0000
0000
,  // measure 49
0000
0000
0000
0000
0000
0000
0001
0000
0000
0000
0000
0000
0000
1000
0000
0000
0000
0000
0000
0000
0001
0000
0000
0000
0000
0000
0000
0000
0000
0000
0000
0000
,  // measure 50
0012
0000
1003
0000
,  // measure 51
2010
0000
3001
0000
,  // measure 52
2002
0000
3003
0000
1000
0100
1000
0000
,  // measure 53
0100
1000
0010
0000
0100
0000
0010
0000
,  // measure 54
0102
0000
1003
0000
,  // measure 55
2100
0000
3001
0000
,  // measure 56
2002
0000
3003
0000
1000
0100
0000
0010
,  // measure 57
0001
0000
1000
0010
0000
0100
0001
0000
,  // measure 58
2001
0000
0000
0000
,  // measure 59
3002
0000
0000
0000
,  // measure 60
0023
0000
0000
0000
,  // measure 61
0000
0000
0000
0000
,  // measure 62
0230
0000
0000
0000
,  // measure 63
0000
0000
0000
0000
,  // measure 64
2300
0000
0000
0000
,  // measure 65
0000
0000
0000
0000
,  // measure 66
3002
0000
0023
0000
,  // measure 67
0030
0000
0000
0000
0000
0000
0000
0000
0000
0000
0000
0000
0000
0000
0000
0000
0000
0000
0001
0000
0000
0000
0000
0000
1000
0000
0000
0000
0000
0000
0000
0000
0000
0010
0000
0000
0000
0000
0000
0000
1000
0000
0000
0000
0001
0000
0000
0000
,  // measure 68
2000
0000
0000
0000
0000
0000
0000
0000
3100
0010
0000
0001
0000
1000
0001
0000
,  // measure 69
2000
0000
0000
3020
0000
0000
0230
0000
0000
0000
0000
0000
0300
0000
0000
0000
,  // measure 70
0022
0033
2020
3030
,  // measure 71
0010
0000
0000
1000
0000
0000
0001
0000
2000
0000
0000
0200
0000
0000
3300
0000
,  // measure 72
0202
0303
2200
3300
,  // measure 73
0000
0000
0001
0010
0001
0010
0001
0000
1000
0001
1000
0001
1000
0100
0000
0000
,  // measure 74
0220
0330
2002
3003
,  // measure 75
0000
0000
0012
0000
0000
0000
2003
0000
3020
0000
0000
0200
0000
0000
0330
0000
,  // measure 76
2002
3003
0220
0330
,  // measure 77
2002
0000
0000
0000
,  // measure 78
0000
0000
0000
0000
,  // measure 79
0000
0000
0000
0000
,  // measure 80
0000
0000
0000
0000
3003
0001
1001
0000
;
