#TITLE:Rave Mozart;
#SUBTITLE:;
#ARTIST:W&W & Vini Vici;
#TITLETRANSLIT:;
#SUBTITLETRANSLIT:;
#ARTISTTRANSLIT:;
#GENRE:;
#CREDIT:;
#BANNER:Rave Mozart-Banner.png;
#BACKGROUND:Rave Mozart-bg.png;
#LYRICSPATH:;
#CDTITLE:;
#MUSIC:Rave Mozart.ogg;
#OFFSET:-0.920000;
#SAMPLESTART:93.927872;
#SAMPLELENGTH:11.999985;
#SELECTABLE:YES;
#BPMS:0.000000=160.000214
;
#STOPS:
;
#BGCHANGES:;
#KEYSOUNDS:;
#ATTACKS:;

//---------------dance-single - ----------------
#NOTES:
     dance-single:
     :
     Beginner:
     2:
     0.070762,0.160984,0.033022,0.016511,0.000000,60.000000,56.000000,4.000000,2.000000,0.000000,0.000000,0.000000,0.000000,0.000000,0.070762,0.160984,0.033022,0.016511,0.000000,60.000000,56.000000,4.000000,2.000000,0.000000,0.000000,0.000000,0.000000,0.000000:
0000
0000
0000
0000
,
0000
0000
0000
0000
,
0000
0000
0000
0000
,
0000
0000
0000
0000
,
1000
0000
0000
0000
,
0000
0000
0000
0000
,
0001
0000
0000
0000
,
0000
0000
0000
0000
,
0100
0000
0000
0000
,
0000
0000
0000
0000
,
0100
0000
0000
0000
,
0000
0000
0000
0000
,
0010
0000
0000
0000
,
0000
0000
0000
0000
,
0010
0000
0000
0000
,
0000
0000
0000
0000
,
0000
0000
0000
0000
,
0000
0000
0000
0000
,
1000
0000
0001
0000
,
1000
0000
0000
0000
,
0010
0000
0000
0000
,
0010
0000
0000
0000
,
0100
0000
0000
0000
,
0100
0000
0000
0000
,
0001
0000
0000
0000
,
0001
0000
0000
0000
,
1000
0000
0000
0000
,
1000
0000
0000
0000
,
0010
0000
0000
0000
,
0010
0000
0000
0000
,
0100
0000
0000
0000
,
0100
0000
0000
0000
,
0001
0000
0000
0000
,
0001
0000
0000
0000
,
1000
0000
0000
0000
,
1000
0000
0000
0000
,
0110
0000
0000
0000
,
0000
0000
0000
0000
,
0000
0000
0000
0000
,
0000
0000
0000
0000
,
1000
0000
0000
0000
,
0000
0000
0000
0000
,
0001
0000
0000
0000
,
0000
0000
0000
0000
,
0100
0000
0000
0000
,
0000
0000
0000
0000
,
0100
0000
0000
0000
,
0000
0000
0000
0000
,
0010
0000
0000
0000
,
0000
0000
0000
0000
,
0010
0000
0000
0000
,
0000
0000
0000
0000
,
2002
0000
0000
0000
,
0000
0000
0000
0000
,
0000
0000
0000
0000
,
0000
0000
0000
0000
,
3003
0000
0000
0000
,
0000
0000
0000
0000
,
1000
0000
0001
0000
,
1000
0000
0000
0000
,
0010
0000
0100
0000
,
0010
0000
0000
0000
,
1000
0000
0000
0000
,
1000
0000
0000
0000
,
0001
0000
0000
0000
,
0001
0000
0000
0000
,
0100
0000
0000
0000
,
0100
0000
0000
0000
,
0010
0000
0000
0000
,
0010
0000
0000
0000
,
1000
0000
0000
0000
,
0001
0000
0000
0000
,
1000
0000
0000
0000
,
0001
0000
0000
0000
,
0100
0000
0000
0000
,
0010
0000
0000
0000
,
0100
0000
0000
0000
,
0110
0000
0000
0000
,
1001
0000
0000
0000
;

//---------------dance-single - ----------------
#NOTES:
     dance-single:
     :
     Easy:
     5:
     0.248847,0.354165,0.173367,0.024767,0.000000,211.000000,190.000000,21.000000,3.000000,0.000000,0.000000,0.000000,0.000000,0.000000,0.248847,0.354165,0.173367,0.024767,0.000000,211.000000,190.000000,21.000000,3.000000,0.000000,0.000000,0.000000,0.000000,0.000000:
0000
0000
0000
0000
,
0000
0000
0000
0000
,
0000
0000
0000
0000
,
0000
0000
0000
0000
,
1000
0000
0000
0000
,
0001
0000
0000
0000
,
0100
0000
0000
0000
,
0010
0000
0000
0000
,
1000
0000
0000
0000
,
1000
0000
0000
0000
,
0001
0000
0000
0000
,
0001
0000
0000
0000
,
0100
0000
0100
0000
,
0100
0000
0100
0000
,
0010
0010
0010
0010
,
0020
0000
0000
0000
,
0030
0000
0000
0000
,
0000
0000
0000
0000
,
1000
0000
0001
0000
,
0100
0010
0100
0000
,
0110
1000
0100
1000
,
0100
1000
0100
0010
,
0001
0010
0001
0010
,
0001
0010
0100
0110
,
1000
0001
1000
0001
,
0100
0010
0100
0010
,
1100
0000
0110
0000
,
0011
0000
0110
0000
,
1000
0001
0100
0010
,
1000
0100
0010
0001
,
0010
0100
0001
1000
,
0001
0010
0100
1000
,
0010
0100
0001
1000
,
0001
0010
0100
1000
,
0010
0100
0001
1000
,
0110
0000
0000
0000
,
1001
0000
0000
0000
,
0000
0000
0000
0000
,
0000
0000
0000
0000
,
0000
0000
0000
0000
,
1000
0000
0100
0000
,
1000
0000
0100
0000
,
0001
0000
0010
0000
,
0001
0000
0010
0000
,
1000
0100
0000
0000
,
0001
0010
0000
0000
,
0100
0010
0000
0000
,
0010
0100
0000
0000
,
1000
0100
0001
0010
,
1000
0100
0001
0010
,
1000
0100
0001
0010
,
1000
0100
0001
0010
,
1000
0001
0100
0010
,
1000
0001
0100
0010
,
2002
0000
0000
0000
,
0000
0000
0000
0000
,
3003
0000
0000
0000
,
0000
0000
0000
0000
,
1000
0000
0001
0000
,
0100
0010
0100
0000
,
0001
0000
1000
0000
,
0010
0100
0010
0000
,
0110
1000
0100
1000
,
0100
0010
0100
0010
,
0001
0010
0001
0010
,
0100
0010
0100
0110
,
0001
1000
0001
1000
,
0010
0100
0010
0100
,
1000
0001
1000
0001
,
0110
0000
1001
0000
,
0110
1000
0100
0001
,
0010
1000
0100
0001
,
0110
1000
0100
0001
,
0010
1000
0100
0010
,
0011
0001
0010
1000
,
0100
0001
0010
1000
,
0110
0000
1001
0000
,
1100
0000
0011
0000
,
0110
0000
0000
0000
;

//---------------dance-single - ----------------
#NOTES:
     dance-single:
     :
     Medium:
     9:
     0.434008,0.579543,0.487080,0.000000,0.000000,368.000000,309.000000,59.000000,0.000000,0.000000,0.000000,0.000000,0.000000,0.000000,0.434008,0.579543,0.487080,0.000000,0.000000,368.000000,309.000000,59.000000,0.000000,0.000000,0.000000,0.000000,0.000000,0.000000:
0000
0000
0000
0000
,
0000
0000
0000
0000
,
0000
0000
0000
0000
,
0000
0000
0000
0000
,
1000
0000
0100
0000
0000
0001
0010
0000
,
0100
0000
0010
0000
0000
1000
0001
0000
,
0010
0000
0100
0000
0000
0100
0010
0000
,
1000
0000
0001
0000
0000
0100
0010
0000
,
0001
1000
0010
0100
,
0001
1000
0010
0100
,
0001
1000
0010
0100
,
0001
1000
0010
0100
,
0001
0010
1000
0100
,
0001
0010
1000
0100
,
0110
0110
0110
0110
,
1001
1001
1001
1001
,
0110
0000
0000
0000
,
0000
0000
0000
0000
,
1000
0000
0000
0001
0010
0000
0000
1000
,
0100
0010
0001
0110
,
1000
0100
0010
0000
0100
0010
0001
0000
,
0001
0010
0100
0000
0010
0100
1000
0000
,
1000
0100
0010
0000
0100
0010
0001
0000
,
0001
0010
0100
0000
0010
0100
0010
0100
,
0001
0010
0100
0000
0010
0100
1000
0000
,
1000
0100
0010
0000
0100
0010
0110
1001
,
0001
0000
0000
1000
0100
0000
0000
0001
,
0010
0100
0010
0110
,
1000
0100
0010
0000
0100
0010
0001
0000
,
0001
0010
0100
0000
0010
0100
1000
0000
,
1000
0100
0010
0000
0100
0010
0001
0000
,
0001
0010
0100
0000
0010
0100
0110
0000
,
1000
0100
0010
0000
0100
0010
0001
0000
,
0001
0010
0100
0000
0010
0100
1000
0000
,
1000
0100
0010
0000
0100
0010
0001
0000
,
0110
0000
1001
0000
,
0110
0000
0000
0000
,
0000
0000
0000
0000
,
0000
0000
0000
0000
,
0000
0000
0000
0000
,
0001
0000
0000
1000
0100
0000
0000
0001
,
0010
0100
1000
0000
,
0010
0000
0000
0100
0010
0000
0000
0010
,
0100
0001
1000
0000
,
0001
0000
0010
0000
0000
1000
0100
0000
,
0010
0000
0100
0000
0000
1000
0001
0000
,
0010
0000
0100
0000
0000
0100
0010
0000
,
1000
0000
0001
0000
0000
0100
0010
0000
,
0001
1000
0010
0100
,
0001
1000
0010
0100
,
0001
1000
0010
0100
,
0001
1000
0010
0100
,
0001
0010
1000
0100
,
0001
0010
1000
0100
,
0110
0110
0110
0110
,
1001
1001
1001
1001
,
0110
0000
0000
0000
,
0000
0000
0000
0000
,
1000
0000
0000
0001
0010
0000
0000
1000
,
0100
0010
0001
0000
,
0010
0000
0000
0100
0010
0000
0000
0010
,
0100
0000
0001
1000
0001
0000
0110
0000
,
1001
0000
0010
0100
0010
0000
0110
0000
,
0100
0010
0100
0000
0110
0000
1001
0000
,
0110
0000
0001
0010
0100
0000
0110
0000
,
1001
0000
0110
0000
1000
0001
1000
0000
,
0110
0000
1000
0100
0010
0000
0110
0000
,
0100
0010
0100
0000
0110
0000
1001
0000
,
0110
0000
0001
0010
0100
0000
0110
0000
,
1000
0001
0100
0010
0110
0000
1001
0000
,
0110
0000
0010
0100
0010
0000
1001
0000
,
0100
0010
0100
0000
0110
0000
1001
0000
,
0110
0000
0001
0010
0100
0000
0110
0000
,
1001
0000
0110
0000
1000
0001
1000
0000
,
0110
0000
1000
0100
0010
0000
0110
0000
,
0100
0010
0100
0000
0110
0000
1001
0000
,
0110
0000
0001
0010
0100
0000
0110
0000
,
1000
0001
0100
0010
0110
0000
0000
0000
,
1001
0000
0000
0000
;

//---------------dance-single - ----------------
#NOTES:
     dance-single:
     :
     Hard:
     14:
     0.772488,1.062495,0.685214,0.000000,0.528358,655.000000,572.000000,83.000000,0.000000,0.000000,0.000000,0.000000,0.000000,0.000000,0.772488,1.062495,0.685214,0.000000,0.528358,655.000000,572.000000,83.000000,0.000000,0.000000,0.000000,0.000000,0.000000,0.000000:
// measure 0
0000
0000
0000
0000
,  // measure 1
0000
0000
0000
0000
,  // measure 2
0000
0000
0000
0000
,  // measure 3
0000
0000
0000
0000
,  // measure 4
1000
0000
0010
0000
0000
0100
0001
1000
,  // measure 5
0010
0100
0010
0000
0110
0000
0000
0000
0000
0000
0001
0000
0010
0000
0100
0000
,  // measure 6
1000
0100
0010
0000
0000
0001
1000
0001
,  // measure 7
0100
0010
0100
0000
0110
0000
0000
0000
0000
0000
1000
0000
0100
0000
0010
0000
,  // measure 8
0001
0000
0010
0000
0100
0010
0100
0000
1000
0000
0001
0000
0010
0100
0010
0000
,  // measure 9
1000
0000
0001
0000
0100
0010
0100
0000
0001
0000
1000
0000
0010
0100
0010
0000
,  // measure 10
1000
0000
0001
0000
1000
0100
1000
0000
0001
0000
1000
0000
0001
0010
0001
0000
,  // measure 11
0100
0000
0010
0000
0100
0010
0100
0000
0001
0000
1000
0000
0001
1000
0001
0000
,  // measure 12
1000
0000
0100
0000
0010
0001
0010
0000
0001
0000
0010
0000
0100
1000
0100
0000
,  // measure 13
1000
0000
0100
0000
0010
0001
0010
0000
0001
0000
0010
0000
0100
1000
0100
0000
,  // measure 14
0010
0100
0010
0100
0010
0100
0010
0100
0010
0100
0010
0100
0010
0100
0010
0100
,  // measure 15
1000
0001
1000
0001
1000
0001
1000
0001
1000
0001
1000
0001
1000
0001
1000
0001
,  // measure 16
1000
0000
0000
0000
,  // measure 17
0000
0000
0000
0000
,  // measure 18
1100
0000
0000
0010
0110
0000
0000
0001
,  // measure 19
0011
0010
0110
0100
1100
0000
0110
0000
,  // measure 20
1000
0000
0100
0010
0001
0000
0001
0010
0100
0000
0010
0100
1000
0000
1000
0100
,  // measure 21
0010
0000
0100
0010
0001
0000
0001
0010
0100
0000
0010
0100
1000
0000
1000
0100
,  // measure 22
0010
0000
0100
0010
0001
0000
0001
0010
0100
0000
0010
0100
1000
0000
1000
0100
,  // measure 23
0010
0000
0100
0010
0001
0000
0001
0010
0100
0000
0010
0100
0010
0100
0010
0100
,  // measure 24
0010
0000
1000
0100
0010
0000
0100
0010
0001
0000
0001
0010
0100
0000
0010
0100
,  // measure 25
1000
0000
1000
0100
0010
0000
0100
0010
0001
0000
0010
0000
0110
0000
1001
0000
,  // measure 26
1100
0100
0110
0010
0011
0010
0110
0100
,  // measure 27
1100
0010
0011
0100
0110
0000
1001
0000
,  // measure 28
1000
0000
0100
0010
0001
0000
0001
0010
0100
0000
0010
0100
1000
0000
1000
0100
,  // measure 29
0010
0000
0100
0010
0001
0000
0001
0010
0100
0000
0010
0100
1000
0000
1000
0100
,  // measure 30
0010
0000
0100
0010
0001
0000
0001
0010
0100
0000
0010
0100
1000
0000
1000
0100
,  // measure 31
0010
0000
0100
0010
0001
0000
0001
0010
0100
0000
0010
0100
0010
0100
0010
0100
,  // measure 32
0010
0000
1000
0100
0010
0000
0100
0010
0001
0000
0001
0010
0100
0000
0010
0100
,  // measure 33
1000
0000
1000
0100
0010
0000
0100
0010
0001
0000
0001
0010
0100
0000
0010
0100
,  // measure 34
1000
0000
1000
0100
0010
0000
0100
0010
0001
0000
0001
0010
0100
0000
0010
0000
,  // measure 35
1001
0000
0000
0010
0100
0010
0000
1001
,  // measure 36
0000
0000
0000
0000
,  // measure 37
0000
0000
0000
0000
,  // measure 38
0000
0000
0000
0000
,  // measure 39
0000
0000
0000
0000
,  // measure 40
1001
0000
0000
0100
0010
0000
0000
0010
,  // measure 41
0100
0001
1000
0001
1000
0011
0110
1100
,  // measure 42
0110
0000
0000
1000
0001
0000
0000
0100
,  // measure 43
0010
0001
1000
0010
0100
0000
0000
0000
,  // measure 44
1000
0000
0010
0000
0000
0100
0001
1000
,  // measure 45
0010
0100
0010
0000
0110
0000
0000
0000
0000
0000
0001
0000
0010
0000
0100
0000
,  // measure 46
1000
0100
0010
0000
0000
0001
1000
0001
,  // measure 47
0100
0010
0100
0000
0110
0000
0000
0000
0000
0000
1000
0000
0100
0000
0010
0000
,  // measure 48
0001
0000
0010
0000
0100
0010
0100
0000
1000
0000
0001
0000
0010
0100
0010
0000
,  // measure 49
1000
0000
0001
0000
0100
0010
0100
0000
0001
0000
1000
0000
0010
0100
0010
0000
,  // measure 50
1000
0000
0001
0000
1000
0100
1000
0000
0001
0000
1000
0000
0001
0010
0001
0000
,  // measure 51
0100
0000
0010
0000
0100
0010
0100
0000
0001
0000
1000
0000
0001
1000
0001
0000
,  // measure 52
1000
0000
0100
0000
0010
0001
0010
0000
0001
0000
0010
0000
0100
1000
0100
0000
,  // measure 53
1000
0000
0100
0000
0010
0001
0010
0000
0001
0000
0010
0000
0100
1000
0100
0000
,  // measure 54
0010
0100
0010
0100
0010
0100
0010
0100
0010
0100
0010
0100
0010
0100
0010
0100
,  // measure 55
1000
0001
1000
0001
1000
0001
1000
0001
1000
0001
1000
0001
1000
0001
1000
0001
,  // measure 56
1000
0000
0000
0000
,  // measure 57
0000
0000
0000
0000
,  // measure 58
1100
0000
0000
0010
0110
0000
0000
0001
,  // measure 59
0011
0010
0110
0100
1100
0000
0000
0000
,  // measure 60
0011
0000
0000
0010
0110
0000
0000
0100
,  // measure 61
1100
0100
0110
0010
0011
0000
0110
0000
,  // measure 62
1001
0000
0000
0000
0110
0000
0100
0000
1100
0000
0000
1000
0100
0000
0000
0000
,  // measure 63
0110
0000
0010
0000
1001
0000
0100
0000
0110
0000
0000
0001
0010
0000
0000
0000
,  // measure 64
0110
0000
0000
0000
1001
0000
0010
0000
0110
0000
0000
0100
0010
0000
0000
0000
,  // measure 65
0110
0000
0010
0000
1001
0000
0100
0000
0110
0000
0000
0000
1000
0001
1000
0001
,  // measure 66
0110
0000
0000
0000
1001
0000
0010
0000
0110
0000
0000
0100
0010
0000
0000
0000
,  // measure 67
0110
0000
0010
0000
1001
0000
0100
0000
0110
0000
0000
1000
0001
0000
1000
0000
,  // measure 68
0110
0000
0000
0000
1001
0000
0010
0000
0110
0000
0000
0100
0010
0000
1000
0000
,  // measure 69
0001
0000
0100
0000
0010
0000
0100
0000
1000
0001
1000
0001
1000
0000
0000
0000
,  // measure 70
1001
0000
0000
0000
0110
0000
0100
0000
1100
0000
0000
1000
0100
0000
0000
0000
,  // measure 71
0110
0000
0010
0000
1001
0000
0100
0000
0110
0000
0000
0001
0010
0000
0000
0000
,  // measure 72
0110
0000
0000
0000
1001
0000
0010
0000
0110
0000
0000
0100
0010
0000
0000
0000
,  // measure 73
0110
0000
0010
0000
1001
0000
0100
0000
0110
0000
0000
0000
1000
0001
1000
0001
,  // measure 74
0110
0000
0000
0000
1001
0000
0010
0000
0110
0000
0000
0100
0010
0000
0000
0000
,  // measure 75
0110
0000
0010
0000
1001
0000
0100
0000
0110
0000
0000
1000
0001
0000
1000
0000
,  // measure 76
0110
0000
1001
0010
0110
0000
1001
0100
,  // measure 77
0001
0010
0100
1000
0110
0000
0000
0000
,  // measure 78
1001
0000
0000
0000
;

//---------------dance-single - ----------------
#NOTES:
     dance-single:
     :
     Hard:
     15:
     0.772488,1.062495,0.685214,0.000000,0.528358,655.000000,572.000000,83.000000,0.000000,0.000000,0.000000,0.000000,0.000000,0.000000,0.772488,1.062495,0.685214,0.000000,0.528358,655.000000,572.000000,83.000000,0.000000,0.000000,0.000000,0.000000,0.000000,0.000000:
0000
0000
0000
0000
,
0000
0000
0000
0000
,
0000
0000
0000
0000
,
0000
0000
0000
0000
,
1000
0000
0010
0000
0000
0100
0001
1000
,
0010
0100
0010
0000
0110
0000
0000
0000
0000
0000
0001
0000
0010
0000
0100
0000
,
1000
0100
0010
0000
0000
0001
1000
0001
,
0100
0010
0100
0000
0110
0000
0000
0000
0000
0000
1000
0000
0100
0000
0010
0000
,
0001
0000
0010
0000
0100
0010
0100
0000
1000
0000
0001
0000
0010
0100
0010
0000
,
1000
0000
0001
0000
0100
0010
0100
0000
0001
0000
1000
0000
0010
0100
0010
0000
,
1000
0000
0001
0000
1000
0100
1000
0000
0001
0000
1000
0000
0001
0010
0001
0000
,
0100
0000
0010
0000
0100
0010
0100
0000
0001
0000
1000
0000
0001
1000
0001
0000
,
1000
0000
0100
0000
0010
0001
0010
0000
0001
0000
0010
0000
0100
1000
0100
0000
,
1000
0000
0100
0000
0010
0001
0010
0000
0001
0000
0010
0000
0100
1000
0100
0000
,
0010
0100
0010
0100
0010
0100
0010
0100
0010
0100
0010
0100
0010
0100
0010
0100
,
1000
0001
1000
0001
1000
0001
1000
0001
1000
0001
1000
0001
1000
0001
1000
0001
,
1000
0000
0000
0000
,
0000
0000
0000
0000
,
1100
0000
0000
0010
0110
0000
0000
0001
,
0011
0010
0110
0100
1100
0000
0110
0000
,
1000
0000
0100
0010
0001
0000
0001
0010
0100
0000
0010
0100
1000
0000
1000
0100
,
0010
0000
0100
0010
0001
0000
0001
0010
0100
0000
0010
0100
1000
0000
1000
0100
,
0010
0000
0100
0010
0001
0000
0001
0010
0100
0000
0010
0100
1000
0000
1000
0100
,
0010
0000
0100
0010
0001
0000
0001
0010
0100
0000
0010
0100
0010
0100
0010
0100
,
0010
0000
1000
0100
0010
0000
0100
0010
0001
0000
0001
0010
0100
0000
0010
0100
,
1000
0000
1000
0100
0010
0000
0100
0010
0001
0000
0010
0000
0110
0000
1001
0000
,
1100
0100
0110
0010
0011
0010
0110
0100
,
1100
0010
0011
0100
0110
0000
1001
0000
,
1000
0000
0100
0010
0001
0000
0001
0010
0100
0000
0010
0100
1000
0000
1000
0100
,
0010
0000
0100
0010
0001
0000
0001
0010
0100
0000
0010
0100
1000
0000
1000
0100
,
0010
0000
0100
0010
0001
0000
0001
0010
0100
0000
0010
0100
1000
0000
1000
0100
,
0010
0000
0100
0010
0001
0000
0001
0010
0100
0000
0010
0100
0010
0100
0010
0100
,
0010
0000
1000
0100
0010
0000
0100
0010
0001
0000
0001
0010
0100
0000
0010
0100
,
1000
0000
1000
0100
0010
0000
0100
0010
0001
0000
0001
0010
0100
0000
0010
0100
,
1000
0000
1000
0100
0010
0000
0100
0010
0001
0000
0001
0010
0100
0000
0010
0000
,
1001
0000
0000
0010
0100
0010
0000
1001
,
0000
0000
0000
0000
,
0000
0000
0000
0000
,
0000
0000
0000
0000
,
0000
0000
0000
0000
,
1001
0000
0000
0100
0010
0000
0000
0010
,
0100
0001
1000
0001
1000
0011
0110
1100
,
0110
0000
0000
1000
0001
0000
0000
0100
,
0010
0001
1000
0010
0100
0000
0000
0000
,
1000
0000
0010
0000
0000
0100
0001
1000
,
0010
0100
0010
0000
0110
0000
0000
0000
0000
0000
0001
0000
0010
0000
0100
0000
,
1000
0100
0010
0000
0000
0001
1000
0001
,
0100
0010
0100
0000
0110
0000
0000
0000
0000
0000
1000
0000
0100
0000
0010
0000
,
0001
0000
0010
0000
0100
0010
0100
0000
1000
0000
0001
0000
0010
0100
0010
0000
,
1000
0000
0001
0000
0100
0010
0100
0000
0001
0000
1000
0000
0010
0100
0010
0000
,
1000
0000
0001
0000
1000
0100
1000
0000
0001
0000
1000
0000
0001
0010
0001
0000
,
0100
0000
0010
0000
0100
0010
0100
0000
0001
0000
1000
0000
0001
1000
0001
0000
,
1000
0000
0100
0000
0010
0001
0010
0000
0001
0000
0010
0000
0100
1000
0100
0000
,
1000
0000
0100
0000
0010
0001
0010
0000
0001
0000
0010
0000
0100
1000
0100
0000
,
0010
0100
0010
0100
0010
0100
0010
0100
0010
0100
0010
0100
0010
0100
0010
0100
,
1000
0001
1000
0001
1000
0001
1000
0001
1000
0001
1000
0001
1000
0001
1000
0001
,
1000
0000
0000
0000
,
0000
0000
0000
0000
,
1100
0000
0000
0010
0110
0000
0000
0001
,
0011
0010
0110
0100
1100
0000
0000
0000
,
0011
0000
0000
0010
0110
0000
0000
0100
,
1100
0100
0110
0010
0011
0000
0110
0000
,
1001
0000
0000
0000
0110
0000
0100
0000
1100
0000
0000
1000
0100
0000
0000
0000
,
0110
0000
0010
0000
1001
0000
0100
0000
0110
0000
0000
0001
0010
0000
0000
0000
,
0110
0000
0000
0000
1001
0000
0010
0000
0110
0000
0000
0100
0010
0000
0000
0000
,
0110
0000
0010
0000
1001
0000
0100
0000
0110
0000
0000
0000
1000
0001
1000
0001
,
0110
0000
0000
0000
1001
0000
0010
0000
0110
0000
0000
0100
0010
0000
0000
0000
,
0110
0000
0010
0000
1001
0000
0100
0000
0110
0000
0000
1000
0001
0000
1000
0000
,
0110
0000
0000
0000
1001
0000
0010
0000
0110
0000
0000
0100
0010
0000
1000
0000
,
0001
0000
0100
0000
0010
0000
0100
0000
1000
0001
1000
0001
1000
0000
0000
0000
,
1001
0000
0000
0000
0110
0000
0100
0000
1100
0000
0000
1000
0100
0000
0000
0000
,
0110
0000
0010
0000
1001
0000
0100
0000
0110
0000
0000
0001
0010
0000
0000
0000
,
0110
0000
0000
0000
1001
0000
0010
0000
0110
0000
0000
0100
0010
0000
0000
0000
,
0110
0000
0010
0000
1001
0000
0100
0000
0110
0000
0000
0000
1000
0001
1000
0001
,
0110
0000
0000
0000
1001
0000
0010
0000
0110
0000
0000
0100
0010
0000
0000
0000
,
0110
0000
0010
0000
1001
0000
0100
0000
0110
0000
0000
1000
0001
0000
1000
0000
,
0110
0000
1001
0010
0110
0000
1001
0100
,
0001
0010
0100
1000
0110
0000
0000
0000
,
1001
0000
0000
0000
;
