#TITLE:RISLIM;
#SUBTITLE:;
#ARTIST:ric;
#TITLETRANSLIT:;
#SUBTITLETRANSLIT:;
#ARTISTTRANSLIT:;
#GENRE:beatmania IIDX;
#CREDIT:;
#BANNER:RISLIM.png;
#BACKGROUND:RISLIM-bg.png;
#LYRICSPATH:;
#CDTITLE:./CDTitles/beatmania IIDX 5th Style.png;
#MUSIC:RISLIM.ogg;
#OFFSET:0.000;
#SAMPLESTART:31.334;
#SAMPLELENGTH:15.000;
#SELECTABLE:YES;
#BPMS:0.000=130.000;
#STOPS:228.000=0.462;
#BGCHANGES:19.750=thunder1.avi=1.444=1=1=1=StretchRewind==CrossFade==,
23.750=thunder1.avi=1.444=0=1=1=StretchRewind====,
27.750=thunder1.avi=1.444=0=1=1=StretchRewind====,
35.750=blizzard1.avi=1.000=0=1=1=StretchRewind====,
51.750=bubble1.avi=1.000=0=1=1=StretchRewind====,
67.750=square2a.avi=0.877=0=1=1=StretchRewind====,
75.750=ribbon2.avi=1.000=0=1=1=StretchRewind====,
78.750=ribbon2a.avi=1.000=0=1=1=StretchRewind====,
80.750=ribbon2.avi=1.000=0=1=1=StretchRewind====,
83.750=square2.avi=0.877=0=1=1=StretchRewind====,
91.750=ribbon2.avi=1.000=0=1=1=StretchRewind====,
94.750=ribbon2a.avi=1.000=0=1=1=StretchRewind====,
96.750=ribbon2.avi=1.000=0=1=1=StretchRewind====,
99.750=honeycomb1.avi=0.831=0=1=1=StretchRewind====,
115.750=square2a.avi=0.877=0=1=1=StretchRewind====,
123.750=ribbon2.avi=1.000=0=1=1=StretchRewind====,
126.750=ribbon2a.avi=1.000=0=1=1=StretchRewind====,
128.750=ribbon2.avi=1.000=0=1=1=StretchRewind====,
131.750=square2.avi=0.877=0=1=1=StretchRewind====,
139.750=ribbon2.avi=1.000=0=1=1=StretchRewind====,
142.750=ribbon2a.avi=1.000=0=1=1=StretchRewind====,
144.750=ribbon2.avi=1.000=0=1=1=StretchRewind====,
147.750=blizzard1.avi=1.000=0=1=1=StretchRewind====,
163.750=bubble1.avi=1.000=0=1=1=StretchRewind====,
179.750=thunder1.avi=1.444=0=1=1=StretchRewind====,
183.750=thunder1.avi=1.444=0=1=1=StretchRewind====,
187.750=thunder1.avi=1.444=0=1=1=StretchRewind====,
195.750=thunder1.avi=1.444=0=1=1=StretchRewind====,
199.750=thunder1.avi=1.444=0=1=1=StretchRewind====,
203.750=thunder1.avi=1.444=0=1=1=StretchRewind====,
211.750=honeycomb1.avi=0.831=0=1=0=StretchNoLoop====,
228.001=thunder1.avi=0.962=0=1=1=StretchRewind====,
231.750=thunder1.avi=0.962=0=1=1=StretchRewind====,
235.750=thunder1.avi=0.962=0=1=1=StretchRewind====,
243.750=RISLIM-bg.png=1.000=0=1=1=StretchRewind====;
#KEYSOUNDS:;
#ATTACKS:;

//---------------dance-single - BEGINNER----------------
#NOTES:
     dance-single:
     BEGINNER:
     Beginner:
     2:
     0.108530,0.133612,0.008834,0.035335,0.000000,86.000000,85.000000,1.000000,4.000000,0.000000,0.000000,0.108530,0.133612,0.008834,0.035335,0.000000,86.000000,85.000000,1.000000,4.000000,0.000000,0.000000:
0000
0000
0000
0000
,
0000
0000
0000
0000
,
0000
0000
0000
0000
,
0000
0000
0000
0000
,
0000
0000
0000
0000
,
0000
0100
0000
0001
,
0000
0010
0000
0001
,
0000
1000
0000
0001
,
0002
0000
0003
0000
,
0000
1000
0000
0100
,
0000
0001
0000
0100
,
0000
0010
0000
0100
,
0000
0001
0000
0001
,
0001
0000
0000
1000
,
0000
0000
0001
0000
,
0000
1000
0000
0000
,
0001
0000
0000
1000
,
1000
0000
0000
0000
,
0010
0000
0000
0000
,
0100
0000
0000
0100
,
0000
0100
0000
0000
,
0001
0000
0000
0000
,
0010
0000
0000
0000
,
0100
0000
0000
0100
,
0000
0100
0000
0000
,
1001
0000
0000
0000
,
0000
0000
0000
0000
,
0100
0000
0000
0000
,
0010
0000
0000
0000
,
1000
0000
0000
0000
,
0010
0000
0000
0000
,
0100
0000
0000
0100
,
0000
0100
0000
0000
,
0001
0000
0000
0000
,
0010
0000
0000
0000
,
0100
0000
0000
0100
,
0000
0100
0000
0000
,
0100
0000
1000
0000
,
0002
0003
0000
0000
,
0100
0000
0001
0000
,
2000
3000
0000
0000
,
0100
0000
0100
0000
,
0010
0000
0010
0000
,
1000
0000
0100
0000
,
0010
0000
0001
0000
,
1000
0000
1000
0000
,
0010
0000
1000
0000
,
0100
0000
0001
0000
,
1000
0000
0010
0000
,
0001
0000
1000
0000
,
0001
0000
0010
0000
,
0001
0000
0010
0000
,
0100
0000
1000
0000
,
0100
0000
0000
0000
,
0100
0000
0000
0000
,
0010
0000
0000
0000
,
0010
0000
0000
0000
,
0000
0100
0000
0001
,
0000
0010
0000
0001
,
0000
1000
0000
0001
,
0002
0000
0003
0000
;

//---------------dance-single - BASIC----------------
#NOTES:
     dance-single:
     BASIC:
     Easy:
     5:
     0.234728,0.269432,0.123674,0.362188,0.000000,186.000000,172.000000,14.000000,41.000000,0.000000,0.000000,0.234728,0.269432,0.123674,0.362188,0.000000,186.000000,172.000000,14.000000,41.000000,0.000000,0.000000:
0000
0000
0000
0000
,
0000
0000
0000
0000
,
0000
0000
0000
0000
,
0000
0000
0000
0000
,
0000
0000
0000
0000
,
0100
1000
0001
1000
,
0010
1000
0001
1000
,
0100
1000
0010
1000
,
0002
0000
0000
0003
,
0000
1000
0010
0100
,
0000
0001
1000
0100
,
0000
0010
0100
1000
,
0000
0001
0010
0010
,
0001
0010
0100
1000
,
0100
0010
0001
0100
,
0010
1000
0100
0010
,
0001
0100
0010
1000
,
0002
0000
0003
0100
0000
0000
1001
0000
,
0020
0000
0030
0001
0000
0000
1001
0000
,
0020
0130
0000
2000
,
3001
0020
0130
0000
,
2000
0000
3000
0100
0000
0000
1001
0000
,
0020
0000
0030
0100
0000
0000
1001
0000
,
0020
0031
0000
2000
,
3100
0020
0031
0000
,
2002
0000
0000
0000
,
0000
0000
3003
0000
,
0100
0000
0000
0100
0000
0000
0100
0000
,
0010
0000
0000
0010
0000
0000
0010
0000
,
0002
0000
0003
0100
0000
0000
1001
0000
,
0020
0000
0030
0001
0000
0000
1001
0000
,
0020
0130
0000
2000
,
3001
0020
0130
0000
,
2000
0000
3000
0100
0000
0000
1001
0000
,
0020
0000
0030
0100
0000
0000
1001
0000
,
0020
0031
0000
2000
,
3100
0020
0031
0000
,
0100
1000
0100
0010
,
0002
0000
0003
1001
,
0100
0001
0100
0010
,
2000
0000
3000
0000
0200
0000
1300
1000
,
2000
0000
0000
3100
0000
0000
1001
0000
,
0002
0000
0000
0103
0000
0000
1001
0000
,
0020
0000
0030
0200
0000
0300
0010
0000
,
0002
0000
1003
0000
,
1000
0001
1001
0100
,
0010
1000
0100
0010
,
0002
0000
0003
0100
0000
0000
0001
0000
,
2000
0000
3000
0010
0000
0000
0100
0000
,
0001
1000
0110
0000
,
0010
0001
0100
0010
,
1000
0001
0100
0001
,
0020
0000
0030
0002
0000
0003
1000
0000
,
0200
0000
0000
1000
0000
0000
1300
0000
,
0020
0000
0000
0001
0000
0000
0031
0000
,
0200
0000
0000
0300
,
2000
0000
3000
0002
0000
0003
0010
0000
,
0100
1000
0001
1000
,
0010
1000
0001
1000
,
0100
1000
0010
1000
,
0002
0000
0000
0000
,
0003
0000
0000
0000
;

//---------------dance-single - DIFFICULT----------------
#NOTES:
     dance-single:
     DIFFICULT:
     Medium:
     8:
     0.355878,0.431092,0.159009,0.344520,0.017668,282.000000,264.000000,18.000000,39.000000,0.000000,0.000000,0.355878,0.431092,0.159009,0.344520,0.017668,282.000000,264.000000,18.000000,39.000000,0.000000,0.000000:
0000
0000
0000
0000
,
0000
0000
0000
0000
,
0000
0000
0000
0000
,
0000
0000
0000
0000
,
0000
0000
0000
0000
,
1001
0000
0100
1000
0100
0001
0100
0000
,
1001
0000
0010
0001
0010
1000
0010
0000
,
0110
0000
1000
0100
0001
0100
1000
0000
,
0002
0000
0000
0000
,
0003
1000
0001
0000
0010
0001
0100
0000
,
0000
0001
1000
0000
0010
0100
0001
0000
,
0000
0100
0010
0000
1000
0001
0010
0000
,
0000
0100
0010
0000
0001
1000
0100
0000
,
0010
0001
0010
0000
0100
0000
0100
0000
,
1000
0010
1000
0000
0100
0000
0100
0000
,
0001
0100
0001
0000
0010
0000
0010
0000
,
0100
1000
0100
0000
0010
0000
0010
0000
,
0002
0000
0103
0001
0000
0000
0101
0000
,
1000
0100
0000
1000
0001
0000
1000
0100
,
0020
0000
0031
0200
0000
0301
0020
0000
,
0130
2000
0000
3001
1000
0001
0100
0000
,
0020
0000
0130
0010
0000
0000
1010
0000
,
1000
0200
0000
0310
0001
0000
1000
0001
,
0200
0000
0301
2000
0000
3001
0020
0000
,
0130
0020
0000
0031
1000
0010
0100
0000
,
2002
0000
0000
0000
,
0000
0000
0000
3003
,
0100
0000
0000
1000
0000
0000
0100
0000
0000
1000
0000
0000
0001
0000
0000
0000
,
0010
0000
0000
0001
0000
0000
0100
0000
0000
0001
0000
0000
0010
0000
0000
0000
,
0002
0000
0103
0001
0000
0000
0101
0000
,
1000
0100
0000
1000
0001
0000
1000
0100
,
0020
0000
0031
0200
0000
0301
0020
0000
,
0130
2000
0000
3001
1000
0001
0100
0000
,
0020
0000
0130
0010
0000
0000
1010
0000
,
1000
0200
0000
0310
0001
0000
1000
0001
,
0200
0000
0301
2000
0000
3001
0020
0000
,
0130
0020
0000
0031
1000
0010
0100
0000
,
1000
0000
0010
0000
1000
0100
0010
0001
,
0200
0300
0010
1001
,
0100
0000
0010
0000
0100
1000
0010
0100
,
0002
0000
0003
0000
1000
0000
0110
0010
,
0010
0000
0002
0100
0003
0000
0101
0000
,
0010
0000
2000
0100
3000
0000
1100
0000
,
0100
0000
2000
0001
3000
0000
0110
0000
,
0002
0000
2000
3003
,
0001
0100
0010
0100
0001
0000
1000
0000
,
0100
0000
0010
0000
0001
0000
0010
0001
,
0100
0000
0010
0000
0100
0000
0001
1000
,
0002
0000
1003
0200
0000
0000
0310
0000
,
0100
1000
0010
1000
0100
0000
0010
0000
,
0001
0000
0100
0000
1000
0000
0010
0100
,
0001
0000
0100
0000
0100
0000
0010
0100
,
1000
0000
0100
0000
0100
0000
0010
0001
,
2000
0000
0000
3100
0000
0000
1100
0000
,
0002
0000
0000
0013
0000
0000
0011
0000
,
1000
0001
1000
0001
0010
0100
0010
0100
,
2000
0000
0000
3002
0000
0000
0013
0000
,
1001
0000
0100
1000
0100
0001
0100
0000
,
1001
0000
0010
0001
0010
1000
0010
0000
,
0110
0000
1000
0100
0001
0100
1000
0000
,
0002
0000
0000
0000
,
0003
0000
0000
0000
;

//---------------dance-single - EXPERT----------------
#NOTES:
     dance-single:
     EXPERT:
     Hard:
     12:
     0.501005,0.591941,0.159009,0.371021,0.335686,397.000000,379.000000,18.000000,42.000000,0.000000,0.000000,0.501005,0.591941,0.159009,0.371021,0.335686,397.000000,379.000000,18.000000,42.000000,0.000000,0.000000:
0000
0000
0000
0000
,
0000
0000
0000
0000
,
0000
0000
0000
0000
,
0000
0000
0000
0000
,
0000
0000
0000
0000
,
0000
0000
0001
0000
0100
0000
0001
1000
0000
0000
1000
0000
0100
0000
1000
0001
,
0000
0000
0001
0000
0010
0000
0001
1000
0000
0000
1000
0000
0010
0000
1000
0001
,
0000
0000
0010
0000
0100
0000
1000
0001
0000
0000
0010
0000
0100
0000
0001
0000
,
1000
0100
1000
0100
0010
0100
0010
0001
0010
0001
1000
0001
,
0000
0000
1000
0000
0010
0000
0100
0000
0001
0100
0001
0000
1000
0000
0100
0000
,
0000
0000
0010
0000
0100
0000
1000
0000
0001
0010
0001
0000
1000
0000
0010
0000
,
0000
0000
0100
0000
0010
0000
1000
0000
0100
1000
0100
0000
0010
0000
0001
0000
,
0000
0000
0010
0000
0100
0000
1000
0000
0010
0100
0010
0000
0100
0000
0010
0000
,
1000
0000
0100
0000
0010
0000
0001
0000
0100
0010
0100
0000
0001
0000
1000
0000
,
0001
0000
0010
0000
0100
0000
1000
0000
0010
1000
0010
0000
0100
0000
0001
0000
,
1000
0000
0100
0000
0010
0000
0100
0000
1000
0001
1000
0000
0010
0000
1000
0000
,
0100
1000
0100
0010
0001
0010
0001
0100
0001
1000
0010
1000
,
0002
0000
1003
0200
0000
1300
0001
0000
,
0010
0200
0000
1300
0100
1000
0010
0100
,
0001
0100
0010
2000
0000
3000
0001
0010
,
0100
1000
0001
0010
0100
2000
0000
0000
,
3002
0000
1003
0200
0000
0310
0100
0000
,
1000
0002
0000
0103
0001
1000
0100
1000
,
0010
1000
0001
0200
0000
0300
0100
0001
,
1000
0010
0010
0001
1000
0200
0000
0300
,
2002
0000
0000
0000
,
0000
0000
0000
3003
,
0001
0100
0000
0100
0010
0000
0010
1000
0000
1000
0001
0000
0010
0000
0100
0000
,
1000
0010
0000
0010
0100
0000
0100
0001
0000
0001
1000
0000
0100
0000
0010
0000
,
0002
0000
1003
0200
0000
1300
0001
0000
,
0010
0200
0000
1300
0100
1000
0010
0100
,
0001
0100
0010
2000
0000
3000
0001
0010
,
0100
1000
0001
0010
0100
2000
0000
0000
,
3002
0000
1003
0200
0000
0310
0100
0000
,
1000
0002
0000
0103
0001
1000
0100
1000
,
0010
1000
0001
0200
0000
0300
0100
0001
,
1000
0010
0010
0001
1000
0200
0000
0300
,
1100
0000
0000
0010
0000
0000
1010
0000
0000
0001
0000
0000
1001
0000
0100
0000
,
0101
0000
0000
0010
0000
0000
0011
0000
0000
1000
0000
0000
1001
0000
0100
0000
,
1100
0000
0000
0001
0000
0000
0011
0000
0000
0100
0000
0000
0110
0000
0001
0000
,
0101
0000
0000
1000
0000
0000
1010
0000
0000
0100
0000
0000
0110
0000
1000
0000
,
1002
0000
0100
0200
0003
0000
0310
0000
,
2001
0000
0100
3200
0000
0000
0310
0000
,
0120
0000
0001
0032
0000
0000
1003
0000
,
0200
0000
0020
0300
,
0031
0000
0100
0000
0010
0000
0100
0002
0000
0000
0000
0000
1003
0000
0001
0000
,
1000
0100
0010
0001
0200
0000
0310
1000
,
1100
0000
0001
0200
0000
0301
1000
0010
,
1010
0000
0001
0020
0000
0031
1000
0100
,
0010
0100
0000
1000
0001
0000
0010
0100
0000
0000
0000
0000
1000
0000
0001
0000
,
0010
0000
0010
0000
1000
0001
0000
0000
0200
0000
0000
0000
0310
0000
0100
0000
,
0002
0000
0000
0000
0000
0000
0103
0000
0000
2000
0000
0000
0000
0000
3000
0100
0000
0000
0001
0000
0000
0010
0000
0000
,
2000
0000
3010
0002
0000
0013
0001
0100
,
0001
0000
0000
0001
0000
0000
0100
0001
0000
0001
0000
0000
0010
0000
0100
0000
,
1000
0000
0000
1000
0000
0000
0100
1000
0000
1000
0000
0000
0010
0000
0100
0000
,
0001
0100
1000
0001
0010
1000
1000
0100
0001
1000
0010
0001
,
2000
0000
0000
3002
0000
0000
2003
0000
,
3100
0000
0001
0000
0100
0000
0001
1000
0000
0000
1000
0000
0100
0000
1000
0001
,
0000
0000
0001
0000
0010
0000
0001
1000
0000
0000
1000
0000
0010
0000
1000
0001
,
0000
0000
0010
0000
0100
0000
1000
0001
0000
0000
0010
0000
0100
0000
0001
0000
,
1000
0100
1000
0100
0010
0100
0010
0001
0010
0001
1000
0001
;

//---------------dance-single - CHALLENGE----------------
#NOTES:
     dance-single:
     CHALLENGE:
     Challenge:
     15:
     0.776116,0.834099,0.468194,0.194345,0.927554,615.000000,562.000000,53.000000,22.000000,0.000000,0.000000,0.776116,0.834099,0.468194,0.194345,0.927554,615.000000,562.000000,53.000000,22.000000,0.000000,0.000000:
// measure 0
0000
0000
0000
0000
,  // measure 1
0000
0000
0000
0000
,  // measure 2
0000
0000
0000
0000
,  // measure 3
0000
0000
0000
0000
,  // measure 4
1000
0000
0100
0000
0010
0000
0001
0000
0000
1000
0000
0000
0000
0000
0000
0101
0000
0000
0000
0000
0000
1100
0000
0000
0000
0000
0000
0001
0000
0000
0100
0000
0000
0000
0000
0000
0010
0000
0000
0100
0000
0000
0001
0000
0000
1000
0000
0000
,  // measure 5
0001
0000
1100
0000
0010
0100
1000
0000
0010
0100
0001
0000
0010
0100
1000
0001
,  // measure 6
0010
0000
0101
0000
1000
0001
0010
0000
0001
1000
0010
0000
1000
0001
0010
0001
,  // measure 7
0100
0000
1010
0000
0100
0001
0010
0000
1000
0010
0001
0000
0010
0001
0100
1000
,  // measure 8
0100
0001
0100
0000
0001
0000
1000
0100
1000
0000
0100
0000
0010
0001
0010
0000
0001
0000
1000
0010
1000
0000
0010
0000
,  // measure 9
0100
0000
1010
0000
1000
0100
0010
0100
1000
0001
0100
0000
0010
1000
0100
0000
,  // measure 10
0010
0000
1001
0000
0100
0001
1000
0100
0010
0100
1000
0000
0001
0010
1000
0000
,  // measure 11
0010
0000
0110
0000
0001
0100
0010
1000
0100
1000
0001
0000
0100
0010
1000
0000
,  // measure 12
0001
0000
1100
0000
0010
0001
0100
0010
1000
0001
0100
0000
0010
0010
0100
0100
,  // measure 13
0001
0100
0000
0001
1000
0000
0001
0010
0000
0100
1000
0000
0001
1000
0000
0010
,  // measure 14
1000
0000
0010
0100
0000
0001
0100
0000
1000
0100
0000
0001
0010
0000
1000
0010
,  // measure 15
0000
0100
0010
0000
1000
0100
0000
1000
0001
0000
1000
0010
0000
0001
0010
0000
,  // measure 16
0001
1000
0001
0000
0100
0000
0010
0100
0010
0000
1000
0000
0100
0010
0100
0000
1000
0000
0001
1000
0001
0000
0010
0000
,  // measure 17
1001
0010
1000
2100
0000
0001
0100
3100
,  // measure 18
0011
0100
1000
0102
0000
1000
0010
0103
,  // measure 19
1001
0010
0100
0002
0000
0003
1001
0010
,  // measure 20
0001
0100
1001
0010
1000
0200
0000
0300
,  // measure 21
0110
1000
0010
1020
0000
0001
0100
0130
,  // measure 22
0101
1000
0100
0210
0000
1000
0001
0310
,  // measure 23
0110
1000
0001
0200
0000
0300
0110
0001
,  // measure 24
0010
0000
1000
0000
0110
0000
0001
0000
0100
0000
1000
0000
0010
0100
0001
0001
,  // measure 25
2002
0000
0000
0000
,  // measure 26
0000
0000
0000
0000
0000
0000
0000
0000
3003
0000
0000
1000
0100
0010
0001
1000
,  // measure 27
0001
0100
0000
0100
0010
0000
0010
1000
0000
1000
0001
0000
0011
0000
0100
0000
,  // measure 28
1000
0010
0000
0010
0100
0000
0100
0001
0000
0001
1000
0000
1100
0000
0010
0000
,  // measure 29
1001
0010
1000
2100
0000
0001
0100
3100
,  // measure 30
0011
0100
1000
0102
0000
1000
0010
0103
,  // measure 31
1001
0010
0100
0002
0000
0003
1001
0010
,  // measure 32
0001
0100
1001
0010
1000
0200
0000
0300
,  // measure 33
0110
1000
0010
1020
0000
0001
0100
0130
,  // measure 34
0101
1000
0100
0210
0000
1000
0001
0310
,  // measure 35
0110
1000
0001
0200
0000
0300
0110
0001
,  // measure 36
0010
0000
1000
0000
0110
0000
0001
0000
0100
0000
1000
0000
0010
0100
0001
0001
,  // measure 37
0101
0000
0000
0100
0001
0000
1010
0000
0000
0100
1000
0000
0011
0000
1000
0000
,  // measure 38
1100
0000
0000
0010
1000
0000
0101
0000
0000
0010
0001
0000
0010
0100
1000
0000
,  // measure 39
1001
0000
0000
0100
0010
0000
1010
0000
0000
1000
0001
0000
0101
0000
1000
0000
,  // measure 40
1100
0000
0000
0001
1000
0000
0110
0000
0000
0010
0100
0000
0001
1000
0001
1000
,  // measure 41
0001
0000
1000
0000
0010
0100
0001
0000
1000
0100
0001
0000
0100
0010
0001
0100
,  // measure 42
1000
0000
0100
0000
0010
1000
0100
0000
0010
0100
1000
0000
0001
0100
0010
0001
,  // measure 43
0010
0000
1000
0100
0000
0010
0100
0001
0100
0000
0010
0001
0000
0100
1000
0100
,  // measure 44
0020
0000
0000
0000
0000
0000
0000
0000
0130
0001
1000
0000
0100
0010
0100
0010
,  // measure 45
0100
0000
1000
0100
0000
0010
0001
0000
0010
0100
0000
1000
0001
0100
0001
1000
,  // measure 46
0100
0000
0010
0001
0000
0010
0100
0000
1000
0100
0000
0010
0001
1000
0010
1000
,  // measure 47
0001
0000
0100
0001
0000
0010
0001
0000
1000
0010
0000
0001
0010
1000
0100
0001
,  // measure 48
0100
0000
0010
0001
0000
1000
0010
0000
0100
0010
0000
1000
0100
0001
1000
0010
,  // measure 49
0001
0000
1000
0100
0000
1000
0010
0000
1000
0100
0000
0010
0100
1000
0001
1000
,  // measure 50
0100
0000
0010
0001
0000
0100
0010
0000
0100
0001
0000
0010
0001
1000
0001
0010
,  // measure 51
0100
0000
0010
0001
0000
0100
1000
0000
0001
0010
0000
1000
0100
0001
1000
0010
,  // measure 52
0100
0000
1000
0100
0000
0001
0010
0000
0100
1000
0000
0010
0001
1000
0001
0010
,  // measure 53
1000
0000
0000
1000
0100
0000
1000
0020
0000
1000
0000
0030
1000
0000
0100
0000
,  // measure 54
0001
0000
0000
0100
0001
0000
0010
0002
0000
0100
0000
0003
0100
0000
0010
0000
,  // measure 55
1000
0100
1000
0000
0100
0000
0001
0100
0001
0000
0100
0000
1000
0010
1000
0000
0010
0000
0001
0010
0001
0000
0010
0000
,  // measure 56
2000
0000
0000
3200
0000
0000
0320
0000
,  // measure 57
0031
0000
1100
0000
0010
0100
1000
0000
0010
0100
0001
0000
0010
0100
1000
0001
,  // measure 58
0010
0000
0101
0000
1000
0001
0010
0000
0001
1000
0010
0000
1000
0001
0010
0001
,  // measure 59
0100
0000
1010
0000
0100
0001
0010
0000
1000
0010
0001
0000
0010
0001
0100
1000
,  // measure 60
0100
0001
0100
0000
0001
0000
1000
0100
1000
0000
0100
0000
0010
0001
0010
0000
0001
0000
1000
0010
1000
0000
0010
0000
;
