#VERSION:0.83;
#TITLE:POP! THAT! POOLTOY!;
#SUBTITLE:WONDER MIX;
#ARTIST:theSpackster and r u s s e l b u c k;
#TITLETRANSLIT:;
#SUBTITLETRANSLIT:;
#ARTISTTRANSLIT:;
#GENRE:;
#CREDIT:;
#MUSIC:POP! THAT! POOLTOY! - WONDER MIX.ogg;
#BANNER:Banner.png;
#BACKGROUND:Background.png;
#CDTITLE:;
#SAMPLESTART:35.067;
#SAMPLELENGTH:12.000;
#SELECTABLE:YES;
#OFFSET:1.457;
#BPMS:0.000=164.983;
#STOPS:;
#SPEEDS:0.000=0.500=0.000=0,
16.000=1.000=4.000=0,
20.000=1.000=0.000=0,
116.000=2.500=31.000=0,
131.000=1.000=0.000=0
;
#SCROLLS:0.000=1.000,
18.000=0.000,
19.000=2.000,
20.000=1.000,
129.000=256.000,
131.000=0.000,
131.500=2.000,
132.000=1.000
;
#TICKCOUNTS:0.000=4;
#TIMESIGNATURES:0.000=4=4;
#LABELS:0.000=Song Start;
#COMBOS:0.000=1;
#DISPLAYBPM:*;
#ORIGIN:;
#TAGS:;
#PREVIEWVID:;
#JACKET:Jacket.png;
#CDIMAGE:;
#DISCIMAGE:;
#XSCROLLS:0.000000=0.000000 ;
#BGCHANGES:;
#FGCHANGES:;

//--------------- dance-single - ----------------
#NOTEDATA:;
#STEPSTYPE:dance-single;
#DESCRIPTION:;
#DIFFICULTY:Easy;
#METER:7;
#RADARVALUES:0,0,0,0,0,0,0,0,0,0,0,0,0,0,0,0,0,0,0,0,0,0,0,0,0,0,0,0;
#DISPLAYBPM:*;
#CHARTNAME:;
#CHARTHASH:346195372;
#BANNER:;
#CHARTSTYLE:;
#METERF:0.000000;
#LASTSECONDHINT:46.547943;
#CREDIT:;
#NOTES:
0000
0000
0000
0000
,
1000
0001
0100
0000
,
0001
1000
0100
0000
,
1000
0001
0010
0000
,
0001
1000
0010
0000
,
1000
1000
0001
0001
,
0100
0100
0010
0010
,
1000
0100
0010
0001
,
2000
0100
0002
3003
,
1000
0000
0001
0000
,
2000
0000
3100
0000
,
0001
0000
1000
0000
,
0002
0000
0103
0000
,
1000
0000
0001
0000
,
2000
0000
3010
0000
,
0001
0000
1000
0000
,
0002
0000
0013
0000
,
1000
0001
0100
0000
,
1000
0001
0010
0010
,
0001
1000
0100
0000
,
0001
1000
0010
0010
,
1000
0001
0010
0000
,
1000
0001
0100
0100
,
0001
1000
0010
0000
,
0001
1000
0100
0100
,
1000
0001
0100
0000
,
0001
1000
0100
0000
,
1000
0001
0010
0000
,
0001
1000
0010
0000
,
1000
1000
1000
1000
,
0001
0001
0001
0001
,
0100
0100
0010
0010
,
4000
0004
0000
3003
,
1010
0100
0010
0000
0101
0010
0100
0000
,
1010
0100
0010
0001
1001
0010
0100
0000
,
1010
0100
0010
0000
0101
0010
0100
0000
,
1010
0100
0010
0001
1001
0010
0100
0000
,
0101
0010
0100
0000
1010
0100
0010
0000
,
0101
0010
0100
1000
1001
0100
0010
0000
,
0101
0010
0100
0000
1010
0100
0010
0000
,
0101
0010
0100
1000
1001
0100
0010
0000
,
1000
0000
1000
0100
0001
0000
0001
0000
,
0001
0000
0001
0100
1000
0000
1000
0000
,
1000
0000
1000
0010
0001
0000
0001
0000
,
0001
0000
0001
0010
1000
0000
1000
0000
,
0001
0000
0001
0100
1000
0000
1000
0000
,
1000
0000
1000
0100
0001
0000
0001
0000
,
0001
0000
0001
0010
1000
0000
1000
0000
,
1000
0000
1000
0010
0001
0000
0001
0000
,
1000
0000
1000
0000
1000
0100
0000
0100
,
0000
0100
0001
0000
0001
0000
1000
0000
,
1000
0100
0000
0200
0000
0000
0301
0000
,
1000
0100
0001
0100
1000
0000
1001
0000
,
1000
0100
0000
0100
0001
0000
1001
0000
,
0001
0100
0000
0100
1000
0000
1001
0000
,
1000
0100
0001
0000
0001
0100
1000
0000
,
1000
0100
0010
0001
1000
0000
1001
0000
,
1000
0100
0010
0001
0010
0100
1000
0100
,
1000
0100
0010
0001
0010
0100
1000
0100
,
1001
0010
0100
1000
0100
0010
0001
0010
,
0001
0010
0100
1000
0100
0010
0001
0010
,
1001
0000
1000
0100
0001
0000
0001
0100
,
0000
0100
0010
1000
0001
0000
0000
0000
,
0000
0000
0000
0000
,
0000
MMMM
0000
0000
0000
0000
0000
0000
;
