#VERSION:0.83;
#TITLE:New Game+;
#SUBTITLE:;
#ARTIST:Karl with a K;
#TITLETRANSLIT:;
#SUBTITLETRANSLIT:;
#ARTISTTRANSLIT:;
#GENRE:;
#ORIGIN:;
#CREDIT:;
#BANNER:;
#BACKGROUND:;
#PREVIEWVID:;
#JACKET:;
#CDIMAGE:;
#DISCIMAGE:;
#LYRICSPATH:;
#CDTITLE:;
#MUSIC:New_Game+.ogg;
#OFFSET:0.000000;
#SAMPLESTART:79.072899;
#SAMPLELENGTH:15.000000;
#SELECTABLE:YES;
#BPMS:0.000=176.000;
#STOPS:;
#DELAYS:;
#WARPS:;
#TIMESIGNATURES:0.000=4=4;
#TICKCOUNTS:0.000=4;
#COMBOS:0.000=1;
#SPEEDS:0.000=1.000=0.000=0;
#SCROLLS:0.000=1.000;
#FAKES:;
#LABELS:0.000=Song Start;
#BGCHANGES:;
#KEYSOUNDS:;
#ATTACKS:
;

//---------------dance-single - XO DS JA JU----------------
#NOTEDATA:;
#CHARTNAME:;
#STEPSTYPE:dance-single;
#DESCRIPTION:XO DS JA JU;
#CHARTSTYLE:;
#DIFFICULTY:Hard;
#METER:16;
#RADARVALUES:0.679291,1.020442,0.437492,0.487696,0.200816,663.000000,602.000000,61.000000,68.000000,0.000000,0.000000,0.000000,0.000000,0.000000,0.679291,1.020442,0.437492,0.487696,0.200816,663.000000,602.000000,61.000000,68.000000,0.000000,0.000000,0.000000,0.000000,0.000000;
#CREDIT:Karl with a K;
#NOTES:
// measure 0
0000
0000
0000
0000
,  // measure 1
0000
0000
0000
0000
,  // measure 2
0000
0000
0000
0000
,  // measure 3
0000
0000
0000
0000
,  // measure 4
2001
0000
3100
0010
0001
1000
0001
0010
,  // measure 5
0002
0000
0013
0100
1000
0010
0100
0000
,  // measure 6
0101
0000
1000
1100
0000
0001
0011
0000
,  // measure 7
1000
1010
0000
0001
0000
0000
0000
0110
,  // measure 8
0000
1000
1001
0000
0010
0110
0000
0001
,  // measure 9
1001
0000
0000
0000
0000
0000
0000
0000
0000
0000
0000
0000
1000
0000
0001
0100
,  // measure 10
0020
0000
0000
0000
0030
0000
0100
0010
0000
0000
1000
0001
0010
0100
0010
0000
,  // measure 11
0000
0000
0110
0000
1001
0000
1000
0100
,  // measure 12
1000
0000
0001
0000
0100
0000
0001
0000
0010
0000
0100
1000
0100
0000
0010
0000
,  // measure 13
0001
0100
0001
0000
1000
0010
0100
0010
1000
0000
0000
0000
0001
0000
0010
0000
,  // measure 14
0001
1000
0000
0100
0001
1000
0100
0000
,  // measure 15
1000
0100
0010
0002
0000
0000
0100
0000
,  // measure 16
1000
0000
0100
0000
2003
0000
3001
0001
,  // measure 17
1000
0000
0001
0010
0100
1000
0001
0100
,  // measure 18
0001
1000
0100
1000
0001
0200
0000
0302
,  // measure 19
0000
0000
0000
0000
0013
0000
0100
0000
1000
0001
1000
0000
0001
0000
0000
0000
,  // measure 20
1000
0010
1000
0001
0000
0100
1000
0001
,  // measure 21
0100
0000
0001
0100
0010
1000
0000
0000
,  // measure 22
2100
0000
3001
2000
0100
0000
3002
0000
,  // measure 23
1003
1000
0001
1000
0010
0100
0001
1000
,  // measure 24
0100
0010
0100
1000
0010
1000
0001
0010
,  // measure 25
0000
0000
0010
0000
0001
0000
1000
0000
0100
0000
1000
0000
0001
1000
0001
0000
,  // measure 26
1000
0010
0000
0000
0110
0000
0000
0000
1000
0000
0100
0000
1000
0000
0010
0000
,  // measure 27
0100
0000
0001
0100
0001
0010
0100
0000
,  // measure 28
1000
0100
0010
0001
0100
0001
1000
0100
,  // measure 29
1000
0000
0001
0000
0000
0000
0001
0000
1000
0000
0100
0000
0010
0001
0010
0000
,  // measure 30
0001
0100
0001
0010
0200
0000
1300
0100
,  // measure 31
1000
0010
0100
0000
0001
0100
0010
1000
,  // measure 32
0100
0000
1000
0000
0001
0100
0000
0000
1001
0000
0000
0000
1000
0000
0010
0000
,  // measure 33
1000
0100
0010
0000
0001
0010
0001
0100
,  // measure 34
0010
0000
1000
0010
0100
0001
0010
0001
,  // measure 35
1000
0010
0000
1000
0000
0001
1000
0010
,  // measure 36
0100
0001
0100
0000
0001
0000
0010
0000
0001
0000
0100
0000
0001
0000
0000
0000
,  // measure 37
1000
0010
1000
0000
0011
0000
0001
0101
,  // measure 38
0000
0000
1010
0000
0001
0011
0000
0000
,  // measure 39
1000
0100
0000
0000
0110
0000
0000
0000
2100
0000
0000
0000
0000
0000
0100
0000
,  // measure 40
0000
0000
0001
0000
0100
0000
3100
1000
,  // measure 41
0100
2000
0000
0000
3001
0100
0010
0100
,  // measure 42
0002
0000
0103
0001
1000
0001
0010
0000
,  // measure 43
0100
0000
0000
1000
0002
0000
0000
0000
0013
0000
0100
0000
1000
0000
0000
0000
,  // measure 44
0010
0100
0001
0100
0002
0000
0103
0002
,  // measure 45
0000
2003
0001
0000
0010
0000
3002
0000
,  // measure 46
0103
0001
0000
0001
0010
0000
0100
0000
,  // measure 47
2000
0000
3100
2000
0000
3100
0010
0000
,  // measure 48
0100
1000
0001
0000
0100
0010
0000
0100
,  // measure 49
0010
0000
0100
0000
2000
0000
0000
3200
,  // measure 50
0000
0000
0320
0000
1000
0000
0100
0030
,  // measure 51
0020
1000
0000
1030
0200
0000
0320
0000
,  // measure 52
2030
0000
0000
0010
0000
0000
3020
0000
,  // measure 53
0100
0000
0032
0000
0000
0100
0000
0000
,  // measure 54
1003
0000
0100
0000
1000
0000
0000
0000
1100
0000
0000
0000
0001
0100
0001
0100
,  // measure 55
0010
1000
0010
1000
0001
0000
0000
0000
0011
0000
0000
0000
1000
0100
1000
0100
,  // measure 56
0010
0001
0010
0001
1000
0000
0000
0000
0011
0000
0011
0000
0000
0000
1100
0000
,  // measure 57
1100
0000
1010
1010
0000
0101
0101
0000
,  // measure 58
2000
0000
3100
0000
0012
0000
0103
0010
,  // measure 59
0210
0000
0301
0100
0102
0000
1003
0100
,  // measure 60
1200
0000
0320
0000
0130
0001
0100
2000
,  // measure 61
0000
3010
0000
0200
0001
0000
0010
0000
,  // measure 62
0301
0010
0100
0000
2100
0000
3010
0200
,  // measure 63
0000
0310
1000
0001
0201
0000
0310
0002
,  // measure 64
0000
0013
0100
0000
0002
0000
1003
0001
,  // measure 65
0200
0301
1000
1100
,  // measure 66
1000
0000
0100
0010
0001
0000
1000
0000
2100
0000
0000
0000
3100
0000
0010
0000
,  // measure 67
0210
0000
1300
0100
2100
0000
3001
0100
,  // measure 68
0201
0000
0320
0000
0130
1000
0100
0002
,  // measure 69
0000
0013
0000
0200
0000
0010
1000
0000
,  // measure 70
1300
0010
0100
0000
0102
0000
0013
0200
,  // measure 71
0000
0310
0001
0000
1200
0000
0310
1000
,  // measure 72
0000
1000
0010
0000
0002
0000
1003
0001
,  // measure 73
0020
0031
1000
1010
,  // measure 74
1000
0000
0010
0100
0010
0000
0100
0000
0001
0000
0000
0000
0011
0000
0000
0000
,  // measure 75
0110
1100
1010
0110
,  // measure 76
0100
0001
0000
1000
0001
0000
1000
0000
0000
0000
1100
0000
0000
0000
0110
0000
,  // measure 77
0000
0000
0011
0000
0000
0000
0101
0000
0000
0000
0100
0001
0100
0001
1000
0000
,  // measure 78
0001
0010
0001
0001
0001
1000
1000
1000
,  // measure 79
0020
0000
0230
0000
0302
0000
0023
0000
0130
0000
1000
0001
0200
0000
0000
0000
,  // measure 80
0010
0000
1000
0000
0310
1000
0200
0000
,  // measure 81
0001
0000
0310
0001
1000
0100
0020
0000
,  // measure 82
0100
0000
1000
0000
0130
1000
0020
0000
,  // measure 83
0100
0000
0031
0010
1000
0001
0011
0010
,  // measure 84
0000
0110
0100
0000
1100
1000
0000
1010
,  // measure 85
0010
0000
0000
0000
0101
0100
0000
0110
,  // measure 86
0010
0000
0000
0000
1010
0000
1000
0000
0000
0000
1000
0100
0010
0001
1000
0000
,  // measure 87
0010
0000
1000
0100
1000
0100
0010
0000
0001
0100
0001
0100
0010
1000
0010
1000
,  // measure 88
0001
1000
0001
0010
0100
0010
0001
1000
0001
0000
0010
0000
0001
0000
0100
0000
,  // measure 89
0010
1000
0100
0010
1000
0001
0100
0010
,  // measure 90
0001
0100
1000
0001
0020
0000
0130
0001
,  // measure 91
1000
0100
0010
0000
0200
0000
0310
0001
,  // measure 92
1000
0010
0100
0001
0200
0000
0310
1000
,  // measure 93
0001
0010
0100
0000
0020
0000
0130
1000
,  // measure 94
0001
0000
0100
0000
0010
0000
0000
0000
1000
0100
1000
0000
0001
0100
0001
0000
,  // measure 95
1000
0100
1000
0000
0001
0100
0001
0000
1000
0010
1000
0000
0001
0010
0001
0000
,  // measure 96
1000
0010
1000
0000
0001
0010
0001
0000
1000
0100
0010
0100
1000
0001
0100
0010
,  // measure 97
0100
0001
1000
0000
0001
0000
0001
0000
0001
0000
0010
0000
0010
0000
0100
0000
,  // measure 98
0100
1001
0000
0000
0000
0000
0000
0000
;

//---------------dance-single - DS JA JU----------------
#NOTEDATA:;
#CHARTNAME:;
#STEPSTYPE:dance-single;
#DESCRIPTION:DS JA JU;
#CHARTSTYLE:;
#DIFFICULTY:Medium;
#METER:12;
#RADARVALUES:0.457984,0.633378,0.207988,0.351428,0.000000,447.000000,418.000000,29.000000,49.000000,0.000000,0.000000,0.000000,0.000000,0.000000,0.457984,0.633378,0.207988,0.351428,0.000000,447.000000,418.000000,29.000000,49.000000,0.000000,0.000000,0.000000,0.000000,0.000000;
#CREDIT:Karl with a K;
#NOTES:
// measure 0
0000
0000
0000
0000
,  // measure 1
0000
0000
0000
0000
,  // measure 2
0000
0000
0000
0000
,  // measure 3
0000
0000
0000
0000
,  // measure 4
2000
0000
0000
3001
0002
0000
0000
0000
,  // measure 5
0203
0000
0000
0000
0310
2000
0000
3000
,  // measure 6
1001
0000
0000
0001
0000
0000
1001
0000
,  // measure 7
0000
1000
0000
0000
0000
0000
0000
0110
,  // measure 8
0000
0000
0010
0000
0000
0110
0000
0000
,  // measure 9
0100
0000
0000
0000
0000
0000
1000
0100
,  // measure 10
0020
0000
0030
0001
0000
1000
0001
0020
,  // measure 11
0000
0030
0001
0100
0010
0000
1000
0000
,  // measure 12
1000
0000
0001
0000
0001
0000
0010
0001
,  // measure 13
0000
1000
0010
0100
0001
0000
0010
0000
,  // measure 14
0100
0000
0000
1000
0000
0001
1000
0000
,  // measure 15
0100
0000
1000
0001
0000
0000
0200
0000
,  // measure 16
0000
0300
0020
1030
,  // measure 17
1000
0000
0001
0010
0100
0000
1000
0001
,  // measure 18
0000
0100
0001
0000
1000
0002
0000
0203
,  // measure 19
0000
0300
0010
0000
1000
0001
1000
0000
,  // measure 20
0010
0000
0100
0000
0000
0001
0000
1000
,  // measure 21
0001
0000
0100
0000
0001
1000
0000
0000
,  // measure 22
0200
0000
0300
0020
,  // measure 23
0031
0000
0001
1000
0010
0000
0100
0000
,  // measure 24
0001
1000
0000
0100
0010
0000
0010
0001
,  // measure 25
0000
0001
1000
0000
1000
0010
0000
0000
,  // measure 26
1000
1000
0001
0000
1000
0100
1000
0001
,  // measure 27
0000
0000
0001
0100
0001
1000
0000
0000
,  // measure 28
0100
0010
0001
0000
0001
0000
0100
0000
,  // measure 29
0000
0010
0000
1000
0001
0000
1001
0000
,  // measure 30
1000
0010
1000
0001
1000
0000
0001
0010
,  // measure 31
0001
1000
0100
0000
0010
0100
1000
0001
,  // measure 32
1000
0000
0010
0100
0010
0000
1000
0100
,  // measure 33
1000
0010
0000
0000
0001
0100
0001
0010
,  // measure 34
0000
0000
0100
0010
0001
0100
0010
0000
,  // measure 35
0100
0010
0000
1000
0000
0001
0010
0000
,  // measure 36
0110
0000
0001
0100
0001
0010
0001
0000
,  // measure 37
1000
0100
1000
0000
0010
0000
0100
0010
,  // measure 38
0000
0000
1000
0000
0100
0010
0000
0000
,  // measure 39
0002
0203
0320
0000
,  // measure 40
0000
0000
0000
0030
,  // measure 41
0000
0000
0000
0000
1000
0100
1000
0000
,  // measure 42
0001
0000
0000
0100
0000
0000
0010
0000
,  // measure 43
1000
0001
0000
0000
,  // measure 44
0010
0100
0010
0000
0001
0000
0000
1000
,  // measure 45
0000
0100
0000
0000
0000
0000
0000
1000
,  // measure 46
0000
0001
0000
0100
0010
0000
0000
0000
,  // measure 47
0100
0000
0100
0000
,  // measure 48
0000
0001
0010
0000
0000
0010
0000
0000
,  // measure 49
0100
0000
1000
0000
2000
0000
0000
0100
,  // measure 50
0000
0000
3002
0000
0000
0000
2003
0010
,  // measure 51
0000
0010
0000
0000
3001
0000
0010
0000
,  // measure 52
0002
0000
0000
0100
0000
0000
0023
0000
,  // measure 53
0000
0000
0230
0000
0000
1000
0000
0000
,  // measure 54
1300
0000
0001
0000
0101
0000
0001
1000
,  // measure 55
0001
0000
0000
0000
1100
0000
1000
0100
,  // measure 56
0010
0000
0001
0000
0101
0000
0000
1001
,  // measure 57
0000
0000
1010
0000
0000
1100
0000
0000
,  // measure 58
1000
1000
0012
0103
,  // measure 59
0201
0310
2010
3001
,  // measure 60
1002
0000
0013
0000
0021
0000
0130
2000
,  // measure 61
0000
3020
0000
0200
0030
0000
0301
0000
,  // measure 62
1000
0100
0010
0000
0002
0000
0000
0100
,  // measure 63
0000
0000
1003
0010
2000
0000
0100
0000
,  // measure 64
3001
0000
1000
0000
0002
0000
0103
0010
,  // measure 65
0000
1000
0001
0000
1000
0000
0100
0000
,  // measure 66
0010
0001
1000
0010
2010
0000
3100
0000
,  // measure 67
1200
0310
0012
1003
,  // measure 68
2001
0000
3010
0000
1020
0000
0130
0002
,  // measure 69
0000
0023
0000
0230
0000
0310
0001
0000
,  // measure 70
0001
0100
0010
0000
2000
0000
0000
0100
,  // measure 71
0000
0000
3001
0000
0002
0000
0000
0100
,  // measure 72
0000
1003
0001
0000
2000
0000
3100
0010
,  // measure 73
0000
0001
1000
0000
0001
0000
0100
0000
,  // measure 74
0010
0100
0010
0100
0001
0000
1000
0000
,  // measure 75
1100
0001
0101
1000
,  // measure 76
1001
0000
0001
1000
0000
0001
0000
0011
,  // measure 77
0000
1000
0000
1010
0000
0010
0000
0110
,  // measure 78
0000
0010
0000
1000
0010
1000
0001
0010
,  // measure 79
0001
0100
0010
1000
0100
0010
0002
0000
,  // measure 80
0000
0000
0103
0000
0001
1000
1000
0000
,  // measure 81
0100
1000
0100
0010
0001
0000
2000
0000
,  // measure 82
0000
0000
3100
0000
0000
1000
0001
0000
,  // measure 83
0000
0000
1000
0100
1000
0000
0010
0100
,  // measure 84
0000
0010
0100
0000
0010
0100
0000
0010
,  // measure 85
0100
0001
0000
0000
0010
0100
0000
0010
,  // measure 86
0100
0000
0010
0100
0000
0010
0100
1000
,  // measure 87
0010
0100
0001
0010
0100
1000
0010
0100
,  // measure 88
0001
0010
0100
1000
0001
0000
1000
0100
,  // measure 89
1000
0100
1000
0000
0020
1000
1000
0000
,  // measure 90
0100
0000
1030
0100
2000
0000
0100
0000
,  // measure 91
0001
0000
0100
0000
3001
0000
0100
0010
,  // measure 92
0000
0000
1000
1000
0002
0000
0100
0000
,  // measure 93
1000
0000
0100
0000
1003
0000
0100
0010
,  // measure 94
0000
0000
0002
0000
1003
0100
1000
0100
,  // measure 95
1000
0100
1000
0000
0001
0100
0001
0100
,  // measure 96
0001
0100
0001
0010
0001
0100
0001
0010
,  // measure 97
0001
1000
1000
1000
1000
0001
0001
0001
,  // measure 98
0001
0110
0000
0000
0000
0000
0000
0000
;

//---------------dance-single - ----------------
#NOTEDATA:;
#CHARTNAME:;
#STEPSTYPE:dance-single;
#DESCRIPTION:;
#CHARTSTYLE:;
#DIFFICULTY:Easy;
#METER:9;
#RADARVALUES:0.238725,0.316689,0.000000,0.286880,0.000000,233.000000,233.000000,0.000000,40.000000,0.000000,0.000000,0.000000,0.000000,0.000000,0.238725,0.316689,0.000000,0.286880,0.000000,233.000000,233.000000,0.000000,40.000000,0.000000,0.000000,0.000000,0.000000,0.000000;
#CREDIT:Karl with a K;
#NOTES:
// measure 0
0000
0000
0000
0000
,  // measure 1
0000
0000
0000
0000
,  // measure 2
0000
0000
0000
0000
,  // measure 3
0000
0000
0000
0000
,  // measure 4
1000
0000
0100
0000
,  // measure 5
0010
0000
0001
0000
,  // measure 6
1000
0000
0000
1000
0000
0000
1000
0000
,  // measure 7
0000
1000
0000
0000
0000
0000
0000
0001
,  // measure 8
0000
0000
0001
0000
0000
0001
0000
0000
,  // measure 9
0001
0000
0000
1000
,  // measure 10
1000
0000
0000
0010
0000
0010
0000
0100
,  // measure 11
0000
0100
0001
1000
,  // measure 12
0001
0000
1000
0000
0001
0000
0000
0010
,  // measure 13
0000
0100
1000
0000
,  // measure 14
0100
0000
0000
1000
0000
0100
0000
0000
,  // measure 15
1000
0001
0000
0001
,  // measure 16
0000
0000
1000
0000
,  // measure 17
0001
0000
0100
0000
0001
0000
0000
0100
,  // measure 18
0000
0000
0001
0000
0000
0010
0000
0100
,  // measure 19
0000
1000
0000
0001
,  // measure 20
0000
0000
0010
0000
0000
0001
0000
0010
,  // measure 21
0000
0001
1000
0000
,  // measure 22
1000
0000
0000
0001
,  // measure 23
0000
1000
0010
0100
,  // measure 24
0000
0010
0000
0000
1000
0000
0000
1000
,  // measure 25
0000
0000
0001
0000
0000
0001
0000
0000
,  // measure 26
1000
0000
1000
0000
0001
0000
0000
0100
,  // measure 27
0000
0000
0010
0000
0000
1000
0000
0000
,  // measure 28
0001
1000
0010
1000
,  // measure 29
0000
0100
0000
0000
0010
0000
0001
0000
,  // measure 30
1000
0000
0000
0010
0000
0000
0100
0000
,  // measure 31
0000
0001
0000
0000
1000
0000
0000
0100
,  // measure 32
0000
0010
0000
0001
,  // measure 33
0000
0010
0000
0000
0100
0000
0000
1000
,  // measure 34
0000
0001
1000
0100
,  // measure 35
1000
0000
0000
0010
0000
0000
0100
0000
,  // measure 36
0001
0000
1000
0000
0000
0100
0000
0000
,  // measure 37
0010
0000
0001
0000
1000
0000
0000
0010
,  // measure 38
0000
0000
0100
0000
0000
0001
0000
0000
,  // measure 39
1000
1000
0002
0000
,  // measure 40
0000
0000
0000
0003
,  // measure 41
0000
0000
0100
0000
,  // measure 42
0001
0000
0000
1000
,  // measure 43
0000
1000
0000
0000
,  // measure 44
0100
0000
0000
0000
1000
0000
0000
0001
,  // measure 45
0000
0100
0000
0000
0000
0000
0000
0000
,  // measure 46
0000
0000
0000
0001
0000
1000
0000
0000
,  // measure 47
0001
0000
0000
0000
,  // measure 48
0000
0000
1000
0000
0000
0010
0000
0000
,  // measure 49
1000
0000
2000
0000
,  // measure 50
0000
3200
0000
0000
,  // measure 51
0000
0000
2300
0000
,  // measure 52
3002
0000
0000
0023
,  // measure 53
0000
0032
0000
0000
,  // measure 54
0203
0300
0001
0100
,  // measure 55
0010
0000
1000
0100
,  // measure 56
0010
0000
0001
0000
1000
0000
0000
0100
,  // measure 57
0000
0000
0010
0000
0000
0001
0000
0000
,  // measure 58
1000
0000
0002
0000
,  // measure 59
0203
0000
0302
0000
,  // measure 60
2003
0000
3200
0000
,  // measure 61
0320
0000
0032
0000
,  // measure 62
1003
1000
0002
0000
,  // measure 63
0203
0000
0302
0000
,  // measure 64
2003
0000
3200
0000
,  // measure 65
2300
0000
0000
0000
,  // measure 66
3001
0001
2000
0000
,  // measure 67
3200
0000
2300
0000
,  // measure 68
3002
0000
0203
0000
,  // measure 69
0320
0000
2030
0000
,  // measure 70
3001
0001
2000
0000
,  // measure 71
3200
0000
2300
0000
,  // measure 72
3002
0000
0203
0000
,  // measure 73
0302
0000
2003
0000
,  // measure 74
3001
1000
0001
0100
,  // measure 75
0001
1000
0100
1000
,  // measure 76
0001
0000
0000
1000
0000
0100
0000
1000
,  // measure 77
0000
0001
0000
0100
0000
0001
0000
1000
,  // measure 78
0000
0001
0000
0001
0000
0001
0000
0000
,  // measure 79
1000
0100
0010
0002
,  // measure 80
0000
0000
0000
2003
,  // measure 81
0000
0001
0000
3020
,  // measure 82
0000
0000
0000
0230
,  // measure 83
0000
0000
0001
0301
,  // measure 84
0000
0010
0000
0000
0001
0000
0000
0010
,  // measure 85
0000
0001
0000
0000
1000
0000
0000
0010
,  // measure 86
0000
0000
1000
0000
0000
0010
0000
0000
,  // measure 87
1000
0000
0000
0100
0000
0000
0010
0000
,  // measure 88
0000
0001
0000
0000
0100
0000
0100
0000
,  // measure 89
0100
0100
0020
0000
,  // measure 90
0000
0030
1000
0000
,  // measure 91
0100
0000
1000
0000
,  // measure 92
0001
0000
0010
0000
,  // measure 93
0001
0000
1000
0000
,  // measure 94
0010
0000
1000
1000
,  // measure 95
1000
0000
0001
0001
,  // measure 96
0001
0000
0000
0100
0000
0100
0000
0100
,  // measure 97
0000
0010
0010
0010
,  // measure 98
0010
0100
0000
0000
0000
0000
0000
0000
;

//---------------dance-single - ----------------
#NOTEDATA:;
#CHARTNAME:;
#STEPSTYPE:dance-single;
#DESCRIPTION:;
#CHARTSTYLE:;
#DIFFICULTY:Beginner;
#METER:2;
#RADARVALUES:0.072745,0.140751,0.000000,0.000000,0.000000,71.000000,71.000000,0.000000,0.000000,0.000000,0.000000,0.000000,0.000000,0.000000,0.072745,0.140751,0.000000,0.000000,0.000000,71.000000,71.000000,0.000000,0.000000,0.000000,0.000000,0.000000,0.000000,0.000000;
#CREDIT:Karl with a K;
#NOTES:
// measure 0
0000
0000
0000
0000
,  // measure 1
0000
0000
0000
0000
,  // measure 2
0000
0000
0000
0000
,  // measure 3
0000
0000
0000
0000
,  // measure 4
1000
0000
0000
0000
,  // measure 5
0001
0000
0000
0000
,  // measure 6
1000
0000
0000
0000
,  // measure 7
0000
0000
0000
0000
0000
0000
0000
0001
,  // measure 8
0000
0000
0000
0000
,  // measure 9
0000
0000
0000
0100
,  // measure 10
0000
0000
0000
0000
,  // measure 11
0000
0000
0010
0000
,  // measure 12
0000
0000
1000
0000
,  // measure 13
0000
0000
1000
0000
,  // measure 14
0000
0000
0000
0000
,  // measure 15
0000
0000
0000
0000
,  // measure 16
0000
0000
0000
0000
,  // measure 17
0001
0000
0000
0000
,  // measure 18
0000
0000
0000
0000
,  // measure 19
0000
0000
0000
1000
,  // measure 20
0000
0000
0000
0000
,  // measure 21
0000
0000
0000
0000
,  // measure 22
0000
0000
0000
0000
,  // measure 23
0000
0001
0000
0000
,  // measure 24
0000
0000
0000
0000
,  // measure 25
0000
0000
0000
0000
,  // measure 26
0000
0000
1000
0000
,  // measure 27
0000
0000
0000
0000
,  // measure 28
0000
0000
0000
0100
,  // measure 29
0000
0000
0000
0000
,  // measure 30
0010
0000
0000
0000
,  // measure 31
0000
0000
0001
0000
,  // measure 32
0000
0000
0000
0001
,  // measure 33
0000
0000
0000
0000
,  // measure 34
0000
0000
0000
0000
,  // measure 35
0100
0000
0000
0000
,  // measure 36
0000
0010
0000
0000
,  // measure 37
0000
0000
1000
0000
,  // measure 38
0000
0000
0000
0000
,  // measure 39
0000
0000
1000
0000
,  // measure 40
0000
0000
0000
0000
,  // measure 41
0000
0000
0000
0000
,  // measure 42
0000
0000
0000
0000
,  // measure 43
0000
0000
0000
0000
,  // measure 44
0000
0000
0001
0000
,  // measure 45
0000
0000
0000
0000
,  // measure 46
0000
0000
0000
0000
,  // measure 47
0000
0000
0000
0000
,  // measure 48
0000
0000
0000
0000
,  // measure 49
0000
0000
1000
0000
,  // measure 50
0000
0000
0000
0000
,  // measure 51
0000
0000
0000
0000
,  // measure 52
0001
0000
0000
0000
,  // measure 53
0000
0000
0000
0000
,  // measure 54
0000
0000
1000
0000
,  // measure 55
0000
0000
0100
0000
,  // measure 56
0000
0000
0010
0000
,  // measure 57
0000
0001
0000
0000
,  // measure 58
0000
0000
1000
0000
,  // measure 59
0000
0000
1000
0000
,  // measure 60
0000
0000
0100
0000
,  // measure 61
0000
0000
0100
0000
,  // measure 62
0000
0000
0010
0000
,  // measure 63
0000
0000
0010
0000
,  // measure 64
0000
0000
0001
0000
,  // measure 65
0000
0000
0001
0000
,  // measure 66
0000
0000
1000
0000
,  // measure 67
0000
0000
1000
0000
,  // measure 68
0000
0000
0010
0000
,  // measure 69
0000
0000
0010
0000
,  // measure 70
0000
0000
0100
0000
,  // measure 71
0000
0000
0100
0000
,  // measure 72
0000
0000
0001
0000
,  // measure 73
0000
0000
0001
0000
,  // measure 74
0000
0000
1000
0000
,  // measure 75
1000
0000
1000
0000
,  // measure 76
0000
0000
0000
0001
0000
0000
0000
0001
,  // measure 77
0000
0000
0000
0001
0000
0000
0000
0000
,  // measure 78
0000
1000
0000
0000
0000
0000
0000
0000
,  // measure 79
0001
0000
0000
0100
,  // measure 80
0000
0000
0000
0000
,  // measure 81
0000
0000
0000
0010
,  // measure 82
0000
0000
0000
0000
,  // measure 83
0000
0000
0000
1000
,  // measure 84
0000
0000
1000
0000
,  // measure 85
0000
0000
0100
0000
,  // measure 86
0000
0100
0000
0000
,  // measure 87
0010
0000
0000
0001
,  // measure 88
0000
0000
0100
0000
,  // measure 89
0000
0000
0010
0000
,  // measure 90
0000
0000
1000
0000
,  // measure 91
0000
0000
0001
0000
,  // measure 92
0000
0000
1000
0000
,  // measure 93
0000
0000
0001
0000
,  // measure 94
0000
0000
1000
0000
,  // measure 95
1000
0000
0001
0000
,  // measure 96
0000
0000
0000
0001
0000
0000
0000
0000
,  // measure 97
0000
0001
0000
0000
0000
0000
0000
0000
,  // measure 98
0000
1000
0000
0000
0000
0000
0000
0000
;
