#TITLE:Midnight Run;
#SUBTITLE:;
#ARTIST:Danny Elfman;
#TITLETRANSLIT:;
#SUBTITLETRANSLIT:;
#ARTISTTRANSLIT:;
#GENRE:;
#CREDIT:;
#BANNER:midnightrun-bn.png;
#BACKGROUND:midnightrun-bg.jpeg;
#LYRICSPATH:;
#CDTITLE:;
#MUSIC:Midnight Run Main Titles.mp3;
#OFFSET:-0.570000;
#SAMPLESTART:32.584003;
#SAMPLELENGTH:12.000000;
#SELECTABLE:YES;
#BPMS:0.000000=112.750000
,16.000000=112.400002
,40.000000=112.000000
,72.000000=112.400002
,92.000000=112.000000
,128.000000=112.099998
,172.000000=112.500000
,188.000000=112.099998
,216.000000=112.000000
,236.000000=111.949997
;
#STOPS:
;
#BGCHANGES:;
#KEYSOUNDS:;
#ATTACKS:;

//---------------dance-single - ----------------
#NOTES:
     dance-single:
     :
     Hard:
     13:
     0.396432,0.524653,0.298315,0.187314,0.381566,400.000000,357.000000,43.000000,27.000000,0.000000,0.000000,0.396432,0.524653,0.298315,0.187314,0.381566,400.000000,357.000000,43.000000,27.000000,0.000000,0.000000:
// measure 0
0000
0000
0000
0000
,  // measure 1
0000
0000
0000
0000
,  // measure 2
0000
0000
0000
0000
,  // measure 3
0000
0000
0000
0000
0000
0000
0000
0000
1000
0000
1000
0000
1000
0000
0100
1000
,  // measure 4
0020
0000
0000
0000
2030
0000
0100
0000
0000
0001
0000
0000
3001
0000
0100
0000
,  // measure 5
0010
0000
0000
0010
0100
0000
0000
0000
0001
0000
0000
0100
0010
0000
0000
0000
,  // measure 6
1000
0001
0100
0000
0000
0000
0100
0000
0001
1000
0000
1000
0100
0000
0000
0000
,  // measure 7
0010
0000
0001
0000
1000
0000
0010
0000
0000
1010
0000
0000
1001
0000
0001
1000
,  // measure 8
0020
0000
0000
0100
0000
0000
1030
0000
0000
1000
0010
0000
1000
0000
0001
0000
,  // measure 9
0101
0000
0000
1000
0010
0000
0000
0010
1000
0000
0000
0001
0010
0000
0100
0000
,  // measure 10
1000
0000
0000
0101
0000
0000
0001
0000
0000
1000
0100
0000
1000
0000
0001
0000
,  // measure 11
0100
0000
0000
0101
0000
0001
0100
0000
0010
0000
0100
0000
1010
0000
0000
0000
,  // measure 12
0001
0000
0000
0010
0000
0000
1000
0000
0000
0010
0001
0000
0010
0000
0100
0000
,  // measure 13
1000
0000
0000
0100
0000
0000
0001
0000
0000
0100
0010
0000
0100
0000
1000
0000
,  // measure 14
0001
1000
0000
0010
0100
0000
0001
1000
0000
0100
0010
0000
0001
1000
0010
0100
,  // measure 15
0002
0000
0000
0103
0010
0000
0100
0001
0000
0100
0010
0000
0100
0010
1000
0010
,  // measure 16
0100
0000
0000
2010
0000
0000
0200
0000
0000
0000
0000
0000
3300
0000
0000
0000
,  // measure 17
0011
0000
0000
0001
0010
0000
0100
0010
0000
0001
0010
0000
0100
0000
0010
0001
,  // measure 18
1000
0000
0000
0101
0000
0000
0022
0000
0000
0000
0000
0000
0033
0000
0000
0000
,  // measure 19
1000
0001
1000
0100
0010
0000
0100
1000
0000
0100
0010
0000
0001
1000
0100
0010
,  // measure 20
0001
0000
0000
2100
0000
0000
0020
0000
0000
0000
0000
0000
3030
0000
0000
0000
,  // measure 21
0011
0000
0001
1000
0100
0000
1000
0001
0000
0100
0010
0000
0100
0001
1000
0001
,  // measure 22
0100
0000
0000
0011
0000
0000
0202
0000
0000
0000
0000
0000
0303
0000
0000
0000
,  // measure 23
0010
0000
0000
0000
,  // measure 24
0000
0000
0000
0000
,  // measure 25
0000
0000
0000
0000
,  // measure 26
0100
0000
0000
0100
0000
0000
0000
0000
0000
0000
0000
0000
1010
0000
0000
0000
,  // measure 27
0100
0000
0000
0100
0000
0000
1010
0000
0010
0000
1010
0000
0010
1000
0001
0000
,  // measure 28
0100
0000
0000
0001
0000
0000
0100
0000
0000
0100
0001
0000
1000
0000
0001
0000
,  // measure 29
0100
0000
0000
0001
0000
0000
0011
0000
0000
0001
0000
0000
0010
0000
0001
0000
,  // measure 30
1000
0000
0000
1000
0000
0000
0010
0000
0000
1000
0010
0000
1000
0000
0001
0000
,  // measure 31
0100
0000
0000
0001
0000
0000
0202
0000
0000
0000
0303
0000
0100
0000
0001
0000
,  // measure 32
0100
0000
0000
0010
0000
0010
0100
0000
0001
0000
0101
0000
0010
0000
0100
0010
,  // measure 33
1000
0000
0000
1000
0010
0000
1000
0000
0001
0000
0100
0000
0010
0000
0100
0000
,  // measure 34
0001
0000
0000
0100
0010
0000
0000
0000
1000
0000
0000
1000
0010
0000
0000
0000
,  // measure 35
1000
0001
0200
0000
0000
0000
0301
0000
0001
0100
0000
0100
0010
0000
0000
0000
,  // measure 36
1000
0000
0000
0100
0010
0000
0100
0000
0001
0000
0100
0000
1000
0001
1000
0001
,  // measure 37
0100
0000
0000
1100
0000
0000
0101
0000
0000
0010
0010
0000
1000
0000
0001
0000
,  // measure 38
0010
0000
0000
1001
0000
0000
1010
0000
0000
0000
0010
0000
0100
0000
0000
0000
,  // measure 39
1001
0000
0000
0001
0100
0000
0010
0000
0001
0000
0010
0000
1000
0000
0001
0000
,  // measure 40
0010
0000
0000
1100
0000
0000
2020
0000
0000
0000
0000
0000
3030
0000
0000
0000
,  // measure 41
0100
0000
0000
0000
,  // measure 42
0000
0000
0000
0000
0000
0000
0000
0010
,  // measure 43
0010
0000
0000
0000
,  // measure 44
0000
0000
0110
0000
0000
1001
0000
0000
0110
0000
0000
1001
1001
0000
0110
0000
,  // measure 45
0001
0000
0000
1000
0000
0000
0010
0000
0000
0100
0010
0000
1000
0000
0001
0000
,  // measure 46
1000
0000
0000
0100
0000
0000
0001
0000
0000
0000
0100
0000
1000
0000
0000
0000
,  // measure 47
0001
0000
0000
0100
0000
0000
0010
0000
0000
0100
0010
0000
1000
0000
0001
0000
,  // measure 48
0010
0000
0000
1000
0000
0000
0010
0000
0001
0000
0010
0000
0100
1000
0010
0000
,  // measure 49
0110
0000
0000
1000
0010
0000
0010
0100
0000
0010
1000
0000
1000
0010
0100
0000
,  // measure 50
0001
0000
0000
0012
0000
0000
0200
0000
0000
0000
0000
0000
0303
0000
0000
0000
,  // measure 51
1100
0000
0000
0001
0100
0000
0001
0010
0000
0010
0001
0000
1000
0100
0010
0001
,  // measure 52
1000
0000
0000
1100
0000
0000
2020
0000
0000
0000
0000
0000
3030
0000
0000
0000
,  // measure 53
0100
0000
0000
0100
0001
0000
0100
0000
0010
0000
1000
0000
0001
0000
0100
0000
,  // measure 54
0001
0000
0000
0010
0000
0000
1000
0000
0000
0000
0010
0001
1000
0000
0010
0000
,  // measure 55
1001
0000
0000
0001
0010
0000
0001
0000
1000
0000
0010
0000
0100
0000
0010
0000
,  // measure 56
1001
0000
0000
0110
0000
0000
0022
0000
0000
0000
0000
0000
0033
0000
0100
0010
,  // measure 57
0001
0000
0000
0001
0000
0000
0100
0000
0000
0001
0100
0000
0001
0000
0010
0000
,  // measure 58
1002
0000
0000
0010
0000
0000
2003
0000
0000
0000
3010
0000
1000
0000
0001
0000
,  // measure 59
0200
0000
0000
0000
,  // measure 60
0000
0000
0010
0000
,  // measure 61
0302
0000
0000
0000
,  // measure 62
0000
0000
0000
0000
0000
0000
0000
0000
0000
0000
0000
0000
0000
0000
0000
0000
0000
0000
0000
0000
0000
0000
0000
0000
0100
0000
0000
0000
0000
0000
0000
0000
0000
0000
0000
0000
0000
0000
0000
0000
0000
0100
0003
0000
0000
0000
0000
0000
,  // measure 63
0000
0010
0000
0000
0000
0000
0000
0000
0000
0000
0000
0000
0000
0000
0000
0000
0000
0000
0000
0000
0000
0000
0000
0000
0000
0000
0000
0000
0000
0000
0000
0000
0000
0000
0000
0000
0000
0000
0000
0000
0000
0000
0000
0000
0000
0000
0000
0000
;
