#TITLE:MODEL DD11;
#SUBTITLE:;
#ARTIST:Mutsuhiko Izumi;
#TITLETRANSLIT:;
#SUBTITLETRANSLIT:;
#ARTISTTRANSLIT:;
#GENRE:;
#CREDIT:;
#MUSIC:MODEL DD11.ogg;
#BANNER:MODEL DD11.png;
#BACKGROUND:MODEL DD11-bg.png;
#CDTITLE:;
#SAMPLESTART:30.312;
#SAMPLELENGTH:15.000;
#SELECTABLE:YES;
#OFFSET:-0.333;
#BPMS:0.000=80.000
,8.000=180.000
;
#STOPS:224.750=0.334;
#BGCHANGES:-2.000=MODEL DD11.avi=1.000=0=0=0=StretchNoLoop====,
99999.000=-nosongbg-=1.000=0=0=0=StretchNoLoop====
;
#FGCHANGES:;

//--------------- dance-single - ----------------
#NOTES:
     dance-single:
     :
     Beginner:
     6:
     0,0,0,0,0:
0000
0000
0000
0000
,
0000
0000
0000
0000
,
0000
0000
0000
0000
,
0000
0000
0000
0000
,
1000
0000
0001
0000
,
1000
0000
0001
0000
,
0010
0000
0100
0000
,
0010
0000
0001
0000
,
1000
0000
0010
0000
,
0100
0000
0010
0000
,
1000
0000
0100
0000
,
0010
0000
0001
0000
,
1000
1000
1000
0000
,
0001
0001
0001
0000
,
1000
1000
1000
0000
,
0001
0001
0001
0000
,
0010
0010
0010
0000
,
0100
0100
0100
0000
,
0010
0010
0010
0000
,
0100
0100
0100
0000
,
1000
0000
0010
0000
,
0002
0000
0003
0000
,
1000
0000
0100
0000
,
0002
0000
0003
0000
,
1001
0000
0000
0000
,
1001
0000
0000
0000
,
1000
0000
0100
0000
,
0010
0010
0000
1001
,
1000
0000
0010
0000
,
1000
0000
0000
0001
0000
0000
0000
0000
,
0010
0000
0000
0100
0000
0000
0000
0000
,
1000
0001
1000
0000
,
0001
0000
0100
0000
,
0001
0000
0000
1000
0000
0000
0000
0000
,
0100
0000
0000
0010
0000
0000
0000
0000
,
0001
0000
0000
1000
0000
0000
1001
0000
,
1000
0000
0000
0110
0000
0000
0000
0000
,
0001
0000
0000
0110
0000
0000
0000
0000
,
1000
0000
0000
0110
0000
0000
0000
0000
,
0001
0000
0000
0110
0000
0000
0000
0000
,
1000
0000
0100
1000
,
0001
0000
0100
0010
,
1000
0000
0001
0000
,
0010
0010
0100
0100
,
1000
0000
0000
0000
,
0001
0000
0000
0000
,
0100
0000
0010
0000
,
1000
0000
0001
0000
,
0010
0000
0000
0000
,
0100
0010
0001
0000
,
1000
0010
0100
0000
,
0010
1000
0001
0000
,
0010
0100
0010
0000
,
0001
1000
0010
0000
,
0100
0001
0010
0002
,
0000
0000
0000
0000
,
0003
0000
0000
0000
,
0000
0000
1000
0000
0000
0001
0000
0000
,
0000
0000
1000
0000
0000
0001
0000
0000
,
0000
1000
0010
0100
,
0000
0001
0000
0010
,
0000
0000
0001
0000
0000
1000
0000
0000
,
0000
0000
0010
0000
0000
0100
0000
0000
,
0000
0000
0001
0000
0000
1000
0000
0000
,
1001
1000
1000
1000
,
0000
0100
0100
0100
,
0000
0010
0010
0010
,
0000
0001
0001
0001
,
0000
0100
0100
0100
,
0000
0010
0010
0010
,
0000
1000
1000
1000
,
0000
0001
0001
0001
,
0000
1000
0000
0100
,
0000
0002
0000
0003
,
0000
1000
0000
0010
,
0000
0002
0000
0003
,
0000
1001
0000
0000
,
0000
1001
0000
0000
,
0000
1000
0000
0010
,
0000
0100
0100
0001
,
0001
1001
0000
0000
,
0000
1001
0000
0000
0000
0000
0000
0000
,
0000
0000
0000
0000
0000
0000
0000
0000
0000
0000
0000
0000
0000
0000
0000
0000
0000
0000
0000
0000
0000
0000
0000
0000
0000
0000
0000
0000
0000
0000
0000
0000
0000
0000
0000
0000
0000
0000
0000
0000
0000
0000
0000
0000
0000
0000
0000
0000
0000
0000
0000
0000
0000
0000
0000
0000
0000
1001
0000
0000
0000
0000
0000
0000
;

//--------------- dance-single - ----------------
#NOTES:
     dance-single:
     :
     Easy:
     10:
     0,0,0,0,0:
0000
0000
0000
0000
,
0000
0000
0000
0000
,
0000
0000
0000
0000
,
0000
0000
0000
0000
,
1000
0000
0100
1000
0000
0100
1000
0000
,
0001
0000
0100
0001
0000
0100
0001
0000
,
1000
0000
0010
1000
0000
0010
1000
0000
,
0001
0000
0010
0001
0000
0000
1000
0000
,
0001
0000
0010
0100
0000
0010
0001
0000
,
1000
0000
0010
0100
0000
0010
1000
0000
,
0001
0000
0100
0010
0000
0100
0001
0000
,
1000
0000
0100
0010
0100
0000
1000
0000
,
0001
0100
0010
1000
,
0001
0010
1000
0010
,
0001
0010
0100
1000
,
0001
0000
0100
0000
1000
0000
0100
0001
,
1000
0100
0010
0001
,
1000
0010
0001
0010
,
1000
0010
0100
0001
,
1000
0000
0100
0000
0001
0100
1000
0001
,
1000
0000
0010
0000
0100
0001
0010
0001
,
0200
0000
0010
0000
,
0301
0000
0010
0000
0100
1000
0010
1000
,
0200
0000
0010
0000
,
1300
0000
0000
1001
0000
0000
0110
0000
,
0010
0000
0000
0110
0000
0000
1001
0000
,
1000
0010
1000
0000
0001
0010
0100
0000
,
1000
0000
0010
1000
0000
0010
1000
0000
,
0001
0010
0100
1000
,
0010
0000
0000
0010
0000
0000
0010
0000
0000
0010
0000
0000
0010
0000
0000
0000
,
0100
0000
0000
0100
0000
0000
0100
0000
0000
0100
0000
0000
0100
0000
0000
0000
,
0001
0010
0100
1000
,
0001
0100
0010
0000
1000
0000
0100
0000
,
0010
0000
0000
0010
0000
0000
0010
0000
0000
0010
0000
0000
0010
0000
0000
0000
,
0001
0000
0000
0001
0000
0000
0001
0000
0000
0001
0000
0000
0001
0000
0000
0000
,
1000
0000
0000
1000
0000
0000
1000
0000
0000
1000
0000
0000
1001
0000
0000
0000
,
1100
0000
0000
1100
0000
0000
1000
0000
,
0101
0000
0000
0101
0000
0000
0001
0000
,
1010
0000
0000
1010
0000
0000
1000
0000
,
0011
0000
0000
0011
0000
0000
0001
1000
,
0001
0000
0010
0000
0001
1000
0010
0000
,
0100
0000
0010
0000
1000
0000
0001
0010
,
0001
0100
1000
0100
,
0010
0000
1000
0000
0100
0010
0001
1000
,
0100
1000
0001
0100
,
0010
1000
0100
1000
,
0001
0100
0001
0000
1000
0100
1000
0000
,
0010
0100
0010
0100
0010
0000
0000
0000
,
1001
0001
0010
0100
,
0010
0001
1000
0000
0010
0100
0000
0000
,
0010
1000
0001
0010
0000
0000
0110
0000
,
0010
0001
1000
0000
0000
0010
0000
0000
,
0100
0010
1000
0000
0001
0000
0010
0000
,
0001
1000
0010
0000
1000
0100
0010
0000
,
0001
1000
0010
0000
0100
0001
0020
0000
,
0000
0000
0000
0000
,
0030
0000
0000
0000
0000
1001
0000
0000
0000
0000
0000
0000
0000
0000
0001
0000
,
1000
0000
0010
0000
0000
0010
0000
0000
,
0010
0000
0100
0000
0000
0100
0000
0000
,
0100
0001
0010
0100
,
1000
0001
0100
1000
,
0100
0000
0000
0000
0010
0000
0000
0010
0000
0000
0010
0000
0000
0010
0000
0000
,
0010
0000
0000
0000
1000
0000
0000
1000
0000
0000
1000
0000
0000
1000
0000
0000
,
1000
0000
0000
0000
0001
0000
0000
0001
0000
0000
0001
0000
0000
0001
0000
0000
,
1001
1000
0100
0010
,
0001
0100
1000
0010
,
0001
1000
0010
0100
,
0001
0010
1000
0010
,
0100
1000
0001
0000
0100
0000
0010
0000
,
1000
0100
0001
0010
,
1000
0001
0010
0100
,
1000
0000
0010
0000
0001
0000
0010
0100
,
0001
1000
0001
0000
0100
0000
0010
1000
,
0100
1000
0020
0000
0000
0000
0100
0000
,
0000
0000
1030
0000
0100
0000
0010
0001
,
0100
0001
0020
0000
0000
0000
0100
0000
,
0000
0000
0031
0000
0000
0101
0000
0000
,
1100
0000
1000
0000
0000
1010
0000
0000
,
0011
0000
1000
0001
0010
0000
0100
1000
,
0010
0001
0010
1000
,
0001
1000
1001
0000
0000
1001
0000
0000
,
0000
1001
0000
0000
1001
0000
0000
0000
,
0000
0000
0000
0000
0000
0000
0000
0000
0000
0000
0000
0000
0000
0000
0000
0000
0000
0000
0000
0000
0000
0000
0000
0000
0000
0000
0000
0000
0000
0000
0000
0000
0000
0000
0000
0000
0000
0000
0000
0000
0000
0000
0000
0000
0000
0000
0000
0000
0000
0000
0000
0000
0000
0000
0000
0000
0000
1001
0000
0000
0000
0000
0000
0000
;

//--------------- dance-single - ----------------
#NOTES:
     dance-single:
     :
     Medium:
     14:
     0,0,0,0,0:
0000
0000
0000
0000
,
0000
0000
0000
0000
,
0000
0000
0000
0000
,
0000
0000
0000
0000
,
1000
0010
0010
1000
0100
0100
1000
0010
,
0100
1000
1000
0100
0001
0001
1001
0000
,
0001
0010
0010
0001
0100
0100
0001
0010
,
0100
0001
0001
0100
1000
0010
0100
0001
,
1000
0100
0100
0001
0100
0100
1000
0010
,
0100
1000
1000
0100
0010
0010
1001
0000
,
0001
0100
0100
1000
0100
0100
0001
0010
,
0100
0001
0001
0100
1000
0010
0100
0001
,
1000
0100
0010
0001
1000
0100
0010
0001
,
1000
0010
0100
0010
1000
0010
0100
0010
,
1000
0010
0100
0001
1000
0010
0100
0001
,
1000
0000
0100
0000
0010
0000
0100
0000
1000
0000
0100
0000
0010
0001
0010
0000
,
0001
0100
0010
1000
0001
0100
0010
1000
,
0001
0010
0100
0010
0001
0010
0100
0010
,
0001
0010
0100
1000
0001
0010
0100
1000
,
0001
0000
0100
0000
0010
0000
0100
0000
0001
0000
1000
0000
0001
1000
0001
0000
,
1000
0100
0010
1000
0000
0010
0001
0100
,
0020
0000
0000
0000
1000
1000
1000
1030
,
0001
0010
0100
0001
0000
0100
1000
0010
,
0200
0000
0000
0000
0301
0100
0010
1000
,
1001
0000
0010
0110
0000
0000
1001
0000
,
0011
0000
1000
1010
0000
0000
1001
0000
,
1000
0100
1000
0010
0100
1000
0100
0010
,
1000
0100
0010
0000
0001
0000
1000
0100
0010
0000
0001
0000
1001
0000
0000
0000
,
1000
0010
0100
0010
1000
0001
0010
0100
,
0001
0000
0000
0100
0000
0000
1000
0000
0000
0010
0000
0000
0001
0000
0000
0000
,
0010
0000
0000
1000
0000
0000
0001
0000
0000
0010
0000
0000
0100
0000
1000
0000
,
0010
0000
0000
0100
0000
0000
0001
1000
0100
0010
0000
0000
,
0001
0100
0010
0100
0001
1000
0100
0010
,
1000
0000
0000
0010
0000
0000
0001
0000
0000
0100
0000
0000
1000
0000
0001
0000
,
1000
0000
0000
0100
0000
0000
0001
0000
0000
0010
0000
0000
0100
0000
1000
0000
,
0001
0100
0000
0010
1000
0000
0001
0010
0000
0100
1000
0000
1001
0000
0000
0000
,
1010
1000
0010
1010
1000
0010
0100
0001
,
0011
0001
0010
0011
0001
0010
0001
1000
,
1100
1000
0100
1100
1000
0100
0010
0001
,
0101
0001
0100
0101
0001
0010
0100
1000
,
0001
0000
0010
0010
0001
0100
0010
1000
,
0100
0010
0100
1000
0010
0000
0100
0010
,
0001
1000
0100
0010
0100
0000
0001
0000
,
0010
0100
1000
0001
0100
0100
0010
0010
,
1000
0100
1000
0100
1000
0010
0100
0001
,
0010
0000
1000
0000
0010
0001
1000
0010
,
0100
0000
0001
0100
0001
0100
0001
0000
1000
0100
1000
0100
,
0010
0001
0010
0001
0010
0001
0100
0000
0000
0000
0000
0000
,
0010
0100
0010
0100
0010
0100
0010
0100
,
0001
0010
0100
1000
0010
0001
0000
0000
,
0010
0000
1000
0000
0001
0010
0001
0000
0000
0000
0000
0000
1000
0000
0000
0000
,
0010
0100
0001
1000
0100
0001
0000
0000
,
0100
0000
0010
0000
0001
1000
0010
0000
0000
0000
0000
0000
0100
0000
0001
0000
,
1000
0100
0010
0000
0100
0000
0000
1000
0010
0000
0100
0000
0001
0000
0000
0000
,
0010
0100
1000
0000
0010
0000
0000
0000
0100
0001
1000
0000
0010
0000
0000
0000
,
0001
0010
0100
0010
1000
0001
0010
0100
,
2000
0000
0000
3000
0000
1001
0000
0000
1000
0000
0000
0000
0010
0000
0000
0000
,
0100
0000
0000
0000
0001
0000
0000
0001
0000
0000
0001
0000
0000
0001
0000
0000
,
0001
0000
0000
0000
1000
0000
0000
1000
0000
0000
1000
0000
0000
1000
0000
0000
,
1000
0000
0000
0100
0000
0000
0010
0000
0000
0001
0100
0010
,
1000
0000
0001
0010
0100
0010
0001
1000
,
0010
0000
0100
0000
1000
0000
0000
0100
0000
0000
0001
0000
0000
0010
0000
0000
,
1000
0000
0001
0000
1000
0000
0000
0010
0000
0000
0001
0000
0000
0100
0000
0000
,
0010
0000
1000
0000
0001
0010
0000
0100
1000
0000
0001
0100
0000
0010
1000
0000
,
1001
0000
1000
0100
0010
1000
0010
0100
,
1000
0001
0100
1000
0100
0001
0100
0010
,
1000
0100
1000
0010
0100
1000
0100
0010
,
1000
0001
0010
1000
0010
0001
0010
0100
,
1000
0010
0100
0000
0001
0000
0010
0000
0100
0000
0001
0000
1000
0000
0010
0000
,
0100
1000
0010
0001
0010
1000
0100
0001
,
0100
1000
0001
0100
0010
0001
1000
0100
,
0010
1000
0100
0001
0100
1000
0010
0100
,
0001
1000
0001
0000
1000
0000
0010
0000
0100
0000
1000
0000
0000
0000
0100
0000
,
0001
0010
0200
0000
0000
0000
1000
1000
,
1000
1300
0001
0100
0010
0001
0000
0010
,
1000
0100
0020
0000
0000
0000
0001
0001
,
0031
1000
0001
0000
1001
0000
0000
0000
0100
0000
0110
0000
0000
0000
0000
0000
,
1001
0000
1100
0000
0001
0101
0000
0000
,
1001
0000
1000
0010
0001
1000
0001
0010
,
1000
0000
0001
0000
0010
0100
1000
0000
0001
0010
0100
0000
1000
0001
0010
0000
,
0100
1000
0001
0000
1001
0000
0000
0000
0000
0000
1001
0000
0000
0000
0000
0000
,
0000
1001
0000
0000
1001
0000
0000
0000
,
0000
0000
0000
0000
0000
0000
0000
0000
0000
0000
0000
0000
0000
0000
0000
0000
0000
0000
0000
0000
0000
0000
0000
0000
0000
0000
0000
0000
0000
0000
0000
0000
0000
0000
0000
0000
0000
0000
0000
0000
0000
0000
0000
0000
0000
0000
0000
0000
0000
0000
0000
0000
0000
0000
0000
0000
0000
1001
0000
0000
0000
0000
0000
0000
;

//--------------- dance-single - ----------------
#NOTES:
     dance-single:
     :
     Hard:
     17:
     0,0,0,0,0:
0000
0000
0000
0000
,
0000
0000
0000
0000
,
0000
0000
0000
0000
,
0000
0000
0000
0000
,
1000
0000
0001
0100
0001
0000
0010
0000
0010
0000
0010
0000
0100
0000
0000
0000
,
1000
0000
0001
0100
0001
0000
0010
0000
0010
0001
0000
0000
1001
0000
0000
0000
,
0001
0000
1000
0100
1000
0000
0010
0000
0010
0000
0010
0000
0100
0000
0100
0000
,
0001
0000
1000
0100
1000
0000
0010
0000
1000
0001
1000
0001
0100
0000
0010
0000
,
1000
0000
0001
0010
0001
0000
0100
0000
0010
0100
0000
0100
0010
0000
1000
0000
,
0001
0000
1000
0010
1000
0000
0100
0000
0010
0100
0000
0000
1001
0000
0000
0000
,
0001
0000
1000
0100
1000
0000
0010
0000
0100
0010
0000
0010
0100
0000
0001
0000
,
1000
0000
0001
0100
0001
0000
0010
0000
0100
1000
0100
1000
0010
0000
0100
0000
,
0001
0010
0100
0000
1000
0100
0010
0000
0001
0010
0100
0000
1000
0100
0010
0000
,
0001
0100
0001
0000
0100
0010
0100
0000
0010
1000
0010
0000
1000
0001
1000
0000
,
0001
0100
0010
0000
1000
0010
0100
0000
0001
0100
0010
0000
1000
0010
0100
0000
,
0001
0010
0001
0000
0010
0100
0010
0000
0100
1000
0100
0000
1000
0001
1000
0001
,
1000
0100
0010
0000
0001
0010
0100
0000
1000
0100
0010
0000
0001
0010
0100
0000
,
1000
0010
1000
0000
0010
0100
0010
0000
0100
1000
0100
0000
0001
0100
0001
0000
,
1000
0010
0100
0000
0001
0100
0010
0000
1000
0010
0100
0000
0001
0100
0010
0000
,
1000
0100
1000
0000
0100
0010
0100
0000
0010
0001
0010
0001
1000
0001
1000
0001
,
1000
0100
1000
0010
0100
1000
0100
0010
,
0210
0000
1000
0000
0010
0010
0001
0001
,
0301
0010
0001
0100
0010
0001
0010
0100
,
0120
0000
0001
0000
0100
0100
1000
1030
,
2010
0000
3001
0012
0000
0003
0110
0000
,
2100
0000
0000
0000
3001
0000
0102
0000
0000
0000
0000
0000
1003
0001
1000
0001
,
1000
0100
0010
0001
0100
1000
0100
0010
,
1000
0010
1000
0000
0001
0010
0001
0010
0001
0000
1000
0010
1000
0000
0000
0000
,
0001
0010
0001
1000
0010
0100
0001
0010
,
0100
1000
0000
1000
0100
0000
0100
0010
0000
0010
0001
0000
1000
0000
0000
0000
,
0010
1000
0000
1000
0010
0000
0010
0100
0000
0100
0001
0000
1000
0000
0100
0000
,
0010
0001
1000
0010
0001
1000
0100
0001
1000
0001
0000
0000
,
1000
0010
1000
0001
0010
0100
1000
0010
,
0100
0001
0000
0001
0100
0000
0100
0010
0000
0010
1000
0000
0001
0000
0000
0000
,
0010
0001
0000
0001
0010
0000
0010
0100
0000
0100
1000
0000
0001
0000
0100
0000
,
1010
0000
0000
1100
0000
0000
0110
0000
0000
0011
0000
0000
1001
0000
0000
0000
,
1100
0000
1000
0100
1000
0000
2100
0000
0000
0000
0010
0000
0010
0000
3000
0000
,
0101
0000
0001
0100
0001
0000
0102
0000
0000
0000
0010
0000
0010
0000
0003
0000
,
1100
0000
1000
0100
1000
0000
2100
0000
0000
0000
0010
0000
0010
0000
3000
0000
,
0101
0000
0001
0100
0010
0000
0110
0000
0100
0010
0100
0010
1000
0001
1000
0001
,
1000
0000
0010
0000
1010
0000
1000
0000
0001
0010
0000
0010
0100
0000
0001
0000
,
0000
0000
0100
1000
0100
0000
1000
0000
1010
0000
0000
0000
0110
0000
0100
0001
,
1000
0000
0100
1000
0100
0000
1000
0000
0001
0100
0000
0100
0010
0000
1000
0000
,
0000
0000
0001
0100
0001
0000
1000
0000
1001
0000
0001
0000
1001
0000
1000
0000
,
0100
0000
0010
0001
0010
0000
0100
0000
1000
0010
0000
0010
0100
0000
0010
0000
,
0000
0000
1000
0100
1000
0000
0010
0000
0000
1010
0000
0000
0110
0000
0100
0001
,
1000
0100
0001
0100
1000
0010
0001
0010
,
1000
0100
1000
0100
0010
0001
0010
0001
1000
0010
0100
0001
1000
0010
0100
0001
,
0010
0001
1000
0010
0001
0010
1010
1000
,
0001
0010
0100
0000
0010
0100
1000
0000
0000
1100
0000
0000
1001
0000
0001
1000
,
0001
0000
1000
0000
0010
0100
0010
0000
1000
0000
0001
0000
0011
0000
0010
0000
,
1000
0000
0010
0000
0100
1000
0100
0010
0001
0000
1000
0000
1010
0000
0010
1000
,
0010
1000
0100
0001
1000
0010
0001
1000
,
0010
0100
0001
0000
1000
0000
0100
0010
0001
0000
1000
0000
1001
0000
0000
0000
,
1000
0100
1000
0000
0001
0100
0001
0000
0010
0100
0010
0000
0001
0100
0010
0000
,
1000
0100
0010
0000
0001
0100
1000
0000
0100
0001
1000
0000
0100
0010
0001
1000
,
0002
0000
0000
0003
0000
0000
1000
0100
1000
0000
0001
0000
0100
0000
0010
0000
,
0100
0000
0001
0000
1000
0100
0000
0100
1000
0000
1000
0100
0000
0100
1000
0000
,
0001
0000
0000
0000
0001
0100
0000
0100
0001
0000
0001
0100
0000
0100
0001
0000
,
0010
0000
0000
0100
0000
0000
1000
0000
0010
0000
0001
0000
1000
0000
0100
0000
0001
0000
1000
0000
0100
0000
0010
0000
,
0001
0000
0000
0000
1000
0000
0010
0100
0001
0000
1000
0000
0100
0000
0010
0000
,
0001
0000
0100
0000
0010
1000
0000
1000
0010
0000
0010
0100
0000
0100
0001
0000
,
1000
0000
0000
0000
0100
1000
0000
1000
0010
0000
0010
0100
0000
0100
0001
0000
,
1000
0000
0100
0000
0011
0000
0000
0101
0000
0000
0110
0000
0000
1010
0000
0000
,
1001
0000
0000
0000
1000
0100
0010
0000
0001
0100
0010
0000
1000
0100
0010
0000
,
0001
0100
0010
0000
1000
0100
0010
0000
1000
0010
0001
0000
1000
0100
0001
0000
,
0100
0010
0001
0000
1000
0010
0100
0000
0001
0010
0100
0000
1000
0010
0100
0000
,
0001
0010
0100
0000
1000
0010
0100
0000
1000
0100
0001
0000
1000
0010
0001
0000
,
0010
0100
0010
1000
0001
0010
0100
0000
1000
0010
0100
0000
0001
0010
0100
0000
,
1000
0010
0100
0000
0001
0010
1000
0000
0010
0001
1000
0000
0010
0001
0010
0000
,
1000
0001
1000
0000
0001
0100
0010
0000
1000
0100
0010
0000
0001
0100
0010
0000
,
1000
0100
0010
0000
0001
0100
1000
0000
0100
0001
1000
0000
0100
0010
0100
0010
,
0001
1000
0001
1000
0001
0000
0100
0000
0001
0000
0010
0000
0100
0000
0001
0000
,
0100
0010
0100
0000
0210
0000
0000
0000
0001
0000
0000
0000
0010
0000
0010
0000
,
1000
1000
1300
0010
1000
0100
0010
1000
,
0010
0100
0010
0000
0120
0000
0000
0000
1000
0000
0000
0000
0100
0000
0100
0000
,
0001
0031
0012
0000
1003
2010
0000
3010
,
0110
0000
0102
0000
1003
2100
0000
0001
,
3001
1000
0001
1000
0001
0000
0010
0000
1000
0000
0010
0000
0001
0010
0001
0010
,
0100
1000
0100
1000
0010
0001
0010
0000
1000
0100
0001
0000
0100
1000
0001
0000
,
1000
0001
1000
0001
1001
0000
0000
0000
0000
0000
1001
0000
0000
0000
0000
0000
,
0000
1001
0000
0000
1001
0000
0000
0000
,
0000
0000
0000
0000
0000
0000
0000
0000
0000
0000
0000
0000
0000
0000
0000
0000
0000
0000
0000
0000
0000
0000
0000
0000
0000
0000
0000
0000
0000
0000
0000
0000
0000
0000
0000
0000
0000
0000
0000
0000
0000
0000
0000
0000
0000
0000
0000
0000
0000
0000
0000
0000
0000
0000
0000
0000
0000
1001
0000
0000
0000
0000
0000
0000
;

//--------------- dance-single - ----------------
#NOTES:
     dance-single:
     :
     Challenge:
     18:
     0,0,0,0,0:
0000
0000
0000
0000
,
0000
0000
0000
0000
,
0000
0000
0000
0000
,
0010
0001
0010
0001
0100
0001
0100
0001
1000
0010
1000
0010
1000
0100
1000
0100
,
1100
0000
1000
0100
1000
0000
0010
0000
1000
0100
1000
0000
0010
0000
0100
0000
,
0101
0000
0001
0100
0001
0000
0010
0000
0001
0100
0001
0000
1001
0000
0000
0000
,
1010
0000
1000
0010
1000
0000
0100
0000
1000
0010
1000
0000
0100
0000
0010
0000
,
0011
0000
0001
0010
0001
0000
0100
0000
0001
1000
0001
1000
0100
0010
0001
0100
,
0101
0000
0001
0100
0001
0000
0010
0000
0001
0100
0000
0100
0010
0000
1000
0000
,
1100
0000
1000
0100
1000
0000
0010
0000
1000
0100
0000
0000
1001
0000
0001
0000
,
0011
0000
0001
0010
0001
0000
0100
0000
0001
0010
0000
0010
0100
0000
1000
0000
,
1010
0000
1000
0010
1000
0000
0100
0000
1000
0001
1000
0001
0010
0100
1000
0010
,
1000
0100
0010
0001
1000
0100
0010
0001
1000
0100
0010
0001
1000
0100
0010
0001
,
0100
0010
1000
0001
0010
0100
1000
0001
0100
0010
1000
0001
1000
0010
0100
0000
,
0001
0010
0100
1000
0001
0010
0100
1000
0001
0010
0100
1000
0001
0010
0100
1000
,
0010
0100
0001
1000
0100
0010
0001
1000
0010
0100
0001
0000
0010
0100
1000
0001
,
1000
0010
0100
0001
1000
0010
0100
0001
1000
0010
0100
0001
1000
0010
0100
0001
,
0010
0100
1000
0001
0100
0010
1000
0001
0010
0100
1000
0001
1000
0100
0010
0000
,
0001
0100
0010
1000
0001
0100
0010
1000
0001
0100
0010
1000
0001
0100
0010
1000
,
0100
0010
0001
1000
0010
0000
0100
0001
1000
0100
1000
0100
0010
0001
0010
0001
,
1000
0000
0010
0000
0001
0000
1000
0000
0001
0000
0010
0000
1000
0100
0010
0001
,
2000
0000
0010
0000
0010
0000
3010
0000
1000
0100
1000
0010
0100
0001
0010
0001
,
1000
0000
0010
0000
0001
0000
0010
0000
1000
0000
1001
0000
0001
0100
0010
1000
,
0002
0000
0010
0000
0010
0000
0013
0000
0001
0100
0001
0100
0010
1000
0100
0010
,
0012
0100
0103
2010
0100
3100
1001
0000
,
0102
0000
0010
0000
0013
0000
2100
0000
0010
0000
0010
0000
3001
1000
0001
1000
,
0001
0010
0100
0010
0001
1000
0010
1000
0100
1000
0010
1000
0001
0010
0100
1000
,
0001
0100
1000
0100
0010
0100
0010
0100
1000
0100
0010
0100
0110
0000
0000
0000
,
0001
0000
1000
0100
0010
0000
1000
0000
0010
0000
0001
0000
0100
0000
0010
0100
,
0001
0010
0000
0010
1000
0000
1000
0010
0000
0010
0001
0000
1001
0000
0000
0000
,
1000
0010
0000
0010
0001
0000
0001
0010
0000
0010
1000
0000
1001
0000
0001
0000
,
1000
0100
0010
1000
0010
0100
0001
0100
0010
0001
0000
0000
,
1000
0000
0001
0100
0010
0000
0001
0000
0010
0100
0010
0000
1000
0001
0010
0001
,
1000
0100
0000
0100
0001
0000
0001
0100
0000
0100
1000
0000
1001
0000
1000
0000
,
0001
0100
0000
0100
1000
0000
1000
0100
0000
0100
0001
0000
1001
0000
1000
0000
,
0001
0010
0000
0010
1000
0000
1000
0100
0000
0100
0001
0000
2002
0000
3003
0000
,
1100
0000
0010
0001
0010
0000
2100
0000
0010
0000
3010
0000
1010
0000
0100
0000
,
0101
0000
0010
1000
0010
0000
0102
0000
0010
0000
0013
0000
0011
0000
0100
0000
,
1100
0000
0010
0001
0010
0000
2100
0000
0010
0000
3010
0000
1010
0000
0001
0000
,
1001
0000
0100
0010
0100
0000
1001
0000
1000
0001
0010
0001
0100
0010
1000
0100
,
0020
0000
0000
0000
0000
0000
0031
1000
0010
1000
0001
0010
0100
1000
0100
0001
,
0100
0000
0000
0000
0000
0000
1000
0000
0000
0000
0000
0000
0001
0000
0000
0000
0000
0000
0010
0000
0000
0001
0000
0000
1000
0000
0000
0000
0010
0000
0000
0000
0001
0000
0000
0000
0010
0000
0000
0100
0000
0000
0001
0000
0000
1000
0000
0000
,
0100
0010
0100
1000
0001
0000
0100
0000
0010
0001
0000
0010
1000
0000
0001
0010
,
0001
0100
0010
1000
0001
0010
0100
1000
0001
1000
0001
1000
0001
1000
0001
1000
,
0100
0000
0010
0000
1000
0000
0001
0000
0100
0010
0000
0010
0001
0000
1000
0010
,
1000
0000
0001
0100
0001
0000
1000
0100
0010
0001
0010
0100
1000
0000
0001
1000
,
0010
0100
0010
0100
0010
0100
0010
0001
0010
0001
0010
0001
,
1000
0000
0000
0000
0100
0000
0000
0000
1000
0000
0000
0000
0100
0000
0000
0000
1000
0000
0000
0000
0100
0000
0000
0000
0001
0000
0000
0000
0000
0000
0000
0000
0000
0000
0000
0000
0010
0000
0000
0100
0000
0000
1000
0000
0000
0001
0000
0000
,
0020
0000
0000
0000
0001
0000
0001
0000
0001
0000
0001
0000
0001
0000
0031
1000
,
0010
0100
0010
1000
0001
0010
0100
0010
0001
1000
0010
0200
0000
0000
0000
0310
,
1000
0001
0010
0100
0010
1000
0020
0000
0000
0000
0000
0000
0000
0031
1000
0010
,
0100
0010
1000
0010
0001
0010
0001
0010
1000
0001
0200
0000
0000
0000
0000
0310
,
1000
0001
0010
0001
1000
0010
0002
0000
0000
0000
0000
0000
0013
0000
1000
0001
,
0010
0100
1000
0010
2000
0000
0000
3100
0010
1000
0010
0100
1020
0000
0000
0000
,
0030
0100
0001
1000
0100
0010
0002
0000
1003
0010
0100
0001
0020
0000
0000
0000
,
0031
0100
0001
0100
0000
0000
0010
1000
0010
1000
0000
0000
0001
0010
0001
0010
0000
0000
0100
1000
0100
1000
0001
0010
,
0200
0000
0000
0300
0000
1001
0000
0000
0000
0000
0000
0000
0000
0000
1001
0000
,
0000
0000
1001
0000
0000
0000
0000
0000
0000
0000
0000
0000
1000
0100
1000
0100
,
0010
0001
0010
0001
1001
0000
0000
0000
0000
0000
0000
0000
0000
0000
1001
0000
,
0000
0000
0000
0001
0100
0010
0001
0010
0100
1000
0100
0010
,
1000
0000
0000
0000
0001
0000
0010
0100
0001
0000
0100
0000
1000
0100
1000
0000
,
0100
0000
0010
0001
1000
0010
0000
0010
0001
0000
0001
0010
0000
0010
1000
0000
,
1100
0000
1000
0000
0001
0010
0000
0010
1000
0000
1000
0010
0000
0010
0001
0000
,
0101
0000
0001
0000
1000
0010
0000
0010
0001
0000
0001
0100
0000
0100
1000
0000
,
2002
0000
3003
0000
1000
0100
0010
0001
1000
0010
0100
0001
1000
0100
0010
0001
,
1000
0010
0100
0001
1000
0100
0010
1000
0010
0100
1000
0001
0100
0010
0001
0000
,
0010
0100
0010
0100
0001
0010
0100
1000
0001
0100
0010
1000
0001
0010
0100
1000
,
0001
0100
0010
1000
0001
0010
0100
0001
0100
0010
0001
1000
0010
0100
1000
0000
,
0100
0010
1000
0001
1000
0100
0010
0001
0100
0010
1000
0001
0010
0100
1000
0010
,
0100
0001
1000
0001
0100
1000
0100
0001
0100
1000
0100
0001
0100
1000
0100
0001
,
1000
0100
0010
0000
0001
0010
0100
1000
0010
0100
0001
1000
0100
0010
0001
0100
,
0010
1000
0001
1000
0100
0001
0100
1000
0100
0001
0100
0010
1000
0010
0001
1000
,
0010
0100
0010
0100
0001
0000
0010
0000
1000
0000
0001
0000
1000
0000
0010
0000
,
0001
0100
0010
1000
0002
0000
0010
0000
0010
0000
0013
0000
0001
0100
0001
0010
,
0100
1000
0010
1000
0001
0000
0010
0000
1000
0000
0010
0000
0001
0000
1001
0000
,
1000
0100
0010
0001
2000
0000
0010
0000
0010
0000
3010
0000
1000
0100
1000
0010
,
0100
0001
1000
0100
2100
0000
0010
0000
3010
0000
0102
0000
0010
0000
0013
0000
,
1001
0000
2010
0100
3100
0012
0100
0100
,
1003
0001
1000
0001
1000
0010
0100
0010
1000
0001
0010
0001
0100
1000
0100
0001
,
0010
0000
0000
0001
0000
0000
0100
0000
0000
0010
0000
0000
1000
0000
0100
0000
0010
0000
0100
0000
0000
0000
0000
0000
1000
0000
0001
0000
0100
0000
0001
0000
0000
0000
0000
0000
0010
0000
0100
0000
0010
0000
0001
0000
0000
0000
0000
0000
,
1000
0000
0010
0000
0100
0000
0001
0000
0000
1000
0000
0000
1001
0000
0000
0000
0000
0000
0000
0000
0000
0000
0000
0000
0000
0000
0000
0000
0000
0000
1001
0000
0000
0000
0000
0000
0000
0000
0000
0000
0000
0000
0000
0000
0000
0000
0000
0000
,
0000
0000
0000
0000
0000
0000
0000
0000
0000
0000
0000
0000
0000
0000
0000
0000
0000
0000
0000
0000
0000
0000
0000
0000
1001
0000
0000
0000
0000
0000
0000
0000
0000
0000
0000
0000
0000
0000
0000
0000
0000
0000
0000
0000
0000
0000
0000
0000
0000
0000
0000
0000
0000
0000
0000
0000
0000
0000
0000
0000
0000
0000
0000
0000
0000
0000
0000
0000
0000
0000
0000
0000
0000
0000
0000
0000
0000
0000
0000
0000
0000
0000
0000
0000
0000
0000
0000
0000
0000
0000
0000
0000
0000
0000
0000
0000
1001
0000
0000
0000
0000
0000
0000
0000
0000
0000
0000
0000
0000
0000
0000
0000
0000
0000
0000
0000
0000
0000
0000
0000
0000
0000
0000
0000
0000
0000
0000
0000
0000
0000
0000
0000
0000
0000
0000
0000
0000
0000
0000
0000
0000
0000
0000
0000
0000
0000
0000
0000
0000
0000
0000
0000
0000
0000
0000
0000
0000
0000
0000
0000
0000
0000
0000
0000
0000
0000
0000
0000
1000
0000
0000
0000
0000
0000
0000
0000
0000
0000
0100
0000
0000
0000
0000
0000
0000
0000
0000
1000
0000
0000
0000
0000
,
0000
0000
0000
0000
0000
0100
0000
0000
0000
0000
0000
0000
0000
0000
1000
0000
0000
0000
0000
0000
0000
0000
0000
0000
0001
0000
0000
0000
0000
0000
0000
0000
0000
0000
0100
0000
0000
0000
0000
0000
0000
0000
0000
0001
0000
0000
0000
0000
0000
0000
0000
0000
0000
0100
0000
0000
0000
0000
0000
0000
0000
0000
0001
0000
0000
0000
0000
0000
0000
0000
0000
0000
1000
0000
0000
0000
0000
0000
0000
0000
0000
0000
0010
0000
0000
0000
0000
0000
0000
0000
0000
1000
0000
0000
0000
0000
0000
0000
0000
0000
0000
0010
0000
0000
0000
0000
0000
0000
0000
0000
1000
0000
0000
0000
0000
0000
0000
0000
0000
0000
0001
0000
0000
0000
0000
0000
0000
0000
0000
0000
0010
0000
0000
0000
0000
0000
0000
0000
0000
0001
0000
0000
0000
0000
0000
0000
0000
0000
0000
0010
0000
0000
0000
0000
0000
0000
0000
0000
0001
0000
0000
0000
0000
0000
0000
0000
0000
0000
0000
0000
0000
1001
0000
0000
0000
0000
0000
0000
0000
0000
0000
0000
0000
0000
0000
0000
0000
0000
0000
0000
0000
0000
;
