#VERSION:0.83;
#TITLE:Life is like a puzzle;
#SUBTITLE:;
#ARTIST:Karl with a K;
#TITLETRANSLIT:;
#SUBTITLETRANSLIT:;
#ARTISTTRANSLIT:;
#GENRE:;
#ORIGIN:;
#CREDIT:;
#BANNER:;
#BACKGROUND:;
#PREVIEWVID:;
#JACKET:;
#CDIMAGE:;
#DISCIMAGE:;
#LYRICSPATH:;
#CDTITLE:;
#MUSIC:Life is like a puzzle.ogg;
#OFFSET:0.000000;
#SAMPLESTART:105.000000;
#SAMPLELENGTH:15.000000;
#SELECTABLE:YES;
#BPMS:0.000=160.000;
#STOPS:;
#DELAYS:;
#WARPS:;
#TIMESIGNATURES:0.000=4=4;
#TICKCOUNTS:0.000=4;
#COMBOS:0.000=1;
#SPEEDS:0.000=1.000=0.000=0;
#SCROLLS:0.000=1.000;
#FAKES:;
#LABELS:0.000=Song Start;
#BGCHANGES:;
#KEYSOUNDS:;
#ATTACKS:
;

//---------------dance-single - ----------------
#NOTEDATA:;
#CHARTNAME:;
#STEPSTYPE:dance-single;
#DESCRIPTION:;
#CHARTSTYLE:;
#DIFFICULTY:Hard;
#METER:14;
#RADARVALUES:0.543271,0.782609,0.173913,0.237681,0.156522,656.000000,626.000000,30.000000,41.000000,0.000000,0.000000,0.000000,0.000000,0.000000,0.543271,0.782609,0.173913,0.237681,0.156522,656.000000,626.000000,30.000000,41.000000,0.000000,0.000000,0.000000,0.000000,0.000000;
#CREDIT:;
#NOTES:
// measure 0
0000
0000
0000
0000
,  // measure 1
0000
0000
0000
0000
,  // measure 2
0000
0000
0000
0000
,  // measure 3
0000
0000
0000
0000
,  // measure 4
0000
0000
0000
0000
,  // measure 5
2000
0000
0000
3002
0000
0000
0023
0000
,  // measure 6
0000
0000
0000
0000
,  // measure 7
0000
0000
0000
0000
,  // measure 8
0000
0000
0000
0000
,  // measure 9
0000
0000
0000
0000
,  // measure 10
0031
0000
0000
0000
0000
1000
0000
0000
,  // measure 11
0010
1000
0000
0000
,  // measure 12
0001
0000
0000
0000
0100
0001
1000
0000
,  // measure 13
0001
0010
0010
0000
0001
0000
1000
0000
,  // measure 14
0001
0000
0000
0001
0100
0000
0100
0000
0010
0000
1000
0000
1000
0000
0000
0000
,  // measure 15
0100
0010
0000
0000
,  // measure 16
0001
0000
0000
0000
0000
1000
0000
0000
,  // measure 17
0001
0000
1000
0000
0100
1000
1000
0100
,  // measure 18
0020
0000
0031
0000
0010
0001
1000
0000
,  // measure 19
0000
0100
0010
0010
0100
1000
1000
0000
,  // measure 20
0001
0020
0000
0000
0000
0000
0032
0000
0000
0000
0000
0000
0203
0000
0000
0000
,  // measure 21
0000
0320
0000
0000
2030
0000
0001
0000
,  // measure 22
0100
0000
0001
0000
3100
0010
0002
0000
,  // measure 23
1003
0000
0000
0000
0000
0010
0000
0000
1000
0000
0001
0000
0100
0000
0000
0100
,  // measure 24
0010
0000
0000
0000
1000
0000
0000
0000
0000
0001
0000
0001
0010
0000
0001
0000
,  // measure 25
1000
0020
0000
0000
0000
0000
2030
0000
0001
0000
0000
0000
3200
0000
0000
0000
,  // measure 26
0000
0320
0000
0000
0032
0000
1000
0000
,  // measure 27
0100
0000
1000
0000
0103
0010
2000
0000
,  // measure 28
3001
0000
0000
0000
0000
0010
0000
0000
0001
0000
1000
0000
0100
0000
0000
0100
,  // measure 29
0010
0000
0001
0000
1000
0000
0000
0000
0000
0001
0000
0001
0010
0000
0001
0000
,  // measure 30
1000
0200
0000
0000
0000
0000
2300
0000
0000
0000
0000
0000
3020
0000
0000
0000
,  // measure 31
0000
0230
0000
0000
0302
0000
1000
0000
,  // measure 32
0010
0000
1000
0000
0013
0100
2000
0000
,  // measure 33
3001
0000
0000
0000
0000
0100
0000
0000
0001
0000
1000
0010
1000
0000
0000
0010
,  // measure 34
0100
0000
0001
0000
1000
0000
0001
0000
0000
1000
0000
1000
0100
0000
1000
0000
,  // measure 35
0001
0200
0000
0000
0000
0000
0302
0000
1000
0000
0000
0000
0023
0000
0000
0000
,  // measure 36
0000
0230
0000
0000
2300
0000
0001
0000
,  // measure 37
0010
0000
0001
0000
3010
0100
0002
0000
,  // measure 38
1003
0000
0000
0000
0000
0100
0000
0000
1000
0000
0001
0000
0010
0000
0100
0010
,  // measure 39
0100
0000
0000
0000
1000
0000
1000
0000
1000
0001
0100
0001
1000
0100
1000
0100
,  // measure 40
1000
0100
0000
1000
0001
0000
0100
0001
,  // measure 41
0010
0000
0000
0000
0100
0000
0010
0001
0010
0000
0001
0000
1000
0000
0100
0000
,  // measure 42
0010
0000
0001
1000
0001
0100
0000
0001
,  // measure 43
1000
0000
0000
0000
0100
0000
0000
1000
0010
0000
0100
0000
0000
0000
0010
0000
,  // measure 44
1000
0010
0000
0000
1000
0000
0100
0010
0002
0000
0000
0000
1003
0000
0001
0000
,  // measure 45
1000
0000
0010
0000
0000
0000
1000
0000
0001
0000
0000
0000
0010
0000
0000
0001
,  // measure 46
0100
0000
0000
0000
0010
0000
0100
0001
0100
0000
0001
0000
0000
0000
1000
0000
,  // measure 47
0010
0000
0000
0100
0000
0000
0001
0000
1000
0000
0100
0000
0000
0000
0010
0000
,  // measure 48
0001
0000
1000
0000
0100
0000
0000
0010
0001
0000
0000
0000
1000
0000
0001
0000
,  // measure 49
1000
0000
0010
0000
0000
0000
0100
0010
1000
0000
0000
1000
0001
0000
1000
0000
,  // measure 50
0001
0000
0100
0000
0001
0000
0000
0000
0010
0000
0100
0000
1000
0000
0100
1000
,  // measure 51
0001
0000
0100
0001
0010
0200
0000
1300
,  // measure 52
2000
3001
0020
0001
0031
2000
0000
3001
,  // measure 53
1000
0001
0100
0000
0010
0000
0100
0010
,  // measure 54
1000
0010
1000
0100
0010
0100
0010
0001
,  // measure 55
0100
0001
1000
0100
1000
0100
0100
0000
,  // measure 56
0010
0000
0001
1000
0001
0100
0000
0001
,  // measure 57
0010
0000
0001
0000
1000
0000
0010
0000
0100
0000
0001
0000
1000
0000
0200
1000
,  // measure 58
0000
0000
0010
0000
0310
0000
0001
0010
,  // measure 59
0001
0000
0100
0000
0010
0000
1000
0100
1000
0000
0001
0000
0010
0000
0001
0000
,  // measure 60
1000
0000
0001
0000
1000
0000
0000
0000
0001
0000
0100
0000
0010
0000
0100
0001
,  // measure 61
1000
0000
0100
0010
0100
0010
0100
1000
,  // measure 62
0010
0000
1000
0001
1000
0100
1000
0000
,  // measure 63
0010
0000
0100
0000
0001
0000
1000
0001
0010
0000
0100
0000
0010
0000
0001
0000
,  // measure 64
0100
0010
0000
0100
0010
1000
0010
1000
,  // measure 65
0100
0000
0100
0000
0100
0000
0000
0000
0010
0000
0001
1000
0001
0000
1000
0000
,  // measure 66
0010
0000
0000
0000
1000
0000
0001
0000
0010
0002
0000
0000
0000
0000
0100
0000
,  // measure 67
0103
0100
0001
1000
0100
0100
0100
0000
,  // measure 68
0010
0001
0010
0001
1000
0010
1000
0010
0100
0001
0100
0001
1000
0100
0010
0001
,  // measure 69
1000
1001
0110
1001
,  // measure 70
1000
0100
0010
0100
0001
0100
0010
0100
,  // measure 71
1000
0001
0100
0001
1000
0000
1001
0000
,  // measure 72
0110
1000
0001
1000
0001
0100
0010
0100
,  // measure 73
1000
0100
0010
1000
0100
1000
0001
0100
,  // measure 74
0100
0001
1000
0000
0110
0000
0110
1000
,  // measure 75
0001
0010
0100
0010
1000
0010
0100
0010
,  // measure 76
0001
1000
0010
1000
0001
0100
0001
0000
,  // measure 77
0110
0000
1000
0100
1000
0001
0010
0001
1000
0000
0010
0000
0100
0000
0010
0000
,  // measure 78
0001
0010
0100
0001
0010
0001
0100
0010
,  // measure 79
1000
0100
0100
0010
0001
0001
1000
0100
,  // measure 80
1000
0100
0010
0100
0001
0100
0010
0100
,  // measure 81
1000
0001
0100
0001
1000
0000
1001
0000
,  // measure 82
0110
1000
0001
1000
0001
0100
0010
0100
,  // measure 83
1000
0100
0010
1000
0100
1000
0001
0100
,  // measure 84
0001
1000
0001
0010
0100
0010
0100
1000
,  // measure 85
0001
0010
0100
0010
1000
0010
0100
0010
,  // measure 86
0001
1000
0010
1000
0001
0100
0001
0000
,  // measure 87
0110
1000
0001
0001
1000
0010
0100
0010
,  // measure 88
0001
0010
0100
0001
0010
0001
0100
0010
,  // measure 89
1000
0000
0000
0000
0110
0000
0001
0100
0001
0000
0100
0000
0110
0000
0000
0000
,  // measure 90
1001
0000
1000
0100
0010
0100
1000
0000
,  // measure 91
0010
0000
0100
0001
0010
0000
0101
0000
,  // measure 92
1010
0000
1100
0100
1001
0000
0001
0100
,  // measure 93
0010
0100
0001
0000
0010
0000
0100
1000
,  // measure 94
0010
0000
1000
0000
1100
0000
0000
0000
0011
0000
0000
0000
0101
0000
0001
0100
,  // measure 95
0001
0000
1000
1000
0001
0001
1000
1000
,  // measure 96
0100
0100
0010
0001
0100
0000
0011
0000
,  // measure 97
1100
1000
0010
0010
1001
0000
0110
0000
,  // measure 98
0001
0001
1000
0100
1000
0010
1000
0001
,  // measure 99
0100
0001
0001
0001
0010
0010
0010
0010
,  // measure 100
0001
0100
0001
0100
0010
0000
1000
0001
,  // measure 101
1000
0000
0001
0010
0100
0000
0110
0000
,  // measure 102
1001
1000
0001
0001
1000
0100
1000
0100
,  // measure 103
0010
0000
0001
1000
0001
0000
1000
0010
,  // measure 104
0100
0000
0110
1000
1001
0001
0011
0010
,  // measure 105
0002
0000
0000
2003
0000
0000
3020
0000
,  // measure 106
0000
0000
0000
0000
,  // measure 107
0000
0000
0000
0000
2030
0000
0000
3002
,  // measure 108
0000
0023
0000
0000
,  // measure 109
0000
0000
0000
0000
,  // measure 110
0000
0000
0000
0000
,  // measure 111
0000
0000
0000
0000
,  // measure 112
0000
0000
0030
0000
;
