#VERSION:0.83;
#TITLE:IMI;
#SUBTITLE:;
#ARTIST:RYDER;
#TITLETRANSLIT:;
#SUBTITLETRANSLIT:;
#ARTISTTRANSLIT:;
#GENRE:;
#CREDIT:;
#MUSIC:IMI.ogg;
#BANNER:IMI.png;
#BACKGROUND:IMI-bg.png;
#CDTITLE:;
#SAMPLESTART:37.280;
#SAMPLELENGTH:15.000;
#SELECTABLE:YES;
#OFFSET:-0.167;
#BPMS:0.000=194.000;
#STOPS:;
#TIMESIGNATURES:0.000=3=4;
#BGCHANGES:0.000=IMI.avi=1.000=0=0=0=StretchNoLoop====,
99999.000=-nosongbg-=1.000=0=0=0=StretchNoLoop====;
#FGCHANGES:;

//--------------- dance-single - ----------------
#NOTEDATA:;
#STEPSTYPE:dance-single;
#DESCRIPTION:;
#DIFFICULTY:Beginner;
#METER:4;
#RADARVALUES:0,0,0,0,0;
#NOTES:
0000
0000
0000
0000
,
0000
0000
0000
0000
,
0000
0000
0000
0000
,
0000
0000
0000
0000
,
0000
0000
0000
0000
,
0000
0000
0000
0000
,
1000
0000
0000
0100
,
0000
0000
0010
0000
,
0000
0001
0000
0000
,
0100
0000
0000
0010
,
0000
0000
1000
0000
,
0000
0001
0000
0000
0000
0000
0000
0000
,
1000
0000
0000
0010
,
0000
0000
0100
0000
,
0000
0001
0000
0000
,
0010
0000
0000
0100
,
0000
0000
1000
0000
,
0000
0001
0000
0000
0000
0000
0000
0000
,
1000
0000
0000
1000
,
0000
0000
1000
0000
,
0000
1000
0000
0000
,
1000
0000
0000
1000
,
0000
0000
0010
0000
,
0000
0100
0000
0000
,
0001
0000
0000
0001
,
0000
0000
0001
0000
,
0000
0001
0000
0000
,
0001
0000
0000
0001
,
0000
0000
0010
0000
,
0000
0100
0000
0000
,
1000
0000
0000
0000
,
0000
0000
0010
0000
,
0000
0000
0000
0000
,
0001
0000
0000
0000
,
0000
0000
0010
0000
,
0000
0000
0000
0000
,
1000
0000
0000
0000
,
0000
0000
0100
0000
,
0000
0000
0000
0000
,
0001
0000
0000
0000
,
0000
0000
0100
0000
,
0000
0100
0000
0000
,
0100
0000
0000
1000
,
0000
0000
0001
0000
,
0000
0100
0000
0000
,
0010
0000
0000
1000
,
0000
0000
0001
0000
,
0000
1000
0000
0000
,
0100
0000
0000
0010
,
0000
0000
0001
0000
,
0000
0000
0100
0000
,
0000
0010
0000
0000
,
1000
0000
0100
0000
,
0000
0010
0000
0000
0000
0001
0000
0000
,
1000
0000
0000
0001
,
0001
0001
0100
0100
,
0100
0010
0010
0010
,
1000
1000
1000
0100
,
0100
0100
0010
0010
,
0010
0001
0001
0001
,
1000
1000
1000
0001
,
0000
0000
0000
0000
,
0000
0000
0000
0000
,
0000
0000
0000
0001
,
0000
0000
0000
0000
,
0000
0010
0000
0000
,
0000
0000
0000
1000
,
0000
0000
0000
0000
,
0000
0010
0000
0000
,
0000
0000
0000
0001
,
0000
0000
0000
0000
,
0000
1000
0000
0000
,
0000
0000
0000
0001
,
0000
0000
0100
0000
,
0000
1000
0000
0000
,
0100
0000
0000
0001
,
0000
0000
0010
0000
,
0000
0100
0000
0000
,
1000
0000
0000
0100
,
0000
0000
0001
0000
,
0000
0100
0000
0000
,
1000
0000
0000
0010
,
0000
0000
0001
0000
,
0000
0010
0000
0000
,
0010
0000
0000
0010
,
0000
0000
1000
0000
,
0000
0001
0000
0000
,
0010
0000
0000
0100
,
0000
0000
1000
0000
,
0000
0010
0000
0000
,
0100
0000
0000
0001
,
0000
0000
1000
0000
,
0000
1001
0000
0000
;

//--------------- dance-single - ----------------
#NOTEDATA:;
#STEPSTYPE:dance-single;
#DESCRIPTION:;
#DIFFICULTY:Easy;
#METER:10;
#RADARVALUES:0,0,0,0,0;
#NOTES:
0000
0000
0000
0000
,
0000
0000
0000
0000
,
0000
0000
0000
0000
,
0000
0000
0000
0000
,
0000
0000
0000
0000
,
0000
0000
0000
0000
,
1000
0000
0000
0010
0000
0000
1000
0000
,
0000
0001
0000
0000
1000
0000
0000
0010
,
0000
0000
1000
0000
0000
0001
0000
0000
,
1000
0000
0000
0010
0000
0000
1000
0000
,
0000
0001
0000
0000
0010
0000
0000
0100
,
0000
1000
0000
0001
0000
0100
0000
0000
,
0001
0000
0000
0010
0000
0000
0001
0000
,
0000
1000
0000
0000
0001
0000
0000
0010
,
0000
0000
0001
0000
0000
1000
0000
0000
,
0001
0000
0000
0010
0000
0000
0001
0000
,
0000
1000
0000
0000
0010
0000
0000
0100
,
0000
0001
0000
1000
0000
0100
0000
0000
,
0000
0000
1000
0000
0010
0000
0000
1000
,
0000
0100
0000
0010
0000
0000
0001
0000
,
0100
0000
0000
0001
0000
0010
0000
0100
,
0000
0000
1000
0000
0010
0000
0000
1000
,
0000
0100
0000
0010
0000
0001
0000
0000
,
0000
0100
0000
0010
0000
0000
1000
0000
,
0000
0000
0001
0000
0010
0000
0000
0001
,
0000
0100
0000
0010
0000
0000
1000
0000
,
0100
0000
0000
1000
0000
0010
0000
0100
,
0000
0000
0001
0000
0010
0000
0000
0001
,
0000
0100
0000
0010
0000
1000
0000
0000
,
0000
0100
0000
0010
0000
0000
0001
0000
,
1000
0000
0000
1000
0000
0000
0010
0000
,
0000
0010
0000
0000
0100
0000
0000
0100
,
0000
0001
0000
0010
,
0001
0000
0000
0001
0000
0000
0100
0000
,
0000
0100
0000
0000
0010
0000
0000
0010
,
0000
1000
0001
1000
,
0001
0000
0000
0001
0000
0000
0010
0000
,
0000
0010
0000
0000
0100
0000
0000
0100
,
0000
1000
0000
0001
,
1000
0000
0000
1000
0000
0000
0100
0000
,
0000
0100
0000
0000
0010
0000
0000
0010
,
0000
0000
0010
0000
0000
0010
0000
0000
,
0010
0000
0000
0010
0000
0000
0001
0000
,
0000
0000
1000
0010
,
1000
0001
0010
0100
,
1000
0100
0010
0001
,
1000
0001
0010
0001
,
1000
0010
0100
0001
,
0010
0100
1000
0100
,
1000
0020
0000
0130
,
0001
1000
0100
0010
,
0001
0010
0100
1000
,
0010
0000
0100
0000
0002
0000
0003
0100
,
0000
0100
0000
0100
0000
0001
0000
0000
,
0010
0000
0100
0000
1000
0000
0001
0100
,
0001
0100
0001
0100
0010
1000
0010
1000
,
0010
1000
0001
0010
0001
0010
0001
0010
,
0100
1000
0100
1000
0100
1000
0001
0100
,
0010
1000
0100
0010
0001
1000
0100
0010
,
0001
0100
0010
1000
0100
0001
0100
1000
,
0010
0001
0010
0100
1000
0100
0001
0000
,
0000
0000
0000
0000
,
0000
0000
0000
0000
,
0000
0000
0000
1000
,
0000
1000
0000
0000
0100
0000
0000
0100
,
0000
0000
0010
0000
0000
0010
0000
0000
,
0001
1000
0001
1000
,
0000
1000
0000
0000
0010
0000
0000
0010
,
0000
0000
0100
0000
0000
0100
0000
0000
,
0001
0000
0010
0001
,
0000
0001
0000
0000
0100
0000
0000
0100
,
0000
0000
0010
0000
0000
0010
0000
0000
,
1000
0000
0000
1000
,
0010
1000
0010
1000
,
0001
0010
0100
0010
,
0100
0010
0001
0100
,
0001
0100
0001
0100
,
0010
0001
0010
0001
,
0010
1000
0001
1000
,
0100
1000
0100
1000
,
0001
0100
0010
0100
,
0010
0100
0001
0010
,
0001
0010
0001
0010
,
0100
0000
1000
0000
0000
1000
0000
0000
,
1000
0000
0000
1000
0000
0000
1000
0000
,
0000
1000
0000
0000
1000
0000
0000
0001
,
0000
1000
0000
0100
,
0010
0001
1000
0001
,
0100
0010
1000
0100
,
0010
0001
0000
0010
,
0100
1000
0001
1000
,
0010
0100
0001
0010
,
0100
1001
0000
0000
;

//--------------- dance-single - ----------------
#NOTEDATA:;
#STEPSTYPE:dance-single;
#DESCRIPTION:;
#DIFFICULTY:Medium;
#METER:14;
#RADARVALUES:0,0,0,0,0;
#NOTES:
0000
0000
0000
0000
,
0000
0000
0000
0000
,
0000
0000
0000
0000
,
0000
0000
0000
0000
,
0000
0000
0000
0000
,
0000
0000
0000
0000
,
1000
0100
1000
0010
0000
0000
0100
0001
,
0010
0100
0000
0000
1000
0100
1000
0010
,
0000
0000
0100
0001
0010
0100
1000
0000
,
0001
0100
0001
0010
0000
0000
0100
1000
,
0010
0100
0000
0000
0001
0010
0100
0010
,
0000
1000
0010
0100
0000
0010
0001
1000
,
0001
0010
0001
0100
0000
0000
0010
1000
,
0100
0010
0000
0000
0001
0010
0001
0100
,
0000
0000
0010
1000
0100
0010
0001
0000
,
1000
0010
1000
0100
0000
0000
0010
0001
,
0100
0010
0000
0000
1000
0100
0010
0100
,
0000
0001
0100
0010
0000
0100
1000
0100
,
0000
0000
1000
0010
1000
0010
0000
0100
,
0000
0001
0000
1000
0100
0000
1000
0010
,
1000
0010
0000
0100
0000
0001
0000
1000
,
0100
0000
1000
0010
1000
0010
0000
0100
,
0000
0001
0000
0000
0000
0010
0100
1000
,
0000
0010
0000
0100
0000
0001
1000
0000
,
0000
0000
0001
0010
0001
0010
0000
0100
,
0000
1000
0000
0001
0100
0000
0001
0010
,
0001
0010
0000
0100
0000
1000
0000
0001
,
0100
0000
0001
0010
0001
0010
0000
0100
,
0000
1000
0000
0000
0000
0010
0100
0001
,
0000
0010
0000
0100
0000
1000
0001
0000
,
1000
0010
0000
1000
0010
0000
0100
0001
,
0000
0100
0001
0000
0010
0100
0000
0010
,
0100
1000
0010
0100
,
0001
0010
0000
0001
0010
0000
0100
0010
,
0000
0100
0010
0000
0100
1000
0000
0100
,
1000
0010
0100
0001
,
1000
0100
0000
1000
0100
0000
0010
0001
,
0000
0010
0001
0000
0100
0010
0000
0100
,
0010
1000
0100
0010
,
0001
0100
0000
0001
0100
0000
0010
0100
,
0000
0010
0100
0000
0010
1000
0000
0010
,
0000
1000
0010
1000
0000
0010
1000
0010
,
1000
0010
0000
1000
0010
0000
1000
0001
,
1000
0001
1000
0000
0001
0000
0011
0000
,
0010
0100
1000
0000
0001
0000
1001
0000
,
1000
0000
1010
0000
0010
0100
0001
0000
,
0010
0100
1000
0000
0001
0000
0101
0000
,
0100
0010
1000
0000
0001
0000
1001
0000
,
1000
0000
1100
0000
0100
0010
0001
0000
,
0100
1000
0100
0001
1000
0000
1100
0000
,
0100
0010
0001
0000
1000
0000
1001
0000
,
0001
0000
0101
0000
0100
0010
1000
0000
,
0100
0010
0001
0000
1000
0000
1010
0000
,
0010
0100
0001
0000
1000
0000
1001
0000
,
0001
1000
0010
1000
0100
0000
1100
1000
,
0010
0110
0100
0001
0011
0010
0100
1100
,
1000
0001
1001
0001
0100
0110
0010
1000
,
1001
0000
0001
0000
0100
0010
1000
0010
0100
0000
0001
0000
0101
0000
0001
0000
,
0010
0110
0100
1000
1010
0010
0100
0101
,
0001
1000
1001
1000
0100
0110
0010
0001
,
1000
0010
0100
0001
1000
0100
0010
0001
0100
0010
1000
0100
1000
0000
0000
0000
,
0000
0000
0000
0000
,
0000
0000
0000
0000
,
0000
0000
0000
0000
0000
0000
1000
0100
,
0000
1000
0100
0000
0010
0100
0000
0010
,
0100
0000
0010
0001
0000
0010
0001
0000
,
0100
0000
0010
0000
1000
0000
0001
0010
,
0000
0001
0010
0000
0100
1000
0000
0100
,
1000
0000
0010
0100
0000
0010
0100
0000
,
0001
0000
0010
0000
0100
0000
1000
0010
,
0000
1000
0010
0000
0100
0010
0000
0100
,
0010
0000
0100
0001
0000
0100
0001
0000
,
0010
0000
0100
0000
1000
0000
0001
0010
,
0000
0100
0010
0000
0001
0100
0000
1000
,
0100
0000
0001
0010
0000
0100
1000
0000
,
0010
0000
0001
0000
0010
0000
1000
0100
,
0000
0010
0001
0000
0100
1000
0000
0001
,
0010
0000
1000
0100
0000
0001
1000
0000
,
0010
0001
0100
0010
1000
0001
1000
0100
,
0000
0010
0100
0000
1000
0010
0000
0001
,
0010
0000
1000
0100
0000
0010
0001
0000
,
0100
0000
1000
0000
0100
0000
0001
0010
,
0000
0100
1000
0000
0010
0001
0000
1000
,
0100
0000
0001
0010
0001
0010
0001
0010
,
0001
0010
0000
0001
0000
0010
0001
0010
,
0000
0001
0010
0000
1000
0010
1000
0010
,
0001
0000
1000
0010
1000
0000
0100
0000
,
0001
0100
1000
0000
0001
0000
1000
0010
,
1000
0000
0100
0000
0001
0100
1000
0001
,
1000
0000
0001
0010
0001
0000
0100
0000
,
1000
0100
0001
0000
1000
0000
0001
0010
,
0001
0000
0100
0000
1000
0100
0001
1000
,
0001
1001
0000
0000
;

//--------------- dance-single - ----------------
#NOTEDATA:;
#STEPSTYPE:dance-single;
#DESCRIPTION:;
#DIFFICULTY:Hard;
#METER:17;
#RADARVALUES:0,0,0,0,0;
#NOTES:
0000
0000
0000
0000
,
0000
0000
0000
0000
,
0000
0000
0000
0000
,
0000
0000
0000
0000
,
0000
0000
0000
0000
,
0000
0000
0000
0000
,
1000
0100
0010
0110
0000
0010
0001
1000
,
0010
1000
0001
0010
0100
1000
0001
0101
,
0000
0100
0010
0001
0010
1000
1000
1000
,
0100
0010
0001
0011
0000
0010
0001
1000
,
0010
0100
0010
1000
0100
0001
0100
1000
,
0000
0000
0010
0000
0001
0000
0010
0000
0000
0000
1000
0001
1000
0000
0001
0000
,
1000
0010
0100
0110
0000
0100
0001
1000
,
0100
1000
0001
0100
0010
1000
0001
0011
,
0000
0010
0100
0001
0100
1000
1000
1000
,
0010
0100
0001
0101
0000
0100
0001
1000
,
0100
1000
0100
1000
0001
0010
0001
0010
0001
0000
1000
0000
0010
0000
0001
0000
,
0000
0010
1000
0001
0000
0010
0100
1000
,
1001
0000
0001
0100
0001
0100
0000
0001
,
0010
0001
0000
0010
0100
1000
0001
0100
,
0001
0100
0000
0001
0010
0001
0100
0001
,
1000
0000
0001
0100
0001
0100
0000
0001
,
0010
0001
1000
0001
0100
1000
0100
0010
,
0100
0001
1000
0100
0001
0100
1000
0001
,
1001
0000
1000
0100
1000
0100
0000
1000
,
0010
1000
0000
0010
0100
0001
1000
0100
,
1000
0100
0000
1000
0010
1000
0100
1000
,
0001
0000
1000
0100
1000
0100
0000
1000
,
0010
0000
1000
0000
0001
0000
1000
0000
0100
0000
0010
0001
0010
0000
0100
0000
,
0010
1000
0010
0001
1000
0000
0001
0000
,
1001
0001
0000
0010
0010
0000
1000
1000
,
0000
0010
0010
0000
0001
0001
0000
1000
,
1000
0000
1010
0000
0100
0001
1000
0100
,
1000
1000
0000
0010
0010
0000
0001
0001
,
0000
1000
1000
0000
0100
0100
0000
0001
,
0001
0000
0000
0000
0011
0000
0000
0000
0100
0010
0100
0000
0010
0000
0100
0000
,
1000
1000
0000
0010
0010
0000
0001
0001
,
0000
0010
0010
0000
1000
1000
0000
0001
,
0001
0000
0011
0000
0100
1000
0001
0100
,
0001
0001
0000
0010
0010
0000
1000
1000
,
0010
0001
0010
0001
1000
0001
1000
0001
1000
0000
0100
0000
0000
0000
1000
0000
,
0001
0100
0110
0010
0000
1000
0001
0010
,
0011
0000
0001
0000
0000
0000
0100
0000
0010
0000
1000
0000
0001
0010
0001
0010
,
0100
1000
0100
1000
0001
0000
0100
0000
0020
0000
0000
0000
0000
0000
2030
0000
,
0000
0000
0000
3001
0000
0000
0010
0000
0100
0000
0010
0000
0001
0000
0000
1000
0000
0000
0010
0000
0000
1000
0000
0000
,
0001
0010
0100
0010
0001
0010
1000
0010
,
0001
0000
0000
1000
0000
0000
0010
0000
0000
1000
0000
0000
0100
0000
1000
0000
0100
0000
1000
0000
0000
0010
0000
0000
,
0001
0000
0000
0010
0000
0000
0100
0000
0001
0000
0100
0000
0001
0000
0000
0010
0000
0000
0001
0000
0000
0100
0000
0000
,
0010
1000
0001
1000
0010
1000
0100
1000
,
0100
0010
0100
0010
0001
0010
0001
0010
0002
0000
0000
0000
2003
0000
0000
0000
,
0000
3020
0000
0000
0130
0001
0010
2000
,
0000
3001
0100
1000
0010
0100
0010
0001
,
0010
0100
0010
1000
0002
0000
0013
1000
,
0010
0100
0010
0001
0100
0020
0000
1030
,
0001
0000
0010
0000
0100
1000
0100
0000
1000
0001
1000
0001
1000
0100
1000
0100
,
1000
0100
1000
0100
1000
0100
1000
0100
0010
0001
0010
0001
0010
0001
0010
0001
,
0010
0001
0010
0001
1000
0010
1000
0010
1000
0010
1000
0010
1000
0010
1000
0010
,
0100
0001
0100
0001
0100
0001
0100
0001
0100
0001
0100
0001
0010
0100
0010
1000
,
0010
0100
0010
1000
0010
0100
0010
0001
0100
0010
0100
0001
0100
0010
0100
0001
,
0100
0010
0100
0001
1000
0100
1000
0010
1000
0100
1000
0010
1000
0100
1000
0010
,
0100
0001
0010
0001
0100
0010
1000
0100
0010
0001
0100
0010
1000
0000
1000
0000
,
0000
0010
0010
0000
0100
0100
0000
0001
,
0001
0000
0010
0010
0000
0100
0100
0000
,
1000
0000
0000
0000
0001
0100
0001
0100
0010
1000
0010
1000
0001
0000
0001
0000
,
0000
0010
0010
0000
1000
1000
0000
0001
,
0001
0000
0100
0100
0000
1000
1000
0000
,
1010
0000
0000
0000
0010
0100
0010
0000
1000
0000
0001
0000
0010
0000
0010
0000
,
0000
1000
1000
0000
0010
0010
0000
0001
,
0001
0000
1000
1000
0000
0010
0010
0000
,
0110
0000
0100
0001
1000
0100
0010
0010
,
0000
1000
1000
0000
0001
0001
0000
0100
,
0100
0000
1000
1000
0000
0010
0010
0000
,
0110
0000
0000
0000
1000
0001
1000
0001
0100
0010
0100
0000
0110
0000
0010
0000
,
0100
1000
0100
0001
0100
0010
0001
0010
,
1000
0001
1001
0001
1000
0100
0010
1000
,
0010
0100
1000
0001
0010
0100
0110
0100
,
0010
1000
0010
0001
0010
0100
0001
0100
,
1000
0001
1001
0001
1000
0010
0100
1000
,
0100
0010
0100
0000
0001
1000
0001
1000
0001
1000
0001
1000
0001
0000
0010
0000
,
1000
0010
0100
0010
1000
0010
0100
0010
,
0001
1000
1001
0001
0100
0010
0001
1000
,
0100
0010
0001
0010
1000
1000
1001
1000
,
0010
0100
0010
0001
0010
0100
0010
1000
,
0001
1000
1001
1000
0010
0001
0010
1000
,
1001
0001
0010
1000
0010
0001
1001
0000
,
1000
0000
0001
0000
1000
0000
0001
0000
1000
0100
1000
0100
0010
0001
0010
0001
,
1000
0000
0000
0000
0000
0000
0001
0000
0100
0000
0001
0000
0100
0000
0000
0010
0000
0000
0001
0000
0000
0010
0000
0000
,
0100
0000
1000
0000
0100
0000
0001
0000
1000
0000
0001
0000
1000
0100
1000
0000
,
0100
0010
0001
0100
1000
0100
0001
1000
,
0100
0000
0000
0010
0000
0000
0001
0000
0100
0000
0001
0000
0100
0000
0000
0010
0000
0000
0001
0000
0000
0010
0000
0000
,
0100
0000
1000
0000
0100
0001
0100
0001
1000
0010
1000
0010
1000
0001
1000
0000
,
0100
0010
0001
1000
0010
0001
1000
0100
,
0001
1000
1001
0000
0000
0000
0000
0000
;

//--------------- dance-double - ----------------
#NOTEDATA:;
#STEPSTYPE:dance-double;
#DESCRIPTION:;
#DIFFICULTY:Hard;
#METER:18;
#RADARVALUES:0,0,0,0,0;
#NOTES:
00000000
00000000
00000000
00000000
,
00000000
00000000
00000000
00000000
,
00000000
00000000
00000000
00000000
,
00000000
00000000
00000000
00000000
,
00000000
00000000
00000000
00000000
,
00000000
00000000
00000000
00000000
,
00010000
00001000
00000100
00000010
00000000
00001000
00000100
00010000
,
00001000
00100000
00000000
00010000
00001000
00000100
00000010
00000001
,
00000000
00000100
00000010
00001000
00000100
00010000
00000000
00001000
,
00010000
00000100
00000010
00001000
00000000
00010000
00001000
00000100
,
00000001
00001000
00000000
00001000
00000001
00000010
00000100
00001000
,
00000000
00010000
00100000
01000000
00000000
10000000
00001000
00010000
,
00001000
00010000
01000000
00100000
00000000
00010000
01000000
00001000
,
00010000
00000010
00000000
00001000
00010000
01000000
00100000
10000000
,
00000000
01000000
00100000
00010000
01000000
00001000
00000000
00010000
,
00001000
01000000
00100000
00010000
00000000
00001000
00010000
01000000
,
10000000
01000000
10000000
01000000
00100000
00010000
00100000
00010000
10000000
00000000
00100000
00000000
01000000
00000000
00010000
00000000
,
00000000
00001000
00000010
00000100
00000000
00000001
00010000
00001000
,
00000000
00000000
00010000
00100000
00010000
00100000
00000000
01000000
,
00000000
00001000
00000000
00010000
00001000
00010000
00001000
00000100
,
00001000
00000100
00000000
00000010
00000000
00010000
00001000
00010000
,
00001000
00000000
00010000
00100000
00010000
00100000
00000000
01000000
,
00000000
00001000
00000000
00010000
00001000
00000100
00000001
00000010
,
00001000
00010000
00100000
10000000
01000000
10000000
00010000
00100000
,
00001000
00000000
00010000
01000000
00010000
01000000
00000000
00100000
,
00000000
00001000
00000000
00010000
00001000
00010000
00001000
00000010
,
00001000
00000010
00000000
00000100
00000000
00010000
00001000
00010000
,
00001000
00000000
00010000
01000000
00010000
01000000
00000000
00100000
,
00000000
00000000
00001000
00000000
00000000
00000000
00010000
00000000
00001000
00000000
00000010
00000100
00000010
00000000
00000001
00000000
,
00000100
00001000
00010000
00100000
10000000
01000000
00100000
00000000
,
10000000
10000000
00000000
00010000
00010000
00000000
00001000
00001000
,
00000000
00000100
00000100
00000000
00000001
00000001
00000000
00000010
,
00000010
00000100
00001000
00000010
,
00000001
00000001
00000000
00001000
00001000
00000000
01000000
01000000
,
00000000
00010000
00010000
00000000
00100000
00100000
00000000
01000000
,
01000000
00000000
10000000
00000000
00100000
01000000
00010000
00100000
,
10000000
10000000
00000000
00010000
00010000
00000000
00001000
00001000
,
00000000
00000010
00000010
00000000
00000001
00000001
00000000
00000100
,
00000100
00000010
00001000
00000100
,
00000001
00000001
00000000
00001000
00001000
00000000
00100000
00100000
,
00000000
00010000
00010000
00000000
01000000
01000000
00000000
00100000
,
00100000
00100000
10000000
10000000
00000000
01000000
01000000
01000000
,
00100000
00000000
00100000
00000000
00000000
00000000
00001000
00000000
00001000
00000000
00000000
00000000
00010000
00001000
00010000
00001000
,
00100000
00010000
00100000
00010000
10000000
00000000
00000000
00000000
00100000
00000000
00000000
00000000
00000000
00000000
00010000
00000000
,
00000000
00000000
00000000
00001000
00000000
00000000
00000100
00000000
00001000
00000000
00010000
00000000
00001000
00000000
00000000
00100000
00000000
00000000
00010000
00000000
00000000
01000000
00000000
00000000
,
00100000
10000000
01000000
10000000
00010000
01000000
00001000
00010000
,
00000100
00000000
00000000
00000000
00000000
00000000
00001000
00000000
00000000
00000010
00000000
00000000
00001000
00000000
00000000
00000000
00000000
00000000
00000001
00000000
00000000
00000000
00000000
00000000
00000010
00000000
00000000
00000000
00000100
00000000
00000000
00000000
00000010
00000000
00000000
00000000
00000100
00000000
00000000
00000000
00000000
00000000
00001000
00000000
00000000
00000000
00000000
00000000
,
00010000
00000000
00000000
00000010
00000000
00000000
00001000
00000000
00010000
00000000
00001000
00000000
00010000
00000000
00000000
00000100
00000000
00000000
00001000
00000000
00000000
00010000
00000000
00000000
,
00100000
01000000
10000000
00100000
01000000
00010000
00001000
00000010
,
00000100
00000001
00000100
00000001
00001000
00000010
00001000
00000010
00010000
00000000
00000000
00000000
00100000
00000000
00000000
00000000
,
00000000
10000000
00000000
00000000
01000000
00010000
00001000
00000010
,
00000000
00001000
00010000
00000100
00001000
00000001
00000100
00001000
,
00000100
00000001
00000010
00001000
00010000
00000000
00000000
00000010
,
00000000
00001000
00000000
00100000
00000000
01000000
00000000
00000100
,
00001000
00000000
00010000
00000000
00100000
01000000
00100000
00000000
00010000
10000000
00010000
00000000
10000000
01000000
00100000
00010000
,
10000000
00100000
01000000
00010000
10000000
01000000
00100000
00010000
00001000
00000010
00000100
00000001
00001000
00000100
00000010
00000001
,
00001000
00000010
00000100
00000001
00010000
00000100
00001000
00000010
00010000
00001000
00000100
00000010
00010000
00000100
00001000
00000010
,
00100000
00010000
01000000
00001000
00100000
00001000
01000000
00010000
00100000
00010000
01000000
00001000
10000000
01000000
10000000
00010000
,
01000000
00001000
00010000
00000010
00001000
00000001
00000010
00000001
00001000
00000010
00000100
00000010
00010000
00001000
00100000
00010000
,
10000000
00100000
01000000
00010000
10000000
01000000
10000000
00100000
01000000
00010000
00100000
00001000
00010000
00000100
00001000
00000010
,
00000100
00000001
00001000
00000010
00010000
00000100
00100000
00001000
01000000
00010000
10000000
00100000
00010000
00000000
00000000
00000000
,
00000000
00000000
00000000
00000000
,
00000000
00000000
00000000
00000000
,
00000000
00000000
00000000
00000000
00000000
00000000
00001000
00001000
,
00000000
00010000
00010000
00000000
00000010
00000010
00000000
00000001
,
00000001
00000000
00001000
00001000
00000000
00010000
00010000
00000000
,
00000010
00000000
00000010
00000000
00001000
00000100
00001000
00000100
00100000
00010000
00100000
00000000
10000000
00000000
10000000
00000000
,
00000000
00010000
00010000
00000000
00000100
00000100
00000000
01000000
,
01000000
00000000
00010000
00010000
00000000
00001000
00001000
00000000
,
00000001
00000000
00000010
00001000
00010000
00100000
10000000
10000000
,
00000000
01000000
01000000
00000000
00001000
00001000
00000000
00010000
,
00010000
00000000
00000010
00000010
00000000
00000001
00000001
00000000
,
00001001
00000000
00000000
00000000
00010000
00100000
00010000
00100000
01000000
10000000
01000000
00000000
10000000
00000000
00100000
00000000
,
00010000
00000010
00001000
00010000
01000000
00001000
00000100
00001000
,
00010000
00000100
00000010
00001000
00010000
00100000
10000000
01000000
,
00001000
00000100
00001000
00010000
00000010
00000001
00001000
00000010
,
00000100
00010000
01000000
00100000
10000000
00001000
00010000
01000000
,
00001000
00000100
00010000
00000010
00000001
00000010
00001000
00000100
,
00100000
00010000
00100000
00000000
00000010
00001000
00000010
00001000
00000001
00000100
00000001
00000100
00000001
00000000
00000010
00000000
,
00001000
00100000
00010000
00001000
00000100
00010000
01000000
00010000
,
00001000
01000000
00100000
00010000
00001000
00000010
00000001
00000100
,
00010000
01000000
00010000
00001000
00100000
10000000
00010000
00100000
,
01000000
00001000
00000100
00000010
00000001
00010000
00001000
00000100
,
00010000
01000000
00001000
00010000
00100000
10000000
01000000
00010000
,
00001000
00000010
00000001
00000100
00001000
00010000
00001000
00000100
,
00000001
00000000
00000010
00000000
00001000
00000000
00010000
00000000
00100000
10000000
00100000
10000000
00010000
01000000
00010000
01000000
,
00001000
00000000
00000000
00000000
00000000
00000000
00010000
00000000
00001000
00000000
00010000
00000000
00100000
00000000
00000000
10000000
00000000
00000000
01000000
00000000
00000000
10000000
00000000
00000000
,
00100000
00000000
01000000
00000000
00010000
00000000
00100000
00000000
00001000
00000000
00010000
00000000
00000100
00001000
00000100
00000000
,
00010000
00000010
00000001
00000010
00000100
00000001
00000010
00000100
,
00001000
00000000
00000000
00000010
00000000
00000000
00010000
00000000
00001000
00000000
00010000
00000000
01000000
00000000
00000000
10000000
00000000
00000000
00100000
00000000
00000000
10000000
00000000
00000000
,
01000000
00000000
00100000
00000000
00010000
01000000
00010000
01000000
00001000
00010000
00001000
00010000
00000010
00001000
00000010
00000000
,
00010000
00000100
00000001
00000100
00000010
00000001
00000100
00001000
,
00010000
00100000
10000000
00000000
00000000
00000000
00000000
00000000
;
