#TITLE:I'm Gonna Wait No More;
#SUBTITLE:(Akaso Mix);
#ARTIST:No Doubt;
#TITLETRANSLIT:;
#SUBTITLETRANSLIT:;
#ARTISTTRANSLIT:;
#CREDIT:;
#BANNER: I'm Gonna Wait No More.png;
#BACKGROUND: I'm Gonna Wait No More-bg.png;
#LYRICSPATH:;
#CDTITLE:;
#MUSIC:I'm Gonna Wait No More (Akaso Mix).ogg;
#OFFSET:-0.537;
#SAMPLESTART:54.390;
#SAMPLELENGTH:12.000;
#SELECTABLE:YES;
#BPMS:0.000=125.100,16.000=124.000,31.000=138.079,32.000=124.910,48.000=249.820,104.000=124.910,108.000=249.720,284.000=124.860,292.000=249.720,468.000=124.860;
#STOPS:;
#BGCHANGES:;

//---------------dance-single - ----------------
#NOTES:
     dance-single:
     :
     Hard:
     14:
     0.573,0.909,0.157,0.087,0.067:
0000
0000
0000
0000
,
0000
0000
0000
0000
,
0000
0000
0000
0000
,
0000
0000
0000
0000
,
0000
0000
0000
0000
,
0000
0000
0000
0000
,
0000
0000
0000
0000
,
0000
0000
0000
0000
,
1000
0000
0000
0100
0000
0000
0010
0000
0000
0100
0000
1000
0200
0000
0000
0000
,
0310
0000
0000
0001
0000
0000
0100
0000
0000
0001
0000
0010
0002
0000
0000
0000
,
1003
0000
0000
0010
0000
0000
0100
0000
0000
0010
0000
1000
0020
0000
0000
0000
,
0032
0000
0203
0000
2300
0000
3001
0100
,
100M
0000
0000
1000
0100
0000
0001
0000
,
1000
0100
1000
0000
0010
0000
0100
0000
,
0001
0000
0000
0001
0010
0000
0100
0000
,
1000
0010
1000
0000
0100
0000
0010
0000
,
0001
0000
0000
0001
0100
0000
0010
0000
,
1000
0100
1000
0000
0010
0000
0100
0000
,
0001
0000
0000
0001
0010
0000
0100
0000
,
1000
0010
1000
0000
0100
0000
0010
0000
,
0001
0000
0000
0001
0100
0000
0010
0000
,
1000
0001
0010
0000
0100
0000
1000
0000
,
0100
0000
0000
0100
0010
0000
0001
0000
,
0100
0010
1000
0000
0100
0000
0010
0000
,
0100
0000
0000
0100
1000
0000
0001
0000
,
0100
0010
1000
0000
0010
0000
0100
0000
,
100M
0100
0001
0010
0000
0010
0100
1000
,
101M
0000
0000
0010
0100
0000
0001
0000
,
1000
0100
1000
0100
0010
0000
0001
0000
,
0101
0000
0000
0100
0010
0000
1000
0000
,
0001
0010
0001
0010
0100
0000
1000
0000
,
1010
0000
0000
0010
0100
0000
0001
0000
,
1000
0010
1000
0010
0100
0000
0001
0000
,
0011
0000
0000
0010
0100
0000
1000
0000
,
0001
0100
0001
0100
0010
0000
1000
0000
,
1100
0000
0000
0100
0010
0000
0001
0000
,
1000
0010
0100
0010
1000
0000
0100
0000
,
0110
0000
0000
0010
0001
0000
0100
0000
,
0010
1000
0010
0100
0010
0000
1000
0000
,
1001
0000
0000
0001
0010
0000
0100
0000
,
1000
0100
0010
0100
1000
0000
0001
0000
,
1000
0010
1000
0010
0100
0010
0100
0010
,
0001
0010
0001
0010
0100
0010
0100
0000
,
0101
0000
0001
0000
1001
0000
0000
0001
,
1000
0001
0100
0000
0100
0001
1000
0000
,
1100
0000
0001
0000
1001
0000
0000
0001
,
1000
0001
0010
0000
0010
0001
1000
0000
,
1010
0000
1000
0000
1001
0000
0000
1000
,
0001
0010
0100
0000
0100
0010
0001
0000
,
1000
0010
0100
1000
,
0100
0010
1000
0000
1000
0100
0010
0000
,
0011
0000
0001
0000
0101
0000
0000
0001
,
0100
0010
1000
0000
1000
0100
0010
0000
,
0011
0000
0001
0000
0101
0000
0000
0100
,
0001
0100
0010
0000
0010
1000
0100
0000
,
1100
0000
1000
0000
1010
0000
0000
1000
,
0010
0100
0001
0000
0001
0010
0100
0000
,
1000
0100
1000
0100
0010
0001
0010
0001
,
0100
0001
0100
0010
1000
0010
1000
0000
,
1001
0000
0001
0000
0010
0000
0100
1000
,
0010
0000
0100
0000
0001
0000
0010
0100
,
1000
0000
0001
0000
0100
0000
0010
1000
,
0100
0000
0010
0000
0001
0000
1000
0010
,
0100
0000
0001
0000
0010
0000
0100
1000
,
0010
0000
0100
0000
0001
0000
0010
0100
,
1000
0000
0010
0000
0100
0000
0001
0010
,
0100
0000
1000
0000
0010
0000
0100
0010
,
1000
0000
0100
0000
0010
0000
0100
1000
,
0000
1000
0010
0100
,
0001
0000
0010
0000
0001
0000
0100
0010
,
0000
0100
0001
0010
,
200M
0000
0000
0000
,
3010
0001
0010
0001
0100
0001
0100
0001
0100
1000
0100
1000
0100
0001
0100
0001
,
0M10
0001
0000
0100
0000
0010
0100
0001
,
0000
1000
0000
0100
0010
0100
0000
1000
,
0001
0100
0000
0100
0001
0100
0010
1000
,
0000
0100
0000
0100
0010
0100
0000
0100
,
0001
0100
0000
1000
0000
0010
1000
0001
,
0000
0100
0000
1000
0100
0010
0000
0100
,
0001
1000
0000
1000
0100
1000
0010
0100
,
0000
0001
0000
0010
0100
0001
0000
0001
,
0100
0000
0000
0100
1000
0001
1000
0010
,
1000
0001
1000
0100
0010
0100
1000
0000
,
0001
0000
0000
0001
0100
0010
0100
1000
,
0100
0010
0100
0001
1000
0100
1000
0000
,
0010
0000
0000
0010
0100
0001
1000
0001
,
0010
0001
1000
0001
0100
0001
0010
0000
,
0100
0000
0000
0100
1000
0001
1000
0010
,
1000
0001
1000
0100
0010
0100
1000
0000
,
0010
0000
0000
0010
0100
0001
0100
1000
,
0100
0010
0100
0001
0100
0010
0100
0000
,
0001
0000
0000
0001
0010
0100
0010
1000
,
0010
0100
0010
0001
0010
0100
0010
0000
,
0001
0000
0000
0001
1000
0010
0100
0010
,
0001
0010
0100
0010
1000
0010
0100
0010
,
0002
0000
0203
0000
,
2300
0000
3010
0002
,
0000
0000
0000
0000
,
0000
0000
0000
0000
,
0000
0000
0000
0000
,
0000
0000
0000
0000
,
0000
0000
0000
0000
,
0000
0000
0000
0000
,
0000
0000
0000
0000
,
0000
0000
0000
0000
,
0003
0000
0000
0000
;

//---------------dance-single - ----------------
#NOTES:
     dance-single:
     :
     Medium:
     12:
     0.424,0.537,0.370,0.063,0.024: // measure 1
0000
0000
0000
0000
,  // measure 2
0000
0000
0000
0000
,  // measure 3
0000
0000
0000
0000
,  // measure 4
0000
0000
0000
0000
,  // measure 5
0000
0000
0000
0000
,  // measure 6
0000
0000
0000
0000
,  // measure 7
0000
0000
0000
0000
,  // measure 8
0000
0000
0000
0000
,  // measure 9
1000
0000
0000
0010
0000
0000
0100
0000
0000
0000
0001
0000
0000
0002
0000
0000
,  // measure 10
0013
0000
0000
0100
0000
0000
1000
0000
0000
0000
0001
0000
0000
0002
0000
0000
,  // measure 11
0103
0000
0000
1000
0000
0000
0100
0000
0000
0000
0001
0000
0000
0002
0000
0000
,  // measure 12
0013
0000
1000
0000
0100
0000
0001
1000
,  // measure 13
01M0
0000
0000
0010
0000
0000
0001
0000
,  // measure 14
0000
0000
0100
0000
0000
0110
0000
0000
,  // measure 15
1000
0000
0000
0010
0000
0000
0100
0000
,  // measure 16
0000
0000
0001
0000
0000
0011
0000
0000
,  // measure 17
1000
0000
0000
0010
0000
0000
0100
0000
,  // measure 18
0000
0000
0001
0000
0000
0011
0000
0000
,  // measure 19
1000
0000
0000
0100
0000
0000
0010
0000
,  // measure 20
0000
0000
0001
0000
0000
0101
0000
0000
,  // measure 21
0010
0000
0000
1000
0000
0000
0100
0000
,  // measure 22
0000
0000
0010
0000
0000
0011
0000
0000
,  // measure 23
1000
0000
0000
0010
0000
0000
0100
0000
,  // measure 24
0000
0000
0001
0000
0000
0011
0000
0000
,  // measure 25
1000
0000
0000
0100
0000
0000
0010
0000
,  // measure 26
0000
0000
0001
0000
0000
0101
0000
0000
,  // measure 27
M001
0100
0010
1000
0000
1000
0100
0000
,  // measure 28
M110
0000
0000
0001
0000
0000
0101
0000
,  // measure 29
0000
0001
0100
0000
0010
0000
1000
0000
,  // measure 30
1100
0000
0000
0001
0000
0000
1100
0000
,  // measure 31
0000
1000
0001
0000
0100
0000
0010
0000
,  // measure 32
1010
0000
0000
0001
0000
0000
1010
0000
,  // measure 33
0000
0010
0100
0000
0001
0000
1000
0000
,  // measure 34
1010
0000
0000
0001
0000
0000
1010
0000
,  // measure 35
0000
0010
0100
0000
0001
0000
0010
0000
,  // measure 36
0110
0000
0000
1000
0000
0000
0101
0000
,  // measure 37
0000
0001
0100
0000
0010
0000
1000
0000
,  // measure 38
1100
0000
0000
0001
0000
0000
1010
0000
,  // measure 39
0000
1000
0100
0000
0010
0000
0001
0000
,  // measure 40
0101
0000
0000
0010
0000
0000
0101
0000
,  // measure 41
0000
0001
1000
0000
0100
0000
0010
0000
,  // measure 42
0001
0100
1000
0100
,  // measure 43
0001
0100
1000
0100
,  // measure 44
0110
0000
1010
0000
,  // measure 45
1100
0100
0010
0001
,  // measure 46
0101
0000
0110
0000
,  // measure 47
0101
0100
0010
1000
,  // measure 48
1100
0000
0110
0000
,  // measure 49
1100
0100
0010
0001
,  // measure 50
1000
0010
0100
1000
,  // measure 51
0100
0001
1000
0100
,  // measure 52
0110
0000
0011
0000
,  // measure 53
0101
0100
0010
1000
,  // measure 54
1100
0000
0110
0000
,  // measure 55
1100
0010
0100
0001
,  // measure 56
1001
0000
1010
0000
,  // measure 57
1001
0001
0010
0100
,  // measure 58
1000
0010
1000
0100
,  // measure 59
0010
0001
1000
0010
,  // measure 60
1010
0001
0100
0010
,  // measure 61
0100
0001
1000
0100
,  // measure 62
0010
0100
1000
0010
,  // measure 63
0100
0001
1000
0000
,  // measure 64
0001
0010
0100
0010
,  // measure 65
0001
0100
0010
1000
,  // measure 66
0100
0010
0001
0100
,  // measure 67
0001
0010
0100
0000
,  // measure 68
1000
0000
1000
0000
1000
0000
0010
0100
,  // measure 69
0000
0100
0001
0000
1000
0000
1000
0000
,  // measure 70
0100
0000
0100
0000
0100
0000
0010
0001
,  // measure 71
0000
0001
1000
0000
0010
0000
0010
0000
,  // measure 72
020M
0000
0000
0000
,  // measure 73
1300
0100
0001
0100
1000
0100
0001
0010
,  // measure 74
010M
1000
0000
0001
0000
1000
0100
0000
,  // measure 75
0000
0010
0000
0001
0100
0000
0000
0100
,  // measure 76
0010
1000
0000
0001
0000
1000
0010
0100
,  // measure 77
0000
0001
0000
0010
0100
1000
0000
0000
,  // measure 78
1000
0010
0000
0100
0000
0000
0010
1000
,  // measure 79
0000
0001
0000
0010
0100
0000
0000
0100
,  // measure 80
0010
0001
0000
1000
0000
0001
0100
0001
,  // measure 81
0000
1000
0000
0100
0010
0001
0000
0000
,  // measure 82
0001
0100
0010
0100
,  // measure 83
0001
1000
1100
0000
,  // measure 84
1000
0100
0010
0100
,  // measure 85
1000
0001
0101
0000
,  // measure 86
1000
0010
0001
0010
,  // measure 87
0100
0010
1010
0000
,  // measure 88
0001
0010
1000
0010
,  // measure 89
0100
0010
0011
0000
,  // measure 90
1000
0000
0010
0000
0100
0000
0001
1000
,  // measure 91
0100
0010
0110
0000
,  // measure 92
0001
0000
0100
0000
1000
0000
0100
0010
,  // measure 93
1000
0100
1100
0000
,  // measure 94
0010
0000
0001
0000
0100
0000
0001
1000
,  // measure 95
0100
0010
0011
0000
,  // measure 96
0002
0000
0203
0000
,  // measure 97
2300
0000
3010
0002
,  // measure 98
0000
0000
0000
0000
,  // measure 99
0000
0000
0000
0000
,  // measure 100
0000
0000
0000
0000
,  // measure 101
0000
0000
0000
0000
,  // measure 102
0000
0000
0000
0000
,  // measure 103
0000
0000
0000
0000
,  // measure 104
0000
0000
0000
0000
,  // measure 105
0000
0000
0000
0000
,  // measure 106
0003
0000
0000
0000
;

//---------------dance-single - ----------------
#NOTES:
     dance-single:
     :
     Easy:
     8:
     0.291,0.372,0.134,0.110,0.000: // measure 1
0000
0000
0000
0000
,  // measure 2
0000
0000
0000
0000
,  // measure 3
0000
0000
0000
0000
,  // measure 4
0000
0000
0000
0000
,  // measure 5
0000
0000
0000
0000
,  // measure 6
0000
0000
0000
0000
,  // measure 7
0000
0000
0000
0000
,  // measure 8
0000
0000
0000
0000
,  // measure 9
1000
0000
1000
1010
,  // measure 10
0001
0000
0001
0011
,  // measure 11
1000
0000
1000
1100
,  // measure 12
0001
0100
0010
1000
,  // measure 13
M100
0000
0010
0000
,  // measure 14
0100
0000
1001
0000
,  // measure 15
0001
0000
0100
0000
,  // measure 16
0010
0000
1010
0000
,  // measure 17
1000
0000
0100
0000
,  // measure 18
0010
0000
0011
0000
,  // measure 19
0001
0000
0100
0000
,  // measure 20
0010
0000
1010
0000
,  // measure 21
1000
0000
0100
0000
,  // measure 22
0010
0000
1001
0000
,  // measure 23
0001
0000
0100
0000
,  // measure 24
0010
0000
1001
0000
,  // measure 25
1000
0000
0100
0000
,  // measure 26
0010
0000
1001
0000
,  // measure 27
0002
0000
0100
1000
,  // measure 28
M013
0000
0001
0000
,  // measure 29
0100
0000
0100
0001
,  // measure 30
0010
0000
0100
0000
,  // measure 31
1000
0000
1000
0100
,  // measure 32
0010
0000
0001
0000
,  // measure 33
0100
0000
0100
0001
,  // measure 34
0100
0000
0001
0000
,  // measure 35
1000
0000
0100
0010
,  // measure 36
0001
0000
1000
0000
,  // measure 37
0001
0000
0100
0010
,  // measure 38
1000
0000
0100
0000
,  // measure 39
1000
0000
0010
0100
,  // measure 40
0001
0000
1000
0000
,  // measure 41
0100
0000
0010
0001
,  // measure 42
1000
0010
1000
0010
,  // measure 43
0100
0001
0100
0001
,  // measure 44
1000
0000
0100
0000
,  // measure 45
0020
0000
0001
0000
,  // measure 46
0130
0000
1000
0000
,  // measure 47
0020
0000
1000
0000
,  // measure 48
0130
0000
0001
0000
,  // measure 49
0020
0000
0100
0000
,  // measure 50
0031
0010
0100
0000
,  // measure 51
0100
0010
0001
0000
,  // measure 52
1000
0000
0010
0000
,  // measure 53
0200
0000
1000
0000
,  // measure 54
0310
0000
0100
0000
,  // measure 55
0002
0000
0010
0000
,  // measure 56
0103
0000
0001
0000
,  // measure 57
0020
0000
1000
0000
,  // measure 58
0130
1000
0010
0000
,  // measure 59
0010
1000
0001
0000
,  // measure 60
0101
0001
1000
0000
,  // measure 61
1000
0001
0100
0000
,  // measure 62
0100
0010
1000
0000
,  // measure 63
1000
0010
0100
0000
,  // measure 64
0010
1000
0100
0000
,  // measure 65
0100
1000
0010
0000
,  // measure 66
0010
1000
0001
0000
,  // measure 67
0001
1000
0010
0000
,  // measure 68
1010
0000
1000
0000
0002
0000
0000
0013
,  // measure 69
0000
0010
0100
0000
,  // measure 70
1100
0000
1000
0000
0002
0000
0000
0100
,  // measure 71
0003
0100
0010
0000
,  // measure 72
0200
0000
0000
0000
,  // measure 73
0001
0010
1000
0010
,  // measure 74
0301
0000
0000
1000
0000
0000
0100
0000
,  // measure 75
0000
0000
0110
0000
,  // measure 76
1000
0000
0000
0001
0000
0000
0100
0000
,  // measure 77
0000
0000
0110
0000
,  // measure 78
0001
0000
0000
1000
0000
0000
0100
0000
,  // measure 79
0000
0000
0110
0000
,  // measure 80
1000
0000
0000
0001
0000
0000
0100
0000
,  // measure 81
0000
0000
0110
0000
,  // measure 82
0001
0010
0001
0000
,  // measure 83
0010
1000
0010
0000
,  // measure 84
1000
0100
1000
0000
,  // measure 85
0100
0001
0100
0000
,  // measure 86
0001
1000
0100
0000
,  // measure 87
1000
0001
0100
0000
,  // measure 88
0010
1000
0001
1000
,  // measure 89
0010
0100
0010
0000
,  // measure 90
0010
1000
0010
0000
,  // measure 91
1000
0100
1000
0000
,  // measure 92
0100
0001
0100
0000
,  // measure 93
0001
0010
0001
0000
,  // measure 94
0010
1000
0001
0000
,  // measure 95
0010
0001
1000
0000
,  // measure 96
0020
0000
2030
0000
,  // measure 97
3200
0000
0301
2000
,  // measure 98
0000
0000
0000
0000
,  // measure 99
0000
0000
0000
0000
,  // measure 100
0000
0000
0000
0000
,  // measure 101
0000
0000
0000
0000
,  // measure 102
0000
0000
0000
0000
,  // measure 103
0000
0000
0000
0000
,  // measure 104
0000
0000
0000
0000
,  // measure 105
0000
0000
0000
0000
,  // measure 106
3000
0000
0000
0000
;
