#TITLE:EXTREME TUNNEL DESTROYER;
#SUBTITLE:;
#ARTIST:KARUT;
#TITLETRANSLIT:;
#SUBTITLETRANSLIT:;
#ARTISTTRANSLIT:;
#GENRE:;
#CREDIT:;
#BANNER:EXTREME TUNNEL DESTROYER.png;
#BACKGROUND:EXTREME TUNNEL DESTROYER-BG.png;
#LYRICSPATH:;
#CDTITLE:cdtitle.png;
#MUSIC:EXTREME TUNNEL DESTROYER.ogg;
#OFFSET:0.000000;
#SAMPLESTART:102.194000;
#SAMPLELENGTH:12.387000;
#SELECTABLE:YES;
#BPMS:0.000000=155.000000
;
#STOPS:
;
#BGCHANGES:;
#KEYSOUNDS:;
#ATTACKS:;

//---------------dance-single - ----------------
#NOTES:
     dance-single:
     :
     Beginner:
     3:
     0.140925,0.318469,0.077675,0.248561,0.000000,127.000000,117.000000,10.000000,32.000000,0.000000,0.000000,0.140925,0.318469,0.077675,0.248561,0.000000,127.000000,117.000000,10.000000,32.000000,0.000000,0.000000:
// measure 0
0000
0000
0000
0000
,  // measure 1
0000
0000
0000
0000
,  // measure 2
0000
0000
0000
0000
,  // measure 3
0000
0000
0000
0000
,  // measure 4
0000
0000
0000
0000
,  // measure 5
0000
0000
0000
0000
,  // measure 6
0001
0000
0000
0000
,  // measure 7
1000
0000
0000
0000
,  // measure 8
0001
0000
0000
0000
,  // measure 9
0100
0000
0000
0000
,  // measure 10
0010
0000
0000
0000
,  // measure 11
1000
0000
0000
0000
,  // measure 12
0001
0000
0000
0000
,  // measure 13
1000
0000
0000
0000
,  // measure 14
0200
0000
0000
0000
,  // measure 15
0000
0000
0000
0000
,  // measure 16
0020
0000
0000
0000
,  // measure 17
0330
0000
0000
0000
,  // measure 18
0001
0100
0000
0100
,  // measure 19
0000
0010
0000
0010
,  // measure 20
0000
1000
0000
1000
,  // measure 21
0000
0001
0000
0001
,  // measure 22
0010
0100
0000
0100
,  // measure 23
0000
1000
0000
1000
,  // measure 24
0000
0010
0000
0010
,  // measure 25
0000
0100
0200
0000
,  // measure 26
0301
1000
0000
1000
,  // measure 27
0000
0100
0000
0100
,  // measure 28
0000
0010
0000
0010
,  // measure 29
0000
0001
0000
0001
,  // measure 30
1000
0010
0000
0010
,  // measure 31
0000
0100
0000
0100
,  // measure 32
0000
0001
0000
0001
,  // measure 33
2000
0000
0000
0000
,  // measure 34
3001
0000
0000
0000
,  // measure 35
0001
0000
0000
0000
,  // measure 36
0010
0000
0000
0000
,  // measure 37
0010
0000
0000
0000
,  // measure 38
0100
0000
0000
0000
,  // measure 39
0100
0000
0000
0000
,  // measure 40
1000
0000
0000
0000
,  // measure 41
2000
0000
0000
0000
,  // measure 42
3001
0000
0000
0000
,  // measure 43
0001
0000
0000
0000
,  // measure 44
0100
0000
0000
0000
,  // measure 45
0100
0000
0000
0000
,  // measure 46
0010
0000
0000
0000
,  // measure 47
0010
0000
0000
0000
,  // measure 48
2000
0000
0000
0000
,  // measure 49
0002
0000
3003
0000
,  // measure 50
2000
0000
3000
0000
,  // measure 51
0200
0000
0300
0000
,  // measure 52
0020
0000
0030
0000
,  // measure 53
0002
0000
0003
0000
,  // measure 54
0200
0000
0300
0000
,  // measure 55
0020
0000
0030
0000
,  // measure 56
2000
0000
3000
0000
,  // measure 57
0002
0000
0003
0000
,  // measure 58
2002
0000
3003
0000
,  // measure 59
0220
0000
0330
0000
,  // measure 60
2002
0000
3003
0000
,  // measure 61
0220
0000
0330
0000
,  // measure 62
1001
0000
1001
0000
,  // measure 63
0110
0000
0110
0000
,  // measure 64
2002
0000
0000
0000
,  // measure 65
3003
0000
0000
0000
,  // measure 66
0001
0000
0100
0100
,  // measure 67
0010
0000
1000
0000
,  // measure 68
0001
0000
1000
1000
,  // measure 69
0100
0000
0020
0000
,  // measure 70
0031
0000
0100
0100
,  // measure 71
0010
0000
1000
0000
,  // measure 72
0001
0000
1000
1000
,  // measure 73
0100
0000
0020
0000
,  // measure 74
0031
0000
1000
1000
,  // measure 75
0010
0000
0100
0000
,  // measure 76
0001
0000
0010
0010
,  // measure 77
0100
0000
2000
0000
,  // measure 78
3001
0000
1000
1000
,  // measure 79
0010
0000
0100
0100
,  // measure 80
0002
0000
2000
0000
,  // measure 81
3003
0000
0220
0000
,  // measure 82
0330
0000
0000
0000
;

//---------------dance-single - ----------------
#NOTES:
     dance-single:
     :
     Easy:
     6:
     0.285179,0.318469,0.100978,0.334004,0.000000,257.000000,244.000000,13.000000,43.000000,0.000000,0.000000,0.285179,0.318469,0.100978,0.334004,0.000000,257.000000,244.000000,13.000000,43.000000,0.000000,0.000000:
0000
0000
0000
0000
,
0000
0000
0000
0000
,
0000
0000
0000
0000
,
0000
0000
0000
0000
,
0000
0000
0000
0000
,
0000
0000
0000
0000
,
1000
0000
1000
0100
,
0010
0000
0001
0100
,
0010
0000
1000
0100
,
0010
0000
0002
0000
,
1003
0000
0010
0100
,
0001
0000
0010
0100
,
1000
0000
0010
0100
,
0001
0000
2000
0000
,
3001
0002
0103
0200
,
0310
0020
1030
2000
,
3001
0010
0100
1000
,
2002
0000
0000
3003
,
0001
0010
0100
1000
,
0010
0100
0001
0100
,
0001
0010
0100
1000
,
0010
0100
0002
0000
,
1003
0100
0010
0001
,
0100
0010
0100
0001
,
1000
0100
0010
0001
,
0100
0010
0100
0002
,
1003
0010
1000
0001
,
0010
0100
1000
0010
,
0100
0001
0100
0010
,
1000
0100
0020
0000
,
0031
0100
0001
1000
,
0100
0010
0001
0100
,
0010
1000
0010
0100
,
0001
0010
0200
0000
,
1300
0000
0000
1000
0000
0000
0010
0000
,
0100
0100
0001
1000
,
0001
0000
0000
0001
0000
0000
0010
0000
,
0100
0100
2000
0000
,
3010
0000
0000
0010
0000
0000
0100
0000
,
0001
0001
1000
0100
,
0010
0000
0000
0010
0000
0000
0100
0000
,
1000
2000
0000
0000
,
3001
0000
0000
0001
0000
0000
0100
0000
,
0010
0010
1000
0001
,
1000
0000
0000
1000
0000
0000
0100
0000
,
0010
0010
0002
0000
,
0103
0000
0110
0000
,
0001
0000
1001
0000
,
1000
0100
0010
0001
,
2002
0000
0000
3003
,
1000
0000
0000
0010
0000
0000
0100
0000
,
0100
0001
1000
0100
,
0010
0000
0000
0001
0000
0000
0100
0000
,
0100
0010
2000
0001
,
3001
0000
0000
0010
0000
0000
0100
0000
,
0100
1000
0001
0100
,
0010
0000
0000
1000
0000
0000
0100
0000
,
0200
0000
2300
3000
,
2002
0000
0000
3003
,
0220
0000
0000
0330
,
2002
0000
0000
3003
,
0220
0000
0000
0330
,
2002
3003
0220
0330
,
2002
3003
0220
0330
,
0001
0010
0100
1000
,
2002
0000
0000
3003
,
0001
0010
0100
1000
,
0010
0100
0001
1000
,
0001
0100
0010
1000
,
0100
0010
0002
1000
,
1003
0100
0010
0001
,
0100
0010
1000
0001
,
1000
0010
0100
0001
,
0010
0100
2000
0001
,
3001
0010
0100
1000
,
0010
0100
0001
1000
,
0001
0100
0010
1000
,
0100
0010
0002
1000
,
1003
0100
0010
0001
,
0100
0010
1000
0001
,
1000
0010
1000
0001
,
0020
0000
0200
0000
,
0330
0000
0000
0000
;

//---------------dance-single - ----------------
#NOTES:
     dance-single:
     :
     Medium:
     10:
     0.440530,0.477703,0.054373,0.310701,0.163118,397.000000,390.000000,7.000000,40.000000,0.000000,0.000000,0.440530,0.477703,0.054373,0.310701,0.163118,397.000000,390.000000,7.000000,40.000000,0.000000,0.000000:
0000
0000
0000
0000
,
0000
0000
0000
0000
,
0000
0000
0000
0000
,
0000
0000
0000
0000
,
0000
0000
0000
0000
,
0000
0000
0000
0000
,
0001
0000
0001
0100
0010
0000
1000
0001
,
1000
0000
1000
0100
0010
0000
0001
1000
,
0001
0000
0001
0100
0010
0000
1000
0001
,
1000
0000
1000
0100
0010
0000
0002
0000
,
1003
0000
1000
0010
0100
0000
0001
1000
,
0001
0000
0001
0010
0100
0000
1000
0001
,
1000
0000
1000
0010
0100
0000
0001
1000
,
0001
0000
0001
0010
0200
0000
0000
0000
,
1300
0000
0001
0100
0001
0000
1000
0100
,
1000
0000
0001
0100
0001
0000
1000
0100
,
1000
0001
1000
0001
0100
0010
0100
0010
,
2000
0000
0000
0000
0000
3000
0000
0000
,
0001
1000
0010
0000
1000
0001
0010
0000
,
0001
1000
0010
0000
1000
0001
0010
0100
,
1000
0001
0100
0000
0001
1000
0100
0000
,
1000
0001
0100
0000
0002
0000
2003
0000
,
3001
1000
0100
0000
1000
0001
0100
0000
,
0001
1000
0100
0000
1000
0001
0100
0010
,
1000
0001
0010
0000
0001
1000
0010
0000
,
1000
0001
0010
0000
0002
0000
2003
0000
,
3001
0010
0100
0000
1000
0010
0100
0000
,
0001
0010
0100
0000
1000
0010
0100
0001
,
1000
0100
0010
0000
0001
0100
0010
0000
,
1000
0100
0010
0000
0001
0100
0002
0000
,
1003
0010
0100
0000
0001
0010
0100
0000
,
1000
0010
0100
0000
0001
0010
0100
1000
,
0001
0100
0010
0000
1000
0100
0010
0000
,
0002
0000
0000
1003
,
1000
0000
0000
0001
0000
0000
0100
0000
0000
0010
0000
0000
2000
0000
0000
0000
,
3001
0010
0100
1000
,
0001
0000
0000
1000
0000
0000
0100
0000
0000
0010
0000
0000
0002
0000
0000
0000
,
1003
0010
0100
0002
,
1003
0000
0000
0001
0000
0000
0100
0000
0000
0010
0000
0000
2000
0000
0000
0000
,
3001
0010
0100
1000
,
0001
0000
0000
1000
0000
0000
0100
0000
0000
0010
0000
0000
0002
0000
0000
0000
,
1003
0020
1030
0002
,
1003
0000
0000
0100
0000
0000
0010
0000
0000
0001
0000
0000
0200
0000
0000
0000
,
0310
1000
0001
0010
,
0001
0000
0000
0100
0000
0000
0010
0000
0000
1000
0000
0000
0200
0000
0000
0000
,
0310
0001
1000
0020
,
1030
0000
0000
0001
0000
0000
0010
0000
0010
0000
0000
0001
0000
0000
1000
0000
,
1000
0000
0000
0010
0000
0000
0100
0000
0100
0000
0000
0001
0000
0000
0010
0000
,
0010
0011
0001
1001
,
2000
0000
0000
0000
,
3010
0000
0000
0100
0000
0000
1000
0000
0000
0100
0000
0000
0020
0000
0000
0000
,
1030
0000
0001
1000
0001
0000
0010
0100
,
0010
0000
0000
0100
0000
0000
0001
0000
0000
0100
0000
0000
0020
0000
0000
0000
,
0031
0000
1000
0001
1000
0000
0020
0000
,
0130
0000
0000
0010
0000
0000
0001
0000
0000
0010
0000
0000
0200
0000
0000
0000
,
0301
0000
1000
0001
1000
0000
0100
0010
,
0100
0000
0000
0010
0000
0000
1000
0000
0000
0010
0000
0000
0200
0000
0000
0000
,
1300
0000
0001
1000
0002
0000
1003
0000
,
2002
0000
0000
3003
,
0220
0000
0000
0330
,
2002
0000
0000
3003
,
0220
0000
0000
0330
,
1001
0000
0000
0001
0000
0000
0100
0000
0010
0000
0000
1000
0000
0000
0100
0000
,
0010
0000
0000
0001
0000
0000
0100
0000
0010
0000
0000
1000
0000
0000
0100
0000
,
0010
0001
0010
0001
0100
0001
0100
0001
,
2000
0000
0000
0000
,
3001
0000
0000
0100
0000
0000
0010
0000
0000
0001
0000
0000
0010
0000
0100
0000
,
0010
0000
1000
0001
0010
0000
0100
1000
,
0001
0000
0000
0010
0000
0000
0100
0000
0000
0001
0000
0000
0100
0000
0010
0000
,
0100
0000
1000
0001
0100
0000
0020
0000
,
1030
0000
0000
0010
0000
0000
0100
0000
0000
1000
0000
0000
0100
0000
0010
0000
,
0100
0000
0001
1000
0100
0000
0010
0001
,
1000
0000
0000
0100
0000
0000
0010
0000
0000
1000
0000
0000
0010
0000
0100
0000
,
0010
0000
0001
1000
0020
0000
0130
0001
,
1000
0000
0000
0100
0000
0000
0010
0000
0000
1000
0000
0000
0010
0000
0100
0000
,
0010
0000
0001
1000
0010
0000
0100
0001
,
1000
0000
0000
0010
0000
0000
0100
0000
0000
1000
0000
0000
0100
0000
0010
0000
,
0100
0000
0001
1000
0100
0000
0020
0000
,
0031
0000
0000
0100
0000
0000
0010
0000
0000
0001
0000
0000
0010
0000
0100
0000
,
0010
0000
1000
0001
0010
0000
0100
1000
,
0001
1000
0001
1000
0010
0100
0010
0100
,
0002
0000
2000
0000
,
3003
0000
0000
0000
;

//---------------dance-single - ----------------
#NOTES:
     dance-single:
     :
     Hard:
     13:
     0.561482,0.573244,0.163118,0.310701,0.225258,506.000000,485.000000,21.000000,40.000000,0.000000,0.000000,0.561482,0.573244,0.163118,0.310701,0.225258,506.000000,485.000000,21.000000,40.000000,0.000000,0.000000:
0000
0000
0000
0000
,
0000
0000
0000
0000
,
0000
0000
0000
0000
,
0000
0000
0000
0000
,
0000
0000
0000
0000
,
0000
0000
0000
0000
,
1000
0000
0010
0000
0100
0000
0001
0000
1000
0001
0000
0000
0010
0000
0001
0000
,
1000
0000
0100
0000
0010
0000
0001
0000
1000
0001
0000
0000
0100
0000
0010
0000
,
1000
0000
0010
0000
0100
0000
0001
0000
1000
0001
0000
0000
0010
0000
0001
0000
,
1000
0000
0100
0000
0010
0000
0001
0000
1000
0001
0000
0100
0010
0000
0100
0000
,
0001
0000
0010
0000
0100
0000
1000
0000
0001
1000
0000
0000
0010
0000
1000
0000
,
0001
0000
0100
0000
0010
0000
1000
0000
0001
1000
0000
0000
0100
0000
0010
0000
,
0001
0000
0010
0000
0100
0000
1000
0000
0001
1000
0000
0000
0010
0000
1000
0000
,
0001
0000
0100
0000
0010
0000
1000
0000
0001
1000
0000
1000
0000
0001
0010
0000
,
0100
1000
0010
0010
0100
0001
0010
0010
,
0100
1000
0010
0010
0100
0001
0010
0010
,
0100
1000
0010
0100
0001
0001
2000
0000
,
3002
0000
0000
0000
0000
0003
0000
0000
,
0001
0010
0100
1000
0010
1000
0001
0010
,
0100
1000
0010
1000
0001
0010
0100
1000
,
0001
0100
0010
1000
0100
1000
0001
0100
,
0010
1000
0100
1000
0001
0100
0002
0000
,
1003
0100
0010
0001
0100
0001
1000
0100
,
0010
0001
0100
0001
1000
0100
0010
0001
,
1000
0010
0100
0001
0010
0001
1000
0010
,
0100
0001
0010
0001
1000
0010
2000
0000
,
3001
0010
0100
0010
0001
0100
0010
0100
,
0001
0010
0100
0010
0001
0100
0010
1000
,
0100
0010
0100
1000
0010
0100
0010
1000
,
0100
0010
0100
1000
0010
0100
0002
0000
,
1003
0100
0010
0100
1000
0010
0100
0010
,
1000
0100
0010
0100
1000
0010
0100
0001
,
0010
0100
0010
0001
0100
0010
0100
0001
,
0020
0000
0000
0100
0000
0100
0000
0000
0000
0000
0130
0000
2000
0000
0000
0000
,
3001
0000
0000
0100
0000
0000
0010
0000
0000
0100
0000
0000
0001
0000
0010
0000
,
0100
1100
1000
1001
,
0001
0000
0000
0010
0000
0000
0100
0000
0000
0010
0000
0000
0001
0000
0100
0000
,
0010
1010
1000
0002
,
1003
0000
0000
0100
0000
0000
0010
0000
0000
0100
0000
0000
1000
0000
0010
0000
,
0100
0101
0001
1001
,
1000
0000
0000
0010
0000
0000
0100
0000
0000
0010
0000
0000
1000
0000
0100
0000
,
0020
0032
0203
0320
,
1030
0000
0000
0001
1000
0000
0002
0000
0000
0023
0000
0000
0130
0000
1000
0000
,
0002
0000
0103
0010
2000
0000
3001
0001
,
1000
0000
0000
0001
1000
0000
0002
0000
0000
0203
0000
0000
0310
0000
1000
0000
,
0002
0000
0013
0100
2000
0000
3001
0001
,
0100
0000
0000
0010
1000
0000
0001
0000
1000
0000
0000
0100
1000
0000
0001
0000
,
1000
0000
0000
0010
1000
0000
0001
0000
1000
0000
0000
0100
1000
0000
0001
0000
,
1000
1001
0101
1001
,
2200
0000
0300
0000
,
3001
0000
0000
0100
0000
0000
0101
0000
0000
0001
0000
0000
0010
0000
0100
0000
,
1000
0000
0001
0100
0010
0000
1000
0001
,
1000
0000
0000
0100
0000
0000
1100
0000
0000
1000
0000
0000
0010
0000
0100
0000
,
0001
0000
1000
0100
0010
0000
0002
0000
,
1003
0000
0000
0010
0000
0000
1010
0000
0000
1000
0000
0000
0100
0000
0010
0000
,
0001
0000
1000
0010
0100
0000
0001
1000
,
0001
0000
0000
0010
0000
0000
0011
0000
0000
0001
0000
0000
0100
0000
0010
0000
,
1000
0000
0001
0010
0200
0000
1300
0000
,
2002
0000
0000
0000
0000
0000
0000
3003
,
0022
0000
0000
0000
0000
0000
0000
0033
,
0220
0000
0000
0000
0000
0000
0000
0330
,
2200
0000
0000
0000
0000
0000
0000
3300
,
1001
0000
0000
1000
0000
0000
0001
0000
0101
0000
0000
0100
0000
0000
0010
0000
,
1010
0000
0000
1000
0000
0000
0100
0000
0110
0000
0000
0010
0000
0000
0001
0000
,
1000
0010
0100
0001
0010
0100
1000
0010
,
0200
0000
0000
0000
,
0301
0000
0000
0100
0010
0000
1000
0000
0010
0100
0000
0000
0001
0000
1000
0000
,
0100
0010
0001
0100
0010
0000
1000
0001
,
1000
0000
0000
0100
0010
0000
0001
0000
0010
0100
0000
0000
1000
0000
0001
0000
,
0100
0010
1000
0100
0010
0000
0002
0000
,
1003
0000
0000
0010
0100
0000
0001
0000
0100
0010
0000
0000
1000
0000
0001
0000
,
0010
0100
1000
0010
0100
0000
0001
1000
,
0001
0000
0000
0010
0100
0000
1000
0000
0100
0010
0000
0000
0001
0000
1000
0000
,
0010
0100
0001
0010
0200
0000
0310
0001
,
1000
0000
0000
0100
0010
0000
0001
0000
0010
0100
0000
0000
1000
0000
0001
0000
,
0100
0010
1000
0100
0010
0000
0001
1000
,
0001
0000
0000
0100
0010
0000
1000
0000
0010
0100
0000
0000
0001
0000
1000
0000
,
0100
0010
0001
0100
0010
0000
2000
0000
,
3001
0000
0000
0100
0010
0000
1000
0000
0010
0100
0000
0000
0001
0000
1000
0000
,
0100
0010
0001
0100
0010
0000
1000
0001
,
1000
0000
1000
0000
0010
0000
0010
0000
0100
0001
0100
0001
2000
0000
0000
0000
,
0002
0000
0000
0000
0000
3000
0000
0000
0023
0000
0000
0000
0200
0000
0000
0000
,
0330
0000
0000
0000
;

//---------------dance-single - ----------------
#NOTES:
     dance-single:
     :
     Challenge:
     16:
     0.770095,0.862487,0.132048,0.341771,0.796172,694.000000,677.000000,17.000000,44.000000,0.000000,0.000000,0.770095,0.862487,0.132048,0.341771,0.796172,694.000000,677.000000,17.000000,44.000000,0.000000,0.000000:
0000
0000
0000
0000
,
0000
0000
0000
0000
,
0000
0000
0000
0000
,
0000
0000
0000
0000
,
0000
0000
0000
0000
,
0000
0000
0000
0000
,
1000
0000
0010
0000
0100
0001
1000
0001
0000
0010
0000
0010
0100
0000
0001
0000
,
0100
0000
1000
0000
0100
1000
0001
1000
0000
0010
0000
0010
0100
0000
1000
0000
,
0100
0000
0001
0000
0100
0001
1000
0001
0000
0010
0000
0010
0100
0000
0001
0000
,
0100
0000
1000
0000
0100
1000
0001
1000
0000
0010
0000
0000
0110
0000
0100
0000
,
0001
0000
0010
0000
0100
1000
0001
1000
0000
0010
0000
0010
0100
0000
1000
0000
,
0100
0000
0001
0000
0100
0001
1000
0001
0000
0010
0000
0010
0100
0000
0001
0000
,
0100
0000
1000
0000
0100
1000
0001
1000
0000
0010
0000
0010
0100
0000
1000
0000
,
0100
0000
0001
0000
0100
0001
1000
0001
0000
0010
0000
0010
0000
0100
1000
0000
,
0001
0000
0100
0000
0010
1000
0001
1000
0000
1000
0100
0000
0010
0001
1000
0001
,
0000
0001
0100
0000
0010
1000
0001
1000
0000
1000
0100
0000
0010
0001
1000
0001
,
0100
0000
0100
0000
0010
0000
0010
0000
1000
0010
0100
0001
0010
0001
0100
0010
,
2000
0000
0000
0000
,
3010
0100
0101
0001
0010
0100
0110
0010
,
0001
0100
0101
0001
0010
0100
0110
0010
,
0100
1000
1010
0010
0100
0001
0011
0010
,
0100
0000
1000
0000
1010
0000
0010
0000
0100
0000
0001
1000
0002
0000
0000
0000
,
0013
0100
1100
1000
0010
0100
0110
0010
,
1000
0100
1100
1000
0010
0100
0110
0010
,
0100
0001
0011
0010
0100
1000
1010
0010
,
0100
0000
0001
0000
0011
0000
0010
0000
0100
0000
1000
0001
2000
0000
0000
0000
,
3010
0000
0000
0000
0100
0000
0001
0000
0200
0300
0000
0000
0001
0000
0000
0000
0010
0000
0000
0000
0100
0000
1000
0000
0200
0300
0000
0000
1000
0000
0000
0000
,
0010
0000
0000
0000
0100
0000
0001
0000
0200
0300
0000
0000
0001
0000
0000
0000
0010
0000
0000
0000
0100
0000
1000
0000
0200
0300
0000
0000
1000
0000
0000
0000
,
0001
0000
0000
0000
0100
0000
0010
0000
0200
0300
0000
0000
0001
0000
0000
0000
1000
0000
0000
0000
0100
0000
0010
0000
0200
0300
0000
0000
1000
0000
0000
0000
,
0001
0000
0000
0000
0100
0000
0010
0000
0200
0300
0000
0000
0001
0000
0000
0000
1000
0000
0000
0000
0001
0000
0000
0000
0020
0000
0000
0000
0000
0000
0000
0000
,
0130
0000
0000
0000
1000
0000
0010
0000
2000
3000
0000
0000
0010
0000
0000
0000
0100
0000
0000
0000
0001
0000
0010
0000
0002
0003
0000
0000
0010
0000
0000
0000
,
0100
0000
0000
0000
1000
0000
0010
0000
2000
3000
0000
0000
0010
0000
0000
0000
0100
0000
0000
0000
0001
0000
0010
0000
0002
0003
0000
0000
0010
0000
0000
0000
,
0100
0000
0000
0000
1000
0000
0001
0000
2000
3000
0000
0000
0010
0000
0000
0000
0100
0000
0000
0000
0001
0000
1000
0000
0002
0003
0000
0000
0010
0000
0000
0000
,
0200
0000
0000
1000
0000
1000
0000
0000
0000
0000
0310
0000
0002
0000
0000
0000
,
1003
0000
0000
1000
0001
0000
0100
0000
0001
0010
0000
0000
0100
0000
1000
0000
,
0010
0100
0001
0010
0200
0000
1300
1000
,
0001
0000
0000
0001
1000
0000
0100
0000
1000
0010
0000
0000
0100
0000
0001
0000
,
0010
0100
1000
0010
0200
0000
0302
0000
,
1003
0000
0000
1000
0001
0000
0100
0000
0001
0010
0000
0000
0100
0000
1000
0000
,
0010
0100
0001
0010
0200
0000
1300
1000
,
0001
0000
0000
0001
1000
0000
0100
0000
1000
0010
0000
0000
0100
0000
0001
0000
,
0010
0100
2000
0000
3020
0230
0302
0000
,
1003
0000
0000
0100
0010
0000
0001
0000
0100
0010
0000
0000
1000
0000
0001
0000
,
1000
0000
0100
0000
0010
0001
0010
0001
0000
0200
0000
0000
0310
0000
0010
0000
,
1000
0000
0000
0010
0100
0000
0001
0000
0010
0100
0000
0000
1000
0000
0001
0000
,
1000
0000
0010
0000
0100
0001
0100
0001
0000
0020
0000
0000
0230
0000
0000
0000
,
1300
0000
0000
0100
0010
0000
0001
0000
0100
0000
0000
0001
0010
0000
0100
0000
,
1000
0000
0000
0010
0100
0000
0001
0000
0010
0000
0000
0100
1000
0000
0010
0000
,
0100
0001
0010
0100
0010
0001
0100
0010
,
0200
0000
0000
0000
0000
0000
0000
0300
,
1001
0000
0000
1000
0010
0000
0100
0001
0000
1000
0010
0000
0100
0000
0100
0000
,
0001
0000
1000
0000
0100
0010
0100
0010
0000
0200
0000
0000
0301
0000
0100
0000
,
1000
0000
0001
1000
0000
0010
0100
0000
0001
1000
0000
0000
0010
0000
0010
0000
,
0100
0000
0001
0000
0010
0100
0010
0100
0000
2000
0000
0000
3020
0000
0000
0000
,
1030
0000
0000
0001
0010
0000
0100
1000
0000
0001
0010
0000
0100
0000
0100
0000
,
1000
0000
0001
0000
0100
0010
0100
0010
0000
0200
0000
0000
1300
0000
0100
0000
,
0001
0000
1000
0001
0000
0010
0100
0000
1000
0001
0000
0000
0010
0000
0010
0000
,
0100
0000
1000
0000
0010
0100
0010
0100
0001
1000
0001
1000
0001
0000
0000
0001
,
0020
0000
0000
0100
0000
0000
1000
0000
0000
0100
0000
0000
0031
0000
1000
0000
,
0020
0000
0000
0100
0000
0000
0001
0000
0000
0100
0000
0000
1030
0000
0001
0000
,
0020
0000
0000
0100
0000
0000
1000
0000
0000
0100
0000
0000
0031
0000
1000
0000
,
0020
0000
0000
0100
0000
0000
0001
0000
0000
0100
0000
0000
1030
0000
0001
0000
,
0011
0000
0000
0010
0001
0000
0010
0100
1000
0000
0000
0010
1000
0000
0010
0100
,
0001
0000
0000
0010
0001
0000
0010
0100
1000
0000
0000
0010
1000
0000
0010
0100
,
0001
1000
0001
1000
0001
1000
0001
1000
0001
1000
0001
1000
0001
1000
0001
1000
,
0200
0000
0000
0000
,
1300
0000
0100
0010
0001
0000
0100
0000
0010
0100
0001
0000
1000
0000
0100
0000
,
1000
0001
0100
0000
0010
0100
0010
1000
0000
1000
0100
0000
0010
0000
1000
0000
,
0010
0000
0100
1000
0010
0000
0100
0000
0010
0100
0001
0000
1000
0000
0100
0000
,
0010
0001
1000
0000
0010
0100
0001
1000
0000
2000
0000
0000
3100
0010
0100
0010
,
0001
0000
0100
0010
1000
0000
0100
0000
0010
0100
1000
0000
0001
0000
0100
0000
,
0001
1000
0100
0000
0010
0100
0010
0001
0000
0001
0100
0000
0010
0000
0001
0000
,
0010
0000
0100
0001
0010
0000
0100
0000
0010
0100
1000
0000
0001
0000
0100
0000
,
0010
1000
0001
0000
0010
0100
1000
0001
0010
0100
0010
0100
0010
0000
0100
0010
,
0001
0000
0100
0010
1000
0000
0100
0000
0010
0100
1000
0000
0001
0000
0100
0000
,
0001
1000
0100
0000
0010
0100
0010
0001
0000
0001
0100
0000
0010
0000
0001
0000
,
0010
0000
0100
0001
0010
0000
0100
0000
0010
0100
1000
0000
0001
0000
0100
0000
,
0010
1000
0001
0000
0010
0100
1000
0001
0000
0002
0000
0000
0103
0010
0100
0010
,
1000
0000
0100
0010
0001
0000
0100
0000
0010
0100
0001
0000
1000
0000
0100
0000
,
1000
0001
0100
0000
0010
0100
0010
1000
0000
1000
0100
0000
0010
0000
1000
0000
,
0010
0000
0010
0000
0001
0000
0001
0000
0100
0010
0100
0001
1000
0100
0010
0001
,
0200
0000
0000
0000
0000
0000
0000
0000
0310
1000
0100
0010
0001
0100
0001
0020
,
0000
0030
0000
0000
;

//---------------dance-single - Old ESP----------------
#NOTES:
     dance-single:
     :
     Edit:
     15:
     0.724600,0.859211,0.256329,0.147583,0.671892,653.000000,620.000000,33.000000,19.000000,0.000000,0.000000,0.724600,0.859211,0.256329,0.147583,0.671892,653.000000,620.000000,33.000000,19.000000,0.000000,0.000000:
0000
0000
0000
0000
,
0000
0000
0000
0000
,
0000
0000
0000
0000
,
0000
0000
0000
0000
,
0000
0000
0000
0000
,
0000
0000
0000
0000
,
0001
0000
0100
0000
0010
0100
0010
0100
0000
0001
0000
1000
0100
0000
0010
0000
,
0001
0000
1000
0000
0100
1000
0100
1000
0000
0001
0000
1000
0010
0000
0100
0000
,
0001
0000
1000
0000
0010
1000
0010
1000
0000
0001
0000
1000
0100
0000
0010
0000
,
0001
0000
1000
0000
0100
1000
0100
1000
0000
0010
0000
0010
0100
0000
0001
0000
,
1000
0000
0100
0000
0010
0001
0010
0001
0000
1000
0000
1000
0010
0000
0001
0000
,
0010
0000
0100
0000
0010
1000
0010
1000
0000
0001
0000
0001
0010
0000
1000
0000
,
0010
0000
0100
0000
0010
0001
0010
0001
0000
1000
0000
1000
0010
0000
0001
0000
,
0010
0000
0100
0000
0010
1000
0010
1000
0000
0100
0000
0100
0000
0100
0010
0000
,
0001
0000
0100
0000
0010
1000
0010
1000
0000
1000
0100
0000
0010
0001
0010
0001
,
0000
0001
0100
0000
0010
1000
0010
1000
0000
1000
0100
0000
0010
0001
0010
0001
,
1000
0000
1010
0000
0010
0000
0110
0000
0100
0001
1000
0100
0010
0001
0100
0010
,
2000
0000
0000
0000
,
3001
0100
0010
0010
0100
0001
0010
0010
,
0100
0000
1000
0000
0010
0000
0010
0000
0100
0000
0001
0000
0010
0000
0010
0001
,
1000
0001
0100
0100
0010
1000
0100
0100
,
0010
0001
0100
0100
0010
1000
0200
0000
,
1300
0100
0010
0010
0100
1000
0010
0010
,
0100
0000
0001
0000
0010
0000
0010
0000
0100
0000
1000
0000
0010
0000
0010
1000
,
0001
1000
0100
0100
0010
0001
0100
0100
,
0010
1000
0100
0100
0010
0001
0200
0000
,
0301
0000
0011
1000
0010
0000
1010
0001
,
0010
0000
0011
1000
0010
0100
0110
0010
,
1000
0000
1100
0001
0100
0000
0101
1000
,
0100
0000
1100
0001
0100
0010
0110
0000
,
1001
0000
0011
1000
0010
0000
1010
0001
,
0010
0000
0011
1000
0010
0100
0110
0010
,
1000
0000
0001
0010
0100
0000
1000
0001
0100
0000
0010
1000
0001
0000
0010
0100
,
2000
0000
0000
0000
,
3001
0000
0000
0100
0000
0000
1000
0000
0000
0001
0000
0000
0010
0000
0100
0000
,
0001
0000
1000
0000
0100
0010
0000
0010
0000
1000
0000
0000
0010
0000
0001
0000
,
1000
0000
0000
0010
0000
0000
0001
0000
0000
1000
0000
0000
0100
0000
0010
0000
,
1000
0000
0001
0000
0010
0100
0010
0100
0000
0001
0000
0000
0200
0000
0000
0000
,
1300
0000
0000
0100
0000
0000
0001
0000
0000
1000
0000
0000
0010
0000
0100
0000
,
1000
0000
0001
0000
0100
0010
0000
0010
0000
0001
0000
0000
0010
0000
0100
0000
,
0001
0000
0000
0010
0000
0000
1000
0000
0000
0001
0000
0000
0100
0000
0010
0000
,
0002
1000
0000
0100
0000
1000
0000
0013
,
0011
0000
0000
0001
0100
0000
0010
0000
0100
0000
1000
0000
0100
0000
0010
0000
,
1000
0000
0001
0000
0010
0100
0010
0100
0000
0001
0000
0000
0100
0000
1000
0000
,
0001
0000
0000
1000
0010
0000
0100
0000
0010
0000
0001
0000
0010
0000
0100
0000
,
0001
0000
1000
0000
0100
0010
0100
0000
1000
0001
1000
0000
0020
0000
0000
0000
,
0130
0000
0000
0001
0010
0000
0100
0000
0001
0000
0000
0100
0010
0000
0001
0000
,
0100
0000
0000
0010
1000
0000
0100
0000
0001
0000
0000
0100
0010
0000
0001
0000
,
0100
0010
1010
1000
1001
0001
0011
0010
,
0210
0000
0000
0000
1000
1000
1300
0000
,
1010
0000
0000
1000
0020
0000
0001
0000
0000
0100
0000
0000
1030
0000
0001
0000
,
0100
0000
0010
0000
1000
0001
1000
0001
0000
0010
0000
0000
0100
0000
0100
0000
,
1000
0000
0000
1000
0200
0000
0001
0000
0000
0010
0000
0000
1300
0000
0001
0000
,
0010
0000
0100
0000
1000
0001
1000
0001
0000
0100
0000
0000
0010
0100
0010
0100
,
0001
0000
0000
0001
0020
0000
1000
0000
0000
0100
0000
0000
0031
0000
1000
0000
,
0100
0000
0010
0000
0001
1000
0001
1000
0000
0010
0000
0000
0100
0000
0100
0000
,
0001
0000
0000
0001
0200
0000
1000
0000
0000
0010
0000
0000
0301
0000
1000
0000
,
0010
0000
0100
0000
0001
1000
0001
1000
0100
0010
0100
0010
0001
0000
0000
0000
,
1200
0000
0000
1000
0000
0000
0010
0000
0000
1000
0000
0000
1300
0000
0010
0000
,
0201
0000
0000
0001
0000
0000
0010
0000
0000
0001
0000
0000
0301
0000
0010
0000
,
1200
0000
0000
1000
0000
0000
0010
0000
0000
1000
0000
0000
1300
0000
0010
0000
,
0201
0000
0000
0001
0000
0000
0010
0000
0000
0001
0000
0000
0301
0000
0010
0000
,
1100
0000
0000
1000
0000
0000
0010
0000
0101
0000
0000
0001
0000
0000
0010
0000
,
1100
0000
0000
1000
0000
0000
0010
0000
0101
0000
0000
0001
0000
0000
0010
0000
,
0100
1000
0100
1000
0100
0010
0100
0010
0001
0010
0001
0010
0001
1000
0001
1000
,
0020
0000
0000
0000
,
1030
0000
0000
0001
0010
0000
0100
0000
1000
0010
0000
0000
0100
0000
0100
0000
,
0001
0000
0010
0000
0100
1000
0100
0010
0000
0010
0001
0000
0100
0000
0101
0000
,
0001
0000
0000
1000
0010
0000
0100
0000
0001
0010
0000
0000
0100
0000
0100
0000
,
1000
0000
0010
0000
0100
0001
1000
0100
0000
0100
0010
0000
0001
0010
0001
0010
,
0100
0000
0000
1000
0010
0000
0100
0000
0001
0010
0000
0000
0100
0000
0100
0000
,
1000
0000
0010
0000
0100
0001
0100
0010
0000
0010
1000
0000
0001
0000
0011
0000
,
0010
0000
0000
0100
1000
0000
0010
0000
0100
0001
0000
0000
0010
0000
0010
0000
,
0001
0000
0010
0000
0100
1000
0001
1000
0010
0100
0010
0100
0002
0000
0000
0000
,
1003
0000
0000
0100
0010
0000
1000
0000
0010
0100
0000
0000
1000
0000
0001
0000
,
0010
0000
0100
0000
0001
0100
0010
0100
0000
0100
1000
0000
0010
0000
1010
0000
,
1000
0000
0000
0010
0100
0000
1000
0000
0100
0010
0000
0000
1000
0000
0001
0000
,
0100
0000
0010
0000
0001
0010
0100
0010
0000
0010
1000
0000
0001
1000
0001
1000
,
0001
0000
0000
0010
0100
0000
0001
0000
0100
0010
0000
0000
0001
0000
1000
0000
,
0100
0000
0010
0000
1000
0010
0100
0010
0000
0010
0001
0000
0100
0000
0101
0000
,
0001
0000
0001
0000
0100
0000
0100
0000
0010
0100
0010
1000
0100
0010
0001
0100
,
0020
0000
0000
0000
0000
0000
0000
0000
1030
0001
1000
0001
1000
0001
1000
0001
;
