#TITLE:Destination;
#SUBTITLE:Somewhere (Club Remix);
#ARTIST:AS-13;
#TITLETRANSLIT:;
#SUBTITLETRANSLIT:;
#ARTISTTRANSLIT:;
#GENRE:;
#CREDIT:;
#BANNER:destinationsomewhereclub-bn.png;
#BACKGROUND:destinationsomewhereclub-bg.png;
#LYRICSPATH:;
#CDTITLE:;
#MUSIC:Destination_Somewhere (Club Remix).ogg;
#OFFSET:0.000000;
#SAMPLESTART:41.136211;
#SAMPLELENGTH:11.020001;
#SELECTABLE:YES;
#BPMS:0.000000=175.000000
,32.000000=87.500000
,60.000000=175.000000
;
#STOPS:
;
#BGCHANGES:;
#KEYSOUNDS:;
#ATTACKS:;

//---------------dance-single - ----------------
#NOTES:
     dance-single:
     :
     Easy:
     8:
     0.430474,0.487578,0.430474,0.000000,0.000000,343.000000,294.000000,49.000000,0.000000,0.000000,0.000000,0.430474,0.487578,0.430474,0.000000,0.000000,343.000000,294.000000,49.000000,0.000000,0.000000,0.000000:
0000
0000
0000
0000
,
0000
0000
0000
0000
,
0000
0000
0000
0000
,
0000
0000
0000
0000
,
1000
0000
0010
0000
1000
0000
0000
0001
,
0000
0001
0000
0000
0010
0000
0001
0000
,
1000
0000
0000
0001
0000
0001
0000
0100
,
0000
1000
0100
0010
,
1001
0000
0001
0001
0100
0000
0000
0000
,
1000
0000
0100
0001
0010
0000
0000
0000
,
0001
0010
1000
0000
1000
0100
0001
0000
,
1000
1000
0001
0100
0010
0000
0000
0000
,
0100
0000
0010
0100
1000
0000
0000
0000
,
0001
0010
0100
0010
1000
0000
0000
0000
,
0001
0001
0010
0000
1000
1000
0010
0000
,
1001
0001
0100
0100
,
0001
1000
0100
0100
,
0010
0001
0100
0100
,
0010
1000
0100
0100
,
0010
0001
0100
0001
,
0010
1000
0100
1000
,
0010
0001
0100
0010
,
0000
1001
0000
0000
0010
0000
0100
0000
,
1001
0000
0001
0000
0100
0000
0001
1000
,
0000
0100
0000
0000
1000
0000
1001
0000
,
0010
0000
1000
0000
0001
0000
1000
0010
,
0000
0010
0000
1000
0010
0000
1001
0000
,
0100
0000
0001
0000
0100
0000
0001
1000
,
0000
0001
0000
0000
0010
0000
0010
0000
,
0001
0000
1001
0000
1000
0000
0100
1000
,
0000
1001
0010
1001
,
0100
0000
0010
0000
0100
0000
0001
1000
,
0000
0010
0000
0000
0110
0000
1001
0000
,
0001
0000
0100
0000
1000
0000
0100
0001
,
0000
0011
1001
0101
,
0010
0000
0100
0000
1000
0000
0100
0001
,
0000
0100
0000
0000
0010
0000
1001
0000
,
0100
0000
1001
0000
0010
0000
1000
0100
,
0000
0110
1001
0110
,
0001
1000
0001
0100
,
1000
0000
0100
0000
0001
0100
0010
0000
,
1000
0010
0001
0010
,
1000
0000
0100
0000
0010
0001
0100
0000
,
0010
0110
1000
0110
,
0001
0000
0100
0000
1000
0100
0010
0100
,
0010
1000
0010
0001
,
1000
0100
0010
0000
1000
0100
0001
0000
,
0110
0000
0100
0000
1000
0000
0001
1000
,
0100
1000
0001
0010
,
1001
0000
1010
0000
0010
0000
1000
0100
,
0000
1000
0100
0000
1000
0100
1000
0000
,
0010
0001
0010
1000
,
0010
0100
0000
0100
0010
0000
0110
0000
,
1000
0001
1000
0100
,
0010
0000
0100
0000
1000
0010
1000
0010
,
0100
0101
0000
1001
,
0000
1100
0000
1001
,
0100
1001
0000
1010
,
0000
0010
0100
1010
,
1000
0110
0000
1001
,
0001
1100
0010
1100
,
1001
0000
0101
0000
0010
0000
1000
0100
,
0000
1001
0000
1001
0000
0100
0010
0000
,
1001
0100
0001
1010
,
1000
0100
0011
0001
,
0100
1010
1000
0010
,
0101
0000
0110
1001
,
1000
0010
0100
0010
,
0001
0010
0100
0010
,
1000
0000
0100
0000
1000
0000
0100
1000
,
0001
0000
0100
0000
0001
0000
0100
0001
,
1000
0000
0010
0000
1000
0000
0010
0100
,
0001
0000
0010
0000
0001
0000
0100
0010
,
0000
1001
0000
0000
0010
0000
0100
0000
,
1001
0000
0000
0000
;

//---------------dance-single - ----------------
#NOTES:
     dance-single:
     :
     Medium:
     10:
     0.562252,0.845135,0.614963,0.000000,0.026356,448.000000,378.000000,70.000000,0.000000,0.000000,0.000000,0.562252,0.845135,0.614963,0.000000,0.026356,448.000000,378.000000,70.000000,0.000000,0.000000,0.000000:
0000
0000
0000
0000
,
0000
0000
0000
0000
,
0000
0000
0000
0000
,
0000
1001
0110
1001
,
0010
0101
0100
1001
,
0010
0000
1010
0000
1000
0100
0010
0000
,
0100
1001
0010
1100
,
0001
0000
0001
0100
0001
1000
0010
1000
,
0100
0000
0000
0100
0000
0000
0000
0000
1001
0000
0100
0000
0001
0000
0010
0000
,
0100
0000
0000
0100
0000
0000
0000
0000
0010
0000
0001
0000
0100
0000
0010
0000
,
1001
0000
0000
0100
0000
1000
0000
0000
1000
0000
0100
0000
0001
0000
0010
0000
,
1000
0000
0000
1000
0000
0010
0000
0000
0001
0000
0010
0000
1000
0000
0100
0000
,
0001
0101
0001
1001
0001
0011
0001
0101
,
1000
1100
1000
1001
1000
1100
1000
1010
,
0001
0011
1000
1010
0001
0101
1000
1100
,
0001
0001
0001
0001
,
1000
0100
0001
0100
,
1000
1000
1000
1000
,
0010
0001
0010
1000
,
0001
0010
1000
0100
,
0001
0100
1000
0010
,
0001
0100
0010
0010
,
0000
1001
0000
1000
0010
1000
0100
0000
,
1001
0000
0101
0000
0010
1000
0100
0010
,
0000
0010
0100
0000
0000
0001
0100
0001
,
0100
0000
1001
1000
0010
0000
1000
0001
,
0000
1001
0000
0010
0001
0010
0001
0000
,
0101
0000
1010
0000
0010
0100
0001
0010
,
0000
1001
0000
0010
0100
1000
0010
0000
,
0011
0000
1010
0000
0001
1000
0001
0100
,
0001
1000
0001
0010
0000
0010
0100
0000
,
1001
0000
1000
0010
0100
0000
0100
0010
,
0000
0010
1000
0001
1000
0100
1000
0000
,
0101
0000
0001
0100
0010
0000
0010
1000
,
0000
1100
0000
0100
0001
0100
1000
0000
,
1010
0000
0100
0010
1000
0000
0010
0100
,
0000
1010
0000
0001
1000
0100
0010
0000
,
1100
1000
0010
1000
0001
0000
1000
0001
,
0100
0110
1001
1100
,
0001
0000
1000
0000
0001
0010
0100
0010
,
0000
0001
0000
0010
0100
0010
0100
0000
,
1000
0000
0100
0000
0010
0001
0010
0001
,
0000
0001
0100
0000
0100
0001
0010
0000
,
0001
0010
0001
0000
1000
0001
1000
0001
,
0000
0100
0000
0100
0001
1000
0100
0000
,
1000
0000
0001
0010
0000
1001
0000
0010
,
0000
1000
0010
1000
0010
0100
0010
0100
,
0001
0000
0001
0000
1000
0001
1000
0100
,
0000
1000
0000
1000
0100
0010
0100
0000
,
1000
0000
0010
0000
0010
0100
0010
1000
,
0000
0010
1000
0000
1000
0001
0010
0000
,
0010
0001
0100
0000
0001
0100
0001
0100
,
0000
0010
0000
0010
1000
0010
0100
0000
,
0001
0000
1000
0100
0000
0010
0000
1001
,
0000
0010
1000
0001
1000
0001
0010
0001
,
0100
0101
0001
0101
,
0100
0110
0010
0101
,
1000
1100
1000
1010
,
0010
1001
0001
1100
,
0001
0011
1000
1001
,
0010
1001
0100
0011
,
1000
1001
0010
1010
,
0100
0000
0110
0000
0010
0100
0001
1000
,
0100
0000
1100
0000
0010
0000
0001
0100
,
0000
0101
0000
0010
0000
1000
1100
0000
,
0010
0000
0001
0101
0000
0010
0000
1000
,
1100
0000
0000
1010
0000
1100
0000
0000
,
0001
0000
0011
0000
0010
0000
0001
1000
,
0000
1010
0000
0010
0000
1000
0001
0010
,
0100
0000
1000
0001
0100
0000
0001
1000
,
0100
0000
0010
0001
1000
0000
0010
1000
,
0001
0000
1000
0100
0010
0000
0001
0100
,
0010
0000
1000
0100
0010
0000
0001
0100
,
0000
1001
0000
0100
0010
0000
1001
0000
,
0110
0000
0000
0000
;

//---------------dance-single - ----------------
#NOTES:
     dance-single:
     :
     Hard:
     13:
     0.691520,0.845135,0.667674,0.052711,0.074674,551.000000,475.000000,76.000000,6.000000,0.000000,0.000000,0.691520,0.845135,0.667674,0.052711,0.074674,551.000000,475.000000,76.000000,6.000000,0.000000,0.000000:
0000
0000
0000
0000
,
0000
0000
0000
0000
,
0000
0000
0000
0000
,
0000
0100
0001
0100
0010
1000
0010
0100
,
0001
0000
0110
0000
1000
0100
1000
0010
,
0000
1001
0000
0001
0010
0001
0100
0000
,
1001
0000
1000
0100
0000
0001
0100
1000
,
0000
1000
0010
0001
0010
1000
0100
0010
,
1002
0000
0100
1000
0100
1003
0000
0000
,
2010
0000
0001
0100
0001
0000
3001
0000
,
0012
1000
0010
0000
0100
1000
0103
0000
,
2100
0001
0100
0001
3010
0000
0000
0000
,
1001
1010
0100
1001
0100
1010
0010
1001
,
0010
0101
1000
0101
0010
1001
0010
0011
,
1000
0000
0011
0000
0100
0000
1001
0000
0010
0000
1100
0000
0010
0000
0101
0100
,
0010
1000
0010
1000
0010
1000
0010
1000
,
0100
0010
0100
0010
0100
0010
0100
0010
,
0001
0100
0001
0100
0001
0100
0001
0100
,
0010
1000
0010
1000
0010
1000
0010
1000
,
0100
1000
0100
1000
0100
1000
0100
1000
,
0010
0100
0010
0100
0010
0100
0010
0100
,
0001
0010
0001
0010
0100
1000
0001
0010
,
0000
1010
0000
0010
0001
0010
1000
0000
,
1001
0000
0101
0000
0010
1000
0001
0100
,
0000
1001
0000
0100
1000
0001
0010
0000
,
1100
0000
1010
0000
0010
1000
0010
1001
,
0000
0001
0010
0100
0001
0100
1000
0010
,
0100
0000
1001
0001
0010
0000
1001
0010
,
0000
0101
0000
1000
0010
0001
0010
0100
,
0010
0000
1001
1000
0001
0010
0100
0010
,
0001
0100
1000
0200
0000
0301
0020
0100
,
0130
0000
1001
0100
0001
0100
0010
1000
,
0000
1100
0010
0100
0001
0100
0010
0001
,
0100
0000
1010
1000
0001
0100
1000
0100
,
0001
0011
0000
0010
1000
0010
0001
1000
,
0010
1000
0100
1000
0010
0100
0010
1000
,
0000
1010
0000
0011
0001
1000
0100
0010
,
0001
0100
0010
0000
1001
0010
0100
0001
,
1000
0000
0010
0000
0100
0010
1000
0000
0001
0000
0100
0000
1000
0000
0010
0000
,
0101
0000
1100
0000
0001
1000
0001
0100
,
0000
1001
0000
1000
0010
1000
0001
0010
,
1000
0000
0110
0001
1000
0001
0100
0010
,
0000
0000
0100
0001
0100
0000
0001
0000
0010
0000
0001
0000
0100
0000
0001
0000
,
0010
0100
0010
0000
1100
0100
1000
0010
,
0000
0000
1001
0000
0000
0000
0100
0010
0100
0000
0001
0000
1000
0000
0001
0000
,
0100
0001
0010
1000
0000
0010
0001
0100
,
0000
0100
1000
0100
0001
0010
0100
1000
,
0010
0000
0110
0000
1000
0001
1000
0100
,
0000
1001
0000
0101
0001
0010
0001
1000
,
0010
0000
0010
0001
0010
1000
0001
0010
,
0000
0000
1000
0010
1000
0000
0010
0000
0001
0000
1000
0000
0001
0000
0010
0000
,
0100
1000
0010
0000
1000
0010
0001
0100
,
0000
0000
0110
0000
0000
0000
1000
0001
1000
0000
0100
0000
1000
0000
0001
0000
,
0100
0001
1000
0010
0000
0010
1000
0010
,
0000
1001
0100
0001
0100
1000
0100
0010
,
1001
0000
1001
0000
1000
0000
0001
0100
,
0000
0000
1001
0000
0000
0000
0100
0000
0000
0000
1001
0000
1000
0000
0010
1000
,
0100
0000
1001
0000
0010
0000
0001
0100
,
0000
0000
0100
0000
0000
0000
1001
0000
0000
0000
0010
0000
0010
1000
0010
1000
,
0001
0000
0011
0000
0010
0000
0001
1000
,
0000
0000
1010
0000
1000
0000
0000
0000
1010
0000
1000
0000
0001
0100
0010
0100
,
0001
0000
0011
0000
1001
0000
0010
1010
,
0000
0000
1010
0000
0000
0000
1010
0000
0000
0000
0010
1000
0010
0000
1010
0000
,
1001
0000
0100
0000
0001
0000
1001
0100
,
0000
0001
0000
1001
0000
0100
0010
0000
,
1010
0000
0100
0010
0000
1010
0000
0100
,
1001
0000
0000
0000
0010
1000
0001
0000
0000
1000
0001
0000
0000
0000
1000
0001
,
0010
0000
1001
0000
1000
0000
0010
1001
,
0000
0000
0001
0000
0000
0000
0010
0000
0000
0000
1001
0000
1000
0010
1000
0010
,
0100
0001
0100
0001
0100
0001
0010
0100
,
1000
0010
1000
0010
1000
0010
0100
0001
,
0010
0100
0010
0100
1000
0001
1000
0001
,
0100
1000
0010
0001
0010
1000
0100
0001
,
0000
1001
0000
1001
0100
0010
0100
0000
,
1001
0000
0000
0000
;

//---------------dance-single - ----------------
#NOTES:
     dance-single:
     :
     Challenge:
     15:
     0.776861,0.910145,0.518326,0.000000,0.390941,619.000000,560.000000,59.000000,0.000000,0.000000,0.000000,0.776861,0.910145,0.518326,0.000000,0.390941,619.000000,560.000000,59.000000,0.000000,0.000000,0.000000:
0000
0000
0000
0000
,
0000
0000
0000
0000
,
0000
0000
0000
0000
,
0000
0100
1000
0100
0010
0001
0010
0100
,
1000
0000
0110
0000
0001
0100
0001
0010
,
0000
1001
0000
1000
0010
1000
0100
0000
,
1001
0000
0001
0100
0000
1000
0100
0001
,
0000
0001
0010
1000
0010
0001
0100
0010
,
1001
0000
1000
0000
0001
0000
0001
0100
0000
0101
0000
0000
0000
0000
0000
0000
,
1000
0000
0100
0000
0001
0000
0001
0010
0000
0000
0000
0000
0000
0000
0000
0000
,
1000
0000
0010
0000
1000
0000
0010
0001
0000
0100
0000
1000
0000
1000
0010
1000
,
0100
0000
0001
0000
0010
0000
1000
0100
0000
0000
0000
0000
0000
0000
0000
0000
,
1001
0000
0101
0000
0010
1000
0100
0000
0100
1000
0010
0000
0010
0100
0001
0000
,
1000
0100
0001
0000
0001
0100
0010
0000
0010
0001
0100
0010
1000
0100
0010
0000
,
0101
0000
1000
0010
0100
0000
0100
0010
1000
0000
1000
0010
0100
0001
1000
0001
,
0010
0001
0010
0001
0010
0001
0010
0001
,
0100
0010
0100
0010
0100
0010
0100
0010
,
1000
0100
1000
0100
1000
0100
1000
0100
,
0010
0001
0010
0001
0010
0001
0010
0001
,
0100
0001
0100
0001
0100
0001
0100
0001
,
0010
0100
0010
0100
0010
0100
0010
0100
,
1000
0010
1000
0010
0100
0001
1000
0010
,
0000
0011
0000
0010
1000
0100
0010
0000
,
1001
0000
0000
0001
1000
0000
0010
1000
0001
0000
0000
1000
0001
0000
0010
0000
,
0100
0000
0010
0000
1001
0000
0000
1000
0010
0000
0001
0010
1000
0000
0010
0000
,
0100
0000
0000
0000
1001
0000
0100
0000
1000
0100
0010
0000
0100
0000
1000
0000
,
0000
0000
1010
0000
0000
0010
0100
0000
1000
0100
0010
0000
1000
0010
0100
0010
,
1000
0000
0000
0000
1100
0000
0001
0000
0010
0000
0001
0010
0100
0000
0010
0000
,
0000
0000
1001
0000
0100
0000
0001
0100
0010
0000
0100
0000
1000
0100
0001
0000
,
1001
0000
1000
0100
1000
0000
0010
0000
1001
0000
0000
0001
0010
0000
0100
0000
,
0001
0000
0100
0010
0001
0000
0100
0000
0000
0010
1000
0000
0100
1000
0010
0100
,
0001
0000
0000
0000
1001
0000
1000
0000
0001
0000
0100
0010
0100
0000
0001
0000
,
0000
0000
1001
0000
0010
0000
1000
0000
0100
0000
1000
0000
0010
0100
0010
0000
,
1001
0000
0000
0100
0001
0000
0100
0000
0010
0000
1000
0000
0100
0000
1000
0000
,
0000
1000
0010
0000
0000
0100
0010
0000
1000
0010
0100
0001
0100
0000
0010
0000
,
1000
0100
0010
0001
0100
0001
0100
0010
,
0000
0000
1001
0000
0000
0000
0100
0000
1000
0001
1000
0100
0010
0000
0001
0100
,
0010
0000
0000
1000
0100
0000
1000
0000
0010
0000
0100
0000
0001
0000
0010
0000
,
1000
0000
0010
0000
0001
0100
0010
0000
1000
0000
0100
1000
0010
0000
0100
0000
,
0110
0000
1001
0000
0001
0010
1000
0010
,
0000
1001
0000
1000
0100
0001
0100
1000
,
0001
0000
1001
0100
0010
0100
0001
0010
,
0000
0000
0001
0010
0100
0000
0010
0000
0001
0000
0100
0000
0010
1000
0001
0100
,
1000
0100
0010
0000
1001
0100
0001
0010
,
0000
0000
1001
0000
0000
0000
0010
1000
0100
0000
1000
0000
0100
0000
0010
0000
,
0001
0100
0001
1000
0000
1000
0010
0001
,
0000
0000
0010
0000
1000
0000
0010
0000
0100
0000
0001
0010
0100
1000
0010
0100
,
0001
0000
0011
0010
0001
1000
0100
0010
,
0000
0101
0000
0010
1000
0010
0100
0001
,
0010
0000
1100
0100
0010
0001
0100
0010
,
0000
0000
1000
0001
1000
0000
0010
0000
1000
0000
0001
0000
0010
0100
1000
0001
,
0010
0001
0100
0000
1000
0100
0001
0010
,
0000
0000
1001
0000
0000
0000
0100
1000
0100
0000
0010
0000
0001
0000
0100
0000
,
0010
1000
0100
0010
0000
0001
0010
0100
,
0000
0000
1000
0001
1000
0001
0100
0001
1000
0010
1000
0010
1000
0001
0100
0010
,
1000
0000
1100
0000
1000
0000
1001
0100
,
0001
0000
0100
0000
1001
0000
0001
0000
0000
0000
0100
0000
1001
0000
0001
1000
,
0001
0000
1010
1000
0001
0000
1001
1000
,
0010
0000
1000
0000
1001
0000
0010
0000
0000
0000
1000
0000
1001
1000
0010
1000
,
0001
0000
1001
0000
0010
0000
1001
0001
,
0000
0000
1000
0000
0011
0000
0000
0000
0001
0000
1000
0000
0011
0001
0010
0001
,
1000
0000
1010
0000
0010
1000
1001
0010
,
0000
0001
0010
0000
0000
0001
1000
0000
0000
1000
0001
1000
0010
0000
1001
0000
,
0100
0000
1001
0000
0001
1000
1001
0001
,
0000
1000
1001
0001
0000
0010
0011
0001
,
0100
0000
0101
0001
0100
0010
1001
0100
,
0001
0000
0000
0001
0100
0001
0100
0000
0000
0100
0010
0000
0000
0100
0010
0100
,
0001
0000
0000
0000
0110
0000
0000
1000
0010
0000
1000
0000
1001
0000
0010
0000
,
0000
0000
1000
0000
1001
0000
0010
0000
0000
0000
0100
0000
1001
0001
0100
0001
,
1000
0100
1000
0100
1000
0100
0010
0001
,
1000
0010
1000
0010
1000
0010
0100
0001
,
0010
1000
0010
1000
0010
0001
0010
0001
,
0100
0010
1000
0100
1000
0010
0100
0001
,
0000
1001
0000
1001
0100
0010
0100
0000
,
1001
0000
0000
0000
;

//---------------dance-single - ----------------
#NOTES:
     dance-single:
     :
     Beginner:
     4:
     0.228415,0.325052,0.096637,0.000000,0.000000,182.000000,171.000000,11.000000,0.000000,0.000000,0.000000,0.228415,0.325052,0.096637,0.000000,0.000000,182.000000,171.000000,11.000000,0.000000,0.000000,0.000000:
// measure 0
0000
0000
0000
0000
,  // measure 1
0000
0000
0000
0000
,  // measure 2
0000
0000
0000
0000
,  // measure 3
0000
0000
0000
0000
,  // measure 4
0010
0000
0000
0000
,  // measure 5
0100
0000
0000
0000
,  // measure 6
0001
0000
0100
0000
,  // measure 7
1000
0000
0010
0000
,  // measure 8
1001
0000
0000
0000
,  // measure 9
0100
0100
0100
0000
,  // measure 10
0010
1000
0100
0000
,  // measure 11
0010
0100
0010
0000
,  // measure 12
1001
0001
0001
0100
,  // measure 13
1000
1000
0100
0001
,  // measure 14
1000
1000
0100
0010
,  // measure 15
1001
0000
0000
1000
,  // measure 16
0001
0000
0000
0100
,  // measure 17
0010
0000
0000
1000
,  // measure 18
0001
0000
0000
0100
,  // measure 19
0010
0000
0000
1000
,  // measure 20
0001
0000
0000
0010
,  // measure 21
0100
0000
0000
0000
,  // measure 22
0000
0000
0000
0000
,  // measure 23
1001
0000
1000
0000
,  // measure 24
0100
0000
0001
0000
,  // measure 25
0001
0000
0100
0000
,  // measure 26
1000
0000
0010
0000
,  // measure 27
1001
0000
0001
0000
,  // measure 28
0100
0000
1000
0000
,  // measure 29
0100
0000
0001
0000
,  // measure 30
0010
0000
0010
0000
,  // measure 31
1001
0000
0100
0000
,  // measure 32
1000
0000
0010
0000
,  // measure 33
1000
0000
1000
0000
,  // measure 34
0001
0000
0100
0000
,  // measure 35
0010
0000
0010
0000
,  // measure 36
0100
0000
0010
0000
,  // measure 37
1000
0000
0001
0000
,  // measure 38
0010
0010
0010
0010
,  // measure 39
0110
0000
0100
0000
,  // measure 40
1000
1000
1000
0000
,  // measure 41
0010
0000
1000
0000
,  // measure 42
0001
0100
0001
0000
,  // measure 43
0010
0010
0100
0000
,  // measure 44
1000
0000
0100
0000
,  // measure 45
1000
0010
1000
0000
,  // measure 46
0001
0001
0001
0000
,  // measure 47
1001
0000
0100
0000
,  // measure 48
0010
1000
0100
0000
,  // measure 49
1000
0000
0100
0000
,  // measure 50
0010
0001
0100
0000
,  // measure 51
0010
0010
0010
0000
,  // measure 52
0100
0010
1000
0000
,  // measure 53
1000
1000
0010
0000
,  // measure 54
0010
0100
0010
0000
,  // measure 55
1001
1000
0000
0001
,  // measure 56
0000
1000
0000
0010
,  // measure 57
0000
0001
0000
1000
,  // measure 58
0000
0001
0000
0010
,  // measure 59
0000
1000
0000
0001
,  // measure 60
0000
0100
0100
0100
,  // measure 61
0000
0001
0000
1000
,  // measure 62
0000
0100
0100
0010
,  // measure 63
1001
0000
0000
0001
,  // measure 64
0000
1000
0000
0010
,  // measure 65
0000
1000
0000
0001
,  // measure 66
0000
0010
0100
0010
,  // measure 67
0100
0010
0000
0001
,  // measure 68
0000
1000
0000
0010
,  // measure 69
0100
0100
0100
0100
,  // measure 70
0010
0010
0010
0010
,  // measure 71
1000
1000
0001
0001
,  // measure 72
0010
0100
1000
0001
,  // measure 73
0000
0001
0000
0000
1000
0000
1000
0000
,  // measure 74
1001
0000
0000
0000
;
