#TITLE:CHECKING YOU OUT;
#SUBTITLE:;
#ARTIST:good-cool feat. JP Miles;
#TITLETRANSLIT:;
#SUBTITLETRANSLIT:;
#ARTISTTRANSLIT:;
#GENRE:;
#CREDIT:;
#MUSIC:CHECKING YOU OUT.ogg;
#BANNER:CHECKING YOU OUT.png;
#BACKGROUND:CHECKING YOU OUT-bg.png;
#CDTITLE:;
#SAMPLESTART:23.663;
#SAMPLELENGTH:15.000;
#SELECTABLE:YES;
#OFFSET:-0.330;
#BPMS:0.000=108.000
,138.000=216.000
,198.000=27.000
,198.250=54.000
,198.375=108.000
,198.625=216.000
,199.000=432.000
,199.750=216.000
,200.000=108.000
;
#STOPS:;
#DISPLAYBPM:108.000:216.000;
#BGCHANGES:-0.500=CHECKING YOU OUT.avi=1.000=0=0=0=StretchNoLoop====,
99999.000=-nosongbg-=1.000=0=0=0=StretchNoLoop====;
#FGCHANGES:;

//--------------- dance-single - ----------------
#NOTES:
     dance-single:
     :
     Beginner:
     4:
     0,0,0,0,0:
0000
0000
0000
1000
,
0000
1000
0000
0001
,
0000
0001
1001
0000
,
1000
0000
0100
0000
,
0010
0000
0001
0000
,
0100
0000
0010
0000
,
0000
0000
1001
0000
,
0001
0000
0100
0000
,
0010
0000
1000
0000
,
0100
0000
0010
0010
,
0001
0000
1001
0000
,
0000
0000
0000
0001
,
0100
0010
0000
0000
,
0000
0000
0000
0000
,
1000
0001
1001
0000
,
0000
0000
0000
1000
,
0100
0010
0000
0000
,
0000
0000
0001
0100
,
0010
1000
1001
0000
,
0001
0000
0100
0100
,
0100
0100
0000
0010
,
0000
0000
1000
0000
0000
0001
0000
0000
,
0001
0000
0001
0000
,
1000
0000
0100
0100
,
0100
0100
0000
0010
,
0000
0001
1000
0010
,
0100
0001
1001
0000
,
0001
0000
0100
0000
,
0010
0000
1000
0000
,
0100
0000
0010
0000
,
0000
0000
1001
0000
,
1000
0000
0100
0000
,
0010
0000
0001
0000
,
0100
0000
0000
0000
0010
0010
0000
0000
,
1000
0000
0001
0000
,
0010
0000
0001
0000
,
0010
0000
0001
0000
,
1000
0000
0010
0000
,
0000
0000
1000
0000
,
0010
0000
1000
0000
,
0010
0000
1000
0000
,
0001
0000
0100
0000
,
0000
0000
0001
0000
,
0100
0000
0001
0000
,
0100
0000
0001
0000
,
1000
0000
0100
0000
,
0000
0000
1000
0000
,
0100
0000
1000
0000
,
0010
0000
0100
0000
,
0001
0000
2002
0000
,
3003
1000
0000
0100
,
0000
0010
0000
0001
,
1001
0000
0000
0000
;

//--------------- dance-single - ----------------
#NOTES:
     dance-single:
     :
     Easy:
     8:
     0,0,0,0,0:
0000
0000
0000
0000
1001
0000
1000
0100
,
1000
0000
0001
0100
0001
0000
1000
0010
,
1000
0000
0001
0001
1001
0000
1000
0000
,
0100
0010
0001
0000
,
0100
0010
1000
0001
,
0010
0000
0100
0000
1000
0010
1000
0000
,
0001
0010
0001
0000
1001
0000
0001
0000
,
0100
0010
1000
0000
,
0100
0010
0001
1000
,
0010
0000
0100
0000
0001
1000
0001
0000
,
0010
0000
0100
0100
0110
0000
0010
0000
,
0001
0000
1000
0000
0010
0000
0000
0100
,
0000
0100
0001
1000
,
0100
0000
0001
0000
,
0100
1000
1001
0001
,
0100
0010
1000
0100
,
0100
0000
0000
0100
1000
0000
0010
0000
,
0100
0000
0001
0000
1000
0100
1000
0000
,
0001
0100
0001
0000
1001
0000
1000
0000
,
0100
0000
0001
0000
0100
1000
0010
0100
,
0001
0010
0100
1000
0000
0000
0001
0000
,
0100
0010
1000
0000
,
0001
0000
1001
0001
,
0100
0000
1000
0000
0100
0001
0010
0100
,
1000
0010
0100
0001
0000
0000
1000
0000
,
0100
0000
0010
0000
1001
0000
0001
1000
,
0001
0100
0001
0000
1001
0000
1000
0000
,
0100
0010
0001
0100
,
0010
1000
0001
0010
,
0100
0000
0010
0000
0001
0100
0001
0000
,
1000
0100
1000
0000
1001
0000
1000
0000
,
0010
0100
0001
0010
,
0100
1000
0001
0100
,
0010
0000
1000
0000
1001
1001
0000
0001
,
1000
0000
0001
0001
1000
0000
0100
0000
,
0010
0100
1000
0001
,
0100
0001
1000
0100
,
0001
0100
0010
0100
,
0010
0001
1000
0010
,
0100
0010
1000
0001
,
0010
0001
1000
0010
,
0001
0010
0100
0010
,
1000
0001
1000
0100
,
0001
0100
1000
0010
,
1000
0001
0010
0100
,
0010
0001
1000
0010
,
0001
0010
1000
0001
,
1000
0100
0010
0001
,
0010
1000
0010
0001
,
0010
0000
0000
0000
0100
0000
0000
0000
2002
0000
0000
0000
0000
0000
0000
3003
,
1001
0001
1000
0100
,
0010
0001
1000
0001
,
1001
1001
0000
0000
0000
0000
0000
0000
;

//--------------- dance-single - ----------------
#NOTES:
     dance-single:
     :
     Medium:
     14:
     0,0,0,0,0:
0000
0000
0000
0000
1001
1000
0010
0000
,
0100
0000
0001
0000
0101
0000
0000
0001
0010
0000
0100
0000
1100
0000
0000
0000
,
1000
0000
0010
0000
0100
0010
0100
0010
1001
0000
1000
0100
0010
0001
0000
0000
,
1000
0100
0010
0001
0000
0000
1000
0100
0010
0001
0000
0000
0101
0000
0000
0000
,
0100
0000
0000
0000
0010
0000
0000
0000
0000
0000
1000
0100
0010
0001
0000
0000
,
1000
0100
0010
0001
0000
0000
1000
0100
0010
0001
0000
0000
0000
0000
0010
0000
,
0100
0000
0000
0000
1000
0000
0000
0000
1001
0000
1000
0010
0100
0001
0000
0000
,
1000
0010
0100
0001
0000
0000
1000
0010
0100
0001
0000
0000
0011
0000
0000
0000
,
0010
0000
0100
0000
0000
1000
0010
0100
,
1000
0000
0100
0000
0001
0000
0010
0000
1001
0001
1000
0001
1000
0000
0000
0000
,
0100
0000
0010
0000
0100
0010
0100
0000
1001
0000
0000
0000
1000
0000
0010
0000
,
1000
0001
0010
0100
0001
0100
1100
0000
,
0000
1000
0010
0000
0101
0000
0000
0000
0000
0000
0001
0000
0010
0000
0100
0000
,
1000
0010
0000
0001
0000
0010
1000
0001
,
0010
0001
0010
0000
1100
0000
0000
1000
1001
0000
0000
0000
0001
0100
0001
1000
,
0100
0000
0010
0000
1000
0000
0010
0100
1000
0000
0001
0000
0101
0000
0000
0000
,
0000
0001
0010
0000
1100
0000
0000
0000
0000
0000
1000
0000
0010
0000
0100
0000
,
0001
0010
0000
1000
0000
0000
0000
0010
0001
1000
0000
0010
0000
0001
0000
0100
,
0000
1000
0001
0000
1001
0000
0010
0100
1001
0000
1000
0000
0100
0000
1000
0010
,
0000
1000
0010
0000
0101
0000
0000
0001
0010
0000
0100
0000
1100
0000
0000
1000
,
0010
0100
0001
0000
0110
0000
0010
1000
0001
0000
0001
0000
0010
0000
0001
0100
,
0000
0001
1000
0000
1100
0000
0000
0100
0010
0000
1000
0000
0000
0010
0000
0000
,
0001
0100
0010
1000
0000
0000
0001
0000
1001
0000
1000
0000
0010
0000
1000
0100
,
0000
1000
0100
0000
0011
0000
0000
0001
0100
0000
0010
0000
1010
0000
0000
1000
,
0100
0010
0001
0000
0110
0000
0100
1000
0001
0000
0001
0000
0100
0000
0001
0010
,
0000
0001
1000
0000
1010
0000
0010
0000
0110
0000
0100
1000
0100
0000
0001
0010
,
0001
0010
1000
0000
0010
0100
0010
0100
1001
0000
1000
0010
0000
0010
0100
0000
,
0100
0001
0000
0000
0010
0000
1000
0000
0010
0000
0001
0000
0011
0000
0000
0000
,
0001
1000
0000
0010
0100
0001
1000
0000
0001
0000
0001
0010
0000
0010
0100
0000
,
0100
1000
0000
0000
0010
0000
0001
0000
0010
0000
0100
0000
0110
0000
0100
0001
,
1000
0000
0100
0000
0000
0010
0001
1000
1001
0000
0001
0100
0000
0100
0010
0000
,
0010
1000
0000
0000
0100
0000
0001
0000
0100
0000
1000
0000
1100
0000
0000
0000
,
1000
0001
0000
0100
0010
1000
0001
0000
1000
0000
1000
0100
0000
0100
0010
0000
,
0010
0001
0000
0000
0100
0000
1000
0000
0110
0000
1001
0000
1000
0000
0100
0001
,
0100
1000
1001
1001
0001
1000
0010
0100
,
0010
0001
0000
0000
1000
0100
0010
0100
,
0001
0000
1000
0100
0010
0001
0000
0000
,
1001
0000
0000
0000
0001
0100
1000
0100
,
0001
0100
1000
0100
0001
0000
0010
0100
,
0010
1000
0000
0000
0001
0100
0010
0100
,
1000
0000
0001
0100
0010
1000
0000
0000
,
1001
0000
1000
0010
0001
0010
0100
0010
,
0001
0010
1000
0000
1001
0000
1000
0100
,
0001
1000
0000
0000
0001
0100
1000
0010
,
0001
0000
1000
0001
0010
1000
0001
0000
,
1000
0100
0001
0100
1000
0010
0001
0010
,
0100
0000
0001
0000
1000
0000
0100
0010
,
0100
0000
0000
1000
0000
0000
0001
0000
0000
0000
0000
0000
0100
0000
0001
0000
0100
0000
0001
0000
0000
0000
0000
0000
,
1000
0010
1000
0010
0000
0000
1000
0100
1000
0100
0000
0000
,
0010
0000
0000
0000
0001
0000
0000
0000
0010
0000
0000
0000
0001
0000
0000
0000
0000
0000
0000
0000
0000
0000
0000
0000
2002
0000
0000
0000
0000
0000
0000
0000
0000
0000
0000
0000
0000
0000
0000
0000
0000
0000
0000
0000
0000
3003
0000
0000
,
1001
0000
0000
0000
1001
0000
0000
0000
1000
0000
0100
0000
0110
0000
0000
0010
,
0001
0000
0100
0000
0110
0000
0000
0000
0010
1000
0000
0001
0000
0010
0100
0000
,
0110
1001
0000
0000
0000
0000
0000
0000
;

//--------------- dance-single - ----------------
#NOTES:
     dance-single:
     :
     Hard:
     16:
     0,0,0,0,0:
0000
0000
0000
0000
0000
0000
0000
0000
0000
0000
0000
0000
0000
0000
0000
0000
1001
0000
0000
0000
1000
0100
1000
0000
0100
0000
1000
0000
0100
0000
1000
0000
,
0001
0000
0100
0000
0010
0000
1000
0010
1000
0000
0010
0000
1000
0000
0010
0000
1000
0000
0100
0000
0010
0000
0001
0000
0010
0000
0001
0010
0001
0000
0010
0001
,
0010
0001
1000
0010
0100
1000
0100
0001
1001
0000
1000
0000
1010
0000
0001
0000
,
1000
0000
0100
0000
0010
0000
0000
0000
0001
0100
0000
0001
1000
0000
0100
0000
,
0001
0100
0000
1000
0000
0000
0010
0000
0100
0000
0001
0000
0011
0000
1000
0000
,
0001
0000
0000
0000
0100
0000
0000
0000
0010
0000
0000
0000
1000
0000
0000
0000
0001
0010
0001
0000
0010
0000
0001
0000
0010
0000
0001
0000
0010
0000
0001
0000
,
1000
0000
0010
0000
1000
0010
1000
0000
0010
0000
1000
0000
0010
0000
1000
0000
1001
0000
0000
0000
0001
0000
0000
0000
0011
0000
0000
0000
1000
0000
0000
0000
,
0001
0000
0100
0000
0010
0000
0000
0000
1000
0100
0000
1000
0001
0000
0100
0000
,
1000
0100
0000
0001
0000
0000
0010
0000
0100
0000
1000
0000
1010
0000
0001
0000
,
1000
0000
0100
0000
0010
0000
0001
0000
0100
1000
0100
0010
0001
0000
0000
0000
,
0010
0000
0100
0000
0001
1000
0001
0000
1001
0000
1000
0000
1100
0000
0000
0000
,
0100
0000
0010
0000
0001
1000
0000
0010
0100
0000
0000
0000
0001
0010
0001
0000
,
0010
1000
0010
1000
0010
0000
0000
0000
0001
0000
1000
0000
0000
0000
0000
0000
,
0010
0000
0100
0000
0000
0010
1000
0001
0010
0000
0000
0000
0110
0000
0100
0000
,
1000
0100
0001
0100
0001
0100
1000
0001
1001
0000
0001
0000
0101
0000
0000
0000
,
0100
0000
0010
0000
1000
0001
0000
0010
0100
0000
0000
0000
1000
0000
0010
0001
,
0010
0000
1000
0010
1000
0010
1000
0000
0001
0000
1000
0000
0000
0000
0000
0000
,
0100
0000
0010
0000
0000
0000
0001
0000
0000
0000
1000
0000
0000
0000
0010
0000
0100
0000
1000
0000
0100
0000
0001
0000
0100
0000
0001
0000
0100
0001
0100
0000
,
0010
0001
0010
1000
0010
1000
0010
1000
1001
0000
0000
0000
1000
0000
0000
1000
,
0100
0000
0000
0100
0010
0000
0000
0000
0001
0010
0100
0001
0100
1000
0001
0010
,
1000
0010
0100
1000
0001
0010
0100
1000
0000
0000
0000
0000
0010
0000
0000
0010
,
0100
0000
0000
0100
0001
0000
0000
0001
1000
0000
0100
0000
0000
0001
0000
0000
,
0100
0000
0000
1000
0000
0000
0001
0000
1001
0000
1000
0000
1000
0010
0000
0010
,
0100
0000
0100
0001
0000
0000
0000
0000
1000
0010
0100
1000
0100
0001
1000
0010
,
0001
0010
0100
0001
1000
0010
0100
0001
0000
0000
0010
0000
0100
0000
1000
0000
,
0000
0000
0000
0000
0010
0000
0000
0000
1000
0000
0000
0000
0001
0000
0000
0000
0010
0000
0001
0000
0010
0000
0001
0010
0001
0000
0000
0000
1000
0000
0010
0000
,
1000
0010
0001
0000
0010
1000
0010
1000
1001
0000
0001
0000
0101
0000
1000
0000
,
0001
0000
0010
0000
0100
0000
0000
0000
1000
0010
0000
1000
0001
0000
0010
0000
,
1000
0010
0000
0001
0000
0000
0100
0000
0010
0000
1000
0000
1100
0000
0001
0000
,
1000
0000
0000
0000
0010
0000
0000
0000
0100
0000
0000
0000
0001
0000
0000
0000
1000
0000
0100
0000
1000
0100
1000
0000
0100
0000
1000
0100
1000
0000
0001
0000
,
0100
0001
0100
0001
0100
0001
0100
0001
1001
0000
1000
0000
1100
0000
0001
0000
,
1000
0000
0010
0000
0100
0000
0000
0000
0001
0010
0000
0001
1000
0000
0010
0000
,
0001
0010
0000
1000
0000
0000
0100
0000
0010
0000
0001
0000
0101
0000
1000
0000
,
0001
0000
0010
0000
0100
0000
1000
0000
1001
0000
0110
0000
1001
0000
1000
0010
,
0001
0000
0000
0010
0000
0000
0110
0000
0000
1001
0000
0000
1000
0000
0100
0000
0010
0000
0100
0000
0000
1000
0000
0000
,
0100
0000
0010
0000
0001
0000
0000
0000
0010
0001
0010
0000
0001
0000
0100
0000
,
0001
0000
0000
0000
0100
0000
0010
0000
1000
0010
1000
0010
1000
0000
0010
0000
,
0100
0010
1000
0010
0000
0000
1000
0100
0010
0001
0010
0100
,
1000
0000
0000
0000
0000
0000
0001
0000
0000
0000
0000
0000
0100
0000
0000
0000
0010
0000
0000
0000
1000
0000
0000
0000
0001
0000
0000
0000
0000
0000
0000
0000
0100
0000
0000
0000
0001
0000
0000
0100
0000
0000
0001
0000
0000
0000
0000
0000
,
0100
0010
1000
0000
0100
1000
0010
0000
,
1000
0001
0010
0100
0010
0001
0010
1000
,
0010
0000
0000
0000
0001
0100
0001
0000
0100
0000
0010
0000
0100
0000
0001
0000
,
1000
0000
0000
0001
0000
0000
1000
0000
0000
0001
0000
0000
1000
0000
0000
0000
0000
0000
0001
0000
0000
0000
0000
0000
1000
0000
0000
0000
0100
0000
0000
0000
1000
0000
0000
0000
0100
0000
0000
0000
0000
0000
0000
0000
0000
0000
0000
0000
,
0010
0000
0001
0000
0010
0000
0001
0000
0000
0000
0000
0000
0100
0000
0000
0000
0000
0000
0010
0000
0000
0001
0000
0000
,
0010
0000
1000
0001
0010
0100
1000
0000
,
0010
0000
0100
0000
0010
0000
1000
0000
0000
0001
0000
0000
0010
0000
0000
1000
0000
0000
0010
0000
0001
0000
0010
0000
,
0001
0000
1000
0000
0001
0100
1000
0100
,
0010
0000
0000
0100
0000
0000
0001
0000
0000
0000
0000
0000
1000
0000
0010
0000
0100
0000
0010
0000
0000
0000
0000
0000
,
1000
0100
0010
0100
0000
0000
1000
0010
0100
0010
0000
0000
,
0001
0000
0000
0000
0010
0000
0000
0000
1000
0000
0000
0000
0001
0000
0000
0000
0000
0000
0000
0000
0000
0000
0000
0000
2002
0000
0000
0000
0000
0000
0000
0000
0000
0000
0000
0000
0000
0000
0000
0000
0000
0000
0000
0000
0000
3003
0000
0000
,
1001
0000
1000
0000
1100
0000
0000
0000
0100
0010
0000
0001
1000
0010
0000
0010
,
0100
0000
0100
0001
0000
0001
0010
0000
0100
1000
0000
0010
0001
0010
1000
0000
,
0110
1001
0000
0000
0000
0000
0000
0000
;
