#VERSION:0.83;
#TITLE:Bad Boss Boogie;
#SUBTITLE:;
#ARTIST:Dave Wise;
#TITLETRANSLIT:;
#SUBTITLETRANSLIT:;
#ARTISTTRANSLIT:;
#GENRE:;
#CREDIT:;
#MUSIC:Bad Boss Boogie.ogg;
#BANNER:Bad Boss Boogie.png;
#BACKGROUND:Bad Boss Boogie-bg.png;
#CDTITLE:;
#SAMPLESTART:19.617;
#SAMPLELENGTH:15.000;
#SELECTABLE:YES;
#OFFSET:-0.017;
#BPMS:0.000=150.000;
#STOPS:;
#TIMESIGNATURES:0.000=2=4,
2.000=29=8,
45.500=7=8,
49.000=29=8,
92.500=7=8,
99.500=29=8,
157.500=4=4,
173.500=29=8
;
#BGCHANGES:;
#FGCHANGES:;

//--------------- dance-single - ----------------
#NOTEDATA:;
#STEPSTYPE:dance-single;
#DESCRIPTION:;
#DIFFICULTY:Beginner;
#METER:3;
#RADARVALUES:0,0,0,0,0;
#NOTES:
0000
0000
1000
0000
,
0000
0000
0100
0000
,
0000
0000
0010
0000
,
0000
0000
0001
0000
,
0000
1000
0000
0000
0000
0000
0000
0000
,
0000
0010
0000
0000
0000
0000
0000
0000
,
0000
0100
0000
0000
0000
0000
0000
0000
,
0000
0001
0000
0000
0000
0000
1000
0000
,
0000
0000
0000
0100
,
0000
0000
0000
0010
,
0000
0000
0000
0001
,
0000
0000
0000
1000
0000
0000
0000
0000
,
0000
0001
0000
0000
,
0000
0100
0000
0000
,
0000
0010
0000
0000
,
0000
0000
1000
0000
0000
0000
0000
0001
,
0000
0000
0000
0000
0000
0000
0000
0010
,
0000
0000
0000
0000
0000
0000
0000
0100
,
0000
0000
0000
0000
0000
0000
0000
1000
,
0000
0000
0001
0000
,
0000
0000
0100
0000
,
0000
0000
0010
0000
,
0000
0000
1000
0000
,
0000
0001
0000
0000
0000
0000
0000
0000
,
1000
0000
0000
0000
0000
0000
0000
0001
,
0000
0000
0000
0000
,
0001
0000
0000
0000
0000
0000
0000
0001
,
0000
0000
0000
0000
,
0001
0000
1000
0000
,
0000
0000
0000
0000
0000
1000
0000
0000
,
0000
0000
1000
0000
,
0000
0000
0000
0000
0000
1000
0000
0000
,
0000
0001
0000
0000
0000
0000
0000
0000
,
0000
0001
0000
0000
,
0000
0001
0000
0000
0000
0000
0000
0000
,
0000
0001
0000
1000
,
0000
0000
0000
0000
0000
0000
0000
1000
,
0000
0000
0000
1000
,
0000
0000
0000
0000
0000
0000
0000
1000
,
0000
0000
0000
0001
0000
0000
0100
0000
,
0000
0000
0000
0000
0010
0000
0000
1000
,
0000
0000
0000
0001
0000
0000
0010
0000
,
0000
0000
0000
0000
0100
0000
0000
1000
,
0000
0000
0000
0001
0000
0000
0000
0000
;

//--------------- dance-single - ----------------
#NOTEDATA:;
#STEPSTYPE:dance-single;
#DESCRIPTION:;
#DIFFICULTY:Easy;
#METER:7;
#RADARVALUES:0,0,0,0,0;
#NOTES:
0000
0000
0000
0000
1000
0000
0000
0100
,
0000
0000
1000
0000
0000
0001
0000
0000
,
0100
0000
0010
0000
1000
0000
0000
0100
,
0000
0000
1000
0000
0000
0010
0000
0000
,
0100
0001
0000
0000
0010
0000
0000
0001
,
0000
0000
1000
0000
0000
0010
0000
0100
,
0000
0001
0000
0000
0010
0000
0000
0001
,
0000
0000
0100
0000
0000
0010
1000
0000
,
0000
0100
0000
0000
1000
0000
0000
0010
,
0000
0100
0001
1000
,
0000
0100
0000
0000
1000
0000
0000
0001
,
0000
0000
0100
0001
0000
0000
0010
0000
,
0000
0100
1000
0000
0000
0010
0000
0000
,
1000
0000
0000
0001
0000
0000
0010
0000
,
0100
0000
1000
0000
0000
0010
0000
0000
,
1000
0000
0000
0100
0000
0000
0010
0001
,
0000
0000
0100
0000
0000
0001
0000
0000
,
1000
0000
0000
0100
0000
0010
0000
0001
,
0000
0000
0100
0000
0000
0001
0000
0000
,
0010
0000
0000
0100
1000
0000
0000
0010
,
0000
0000
1000
0000
0000
0100
0000
0000
,
0010
0000
0001
0000
1000
0000
0000
0010
,
0000
0000
1000
0000
0000
0001
0000
0000
,
0010
0001
0000
0000
0100
0000
0000
0010
,
1000
0000
0000
0100
0000
0000
0010
0001
,
0000
0000
0001
0000
0000
0001
0000
0000
,
1000
0000
0000
1000
0000
0000
0000
1000
,
0000
0000
1000
0000
0000
1000
0000
0000
,
0001
0000
0000
0001
1000
0000
0000
1000
,
0000
0000
1000
0000
0000
0001
0000
0000
,
0001
0000
0000
0000
0001
0000
0000
0001
,
0000
0000
0001
0000
0000
1000
0000
0000
,
1000
0001
0000
0000
0010
0000
0000
0100
,
0000
0000
1000
0000
0000
0010
0000
0000
,
0000
1000
0000
0000
0100
0000
0000
0010
,
0000
0000
0001
0000
0000
1000
0001
0000
,
0000
0100
0000
0000
0010
0000
0000
1000
,
0000
0100
0000
1000
,
0000
0010
0000
0000
0100
0000
0000
0001
,
0000
0000
1000
1001
0000
0000
0101
0000
,
0000
0100
0000
0000
0110
0000
0000
1010
,
0000
1100
0000
1001
0000
0000
0011
0000
,
0000
0010
0000
0000
0110
0000
0000
1100
,
0000
1010
0000
0001
0000
0000
0000
0000
;

//--------------- dance-single - ----------------
#NOTEDATA:;
#STEPSTYPE:dance-single;
#DESCRIPTION:;
#DIFFICULTY:Medium;
#METER:10;
#RADARVALUES:0,0,0,0,0;
#NOTES:
0000
0000
0000
0000
1000
0000
0010
1000
,
0000
0010
1000
0001
0000
0010
0000
0001
,
0100
0000
0001
0000
1000
0000
0010
1000
,
0000
0010
1000
0001
0000
0010
0000
0001
,
0010
0001
0000
0100
0001
0000
0100
0001
,
1000
0000
0100
0000
1000
0100
0000
1000
,
0000
0001
0000
0100
0001
0000
0100
0001
,
1000
0000
0100
0000
1000
0100
1000
0000
,
0010
1000
0000
0100
1000
0001
0000
0100
,
0000
0001
0010
0000
0001
0000
1000
0000
,
0010
1000
0000
0100
1000
0001
0000
0100
,
0000
0001
0010
0001
0000
1000
0010
0000
,
1000
0001
1000
0000
0100
0010
0000
0100
,
1000
0001
0000
0100
0000
0010
1000
0000
,
0100
0010
0001
0000
0100
0010
0000
0100
,
0001
1000
0000
0100
0000
0010
0001
1000
,
0000
0010
0100
0000
0010
1000
0001
0000
,
0010
0000
0100
1000
0000
0010
0100
0001
,
0000
0010
0100
0000
0010
0001
1000
0000
,
0010
0000
0100
0001
1000
0000
0100
0001
,
0000
0100
1000
0001
0000
0100
0000
0010
,
1000
0000
0100
0010
0001
0000
0100
1000
,
0000
0100
0001
1000
0000
0100
0000
0010
,
0001
1000
0000
0010
0001
0000
0000
0010
,
1000
0000
0100
0001
0000
0000
0100
1000
,
0000
0000
0010
0000
0000
0100
0100
0000
,
0001
0000
0000
0010
0000
0100
0000
1000
,
0000
0000
0010
0000
0000
0100
0100
0000
,
0001
0000
0000
0010
0001
0000
0000
0100
,
0000
0000
0010
0010
0000
1000
0000
0000
,
0100
0000
0010
0000
0001
0000
0000
0100
,
0000
0000
0010
0010
0000
1000
0000
0000
,
0100
1000
0000
0000
0010
0000
0000
0100
,
0100
0000
1000
0000
0000
0100
0000
0001
,
0000
1000
0000
0000
0100
0000
0000
0010
,
0010
0000
1000
0000
0000
0010
0001
0000
,
0000
0100
0000
0000
0010
0010
0000
0001
,
0000
0010
1000
0001
,
0000
0010
0000
0000
0100
0100
0000
0001
,
0000
0000
0100
1000
0010
0010
1000
0001
,
0001
1000
0100
0000
0010
0001
0001
0100
,
1000
0100
0001
1000
0100
0100
1000
0001
,
0001
1000
0010
0000
0100
0001
0001
0010
,
1000
0010
0001
1000
0000
0000
0000
0000
;

//--------------- dance-single - ----------------
#NOTEDATA:;
#STEPSTYPE:dance-single;
#DESCRIPTION:;
#DIFFICULTY:Hard;
#METER:13;
#RADARVALUES:0,0,0,0,0;
#NOTES:
0000
0000
0000
0000
1000
0010
0010
1000
,
0010
0000
0010
0000
1000
0010
1000
0000
0001
0000
0010
0000
0001
0000
0001
0000
,
0100
0001
0010
0001
1000
0010
0010
1000
,
0010
0000
0010
0000
1000
0010
1000
0000
0001
0000
0010
0000
0001
0000
0001
0000
,
1000
0000
0001
0000
0010
0000
0010
0000
0001
0000
0010
0000
0010
0000
0001
0010
,
0001
1000
0010
1000
1000
0100
1000
0010
,
1000
0000
0001
0000
0010
0000
0010
0000
0001
0000
0010
0000
0010
0000
0001
0010
,
0001
1000
0010
1000
1000
0001
1000
0100
,
0100
0000
1000
0000
0100
0000
0100
0000
1000
0100
1000
0000
0001
0000
0100
0000
,
0001
0001
0010
0001
0100
0001
1000
0100
,
0100
0000
1000
0000
0100
0000
0100
0000
1000
0100
1000
0000
0001
0000
0100
0000
,
0001
0001
1000
0001
0100
0100
0001
0100
,
0100
0001
1000
0100
0100
1000
0010
0010
,
1000
0100
0010
0000
0001
0000
0100
0000
0001
0000
0001
0000
0010
0000
0001
0000
,
0100
0001
1000
0100
0100
1000
0010
0010
,
1000
0100
0010
0000
0001
0000
0100
0000
0001
0000
0001
0000
1000
0000
0001
0000
,
0100
0000
0100
0000
0001
0000
0010
0000
0010
0000
0001
0100
0010
0000
1000
0000
,
0100
1000
1000
0010
1000
0100
1000
0001
,
0100
0000
0100
0000
0001
0000
0010
0000
0010
0000
0001
0100
0010
0000
1000
0000
,
0100
1000
1000
0001
1000
0010
0010
1000
,
0100
0000
0100
0000
1000
0010
0100
0000
0001
0000
0010
0000
0001
0000
0001
0000
,
0100
0001
0010
0001
1000
0010
0010
1000
,
0100
0000
0100
0000
1000
0010
0100
0000
0001
0000
0010
0000
0001
0000
0001
0000
,
1000
0001
0010
0010
0001
0100
0100
0001
,
1000
0100
0100
1000
0010
0010
1000
0001
,
0000
0000
0000
0000
0100
0000
0000
0000
0000
0000
0010
1000
0010
0000
0000
0000
,
0100
0000
0000
0001
0000
1000
0000
0001
,
0000
0000
0000
0000
0100
0000
0000
0000
0000
0000
0010
1000
0010
0000
0000
0000
,
0100
0000
0000
0001
1000
0000
0000
0100
,
0000
0000
0000
0000
0010
0001
0010
0000
0000
0000
0100
0000
0000
0000
0000
0000
,
1000
0000
0001
0000
1000
0000
0000
0100
,
0000
0000
0000
0000
0010
0001
0010
0000
0000
0000
0100
0000
0000
0000
0000
0000
,
1000
0000
0001
0000
0000
0000
0000
0000
0100
0000
0000
0000
0000
0000
0010
1000
,
0010
0000
0100
0000
0000
0001
0000
1000
,
0000
0000
0101
0000
0000
0000
0000
0000
0110
0000
0000
0000
0000
0000
0010
1000
,
0010
0000
0110
0000
0000
1001
1100
0000
,
0000
0000
0110
0000
0000
0000
0000
0000
0010
0001
0010
0000
0000
0000
0110
0000
,
0000
1100
1001
1100
,
0000
0000
0110
0000
0000
0000
0000
0000
0010
0001
0010
0000
0000
0000
0110
0000
,
0000
0000
1100
1001
0001
0100
0110
0010
,
1000
0000
0100
0010
0001
0000
1000
0000
1010
0000
0010
0000
0100
0000
0101
0000
,
0001
1001
1000
1001
0001
0010
0110
0100
,
1000
0000
0010
0100
0001
0000
1000
0000
1100
0000
0100
0000
0010
0000
0001
0100
,
0010
1000
0001
0010
0100
1000
0001
0000
0000
0000
0000
0000
0000
0000
0000
0000
;
