#VERSION:0.83;
#TITLE:All the Times;
#SUBTITLE:;
#ARTIST:fizzd;
#TITLETRANSLIT:;
#SUBTITLETRANSLIT:;
#ARTISTTRANSLIT:;
#GENRE:;
#ORIGIN:;
#CREDIT:;
#BANNER:;
#BACKGROUND:;
#PREVIEWVID:;
#JACKET:;
#CDIMAGE:;
#DISCIMAGE:;
#LYRICSPATH:;
#CDTITLE:;
#MUSIC:All-the-Times.ogg;
#OFFSET:0.000000;
#SAMPLESTART:49.655170;
#SAMPLELENGTH:15.000000;
#SELECTABLE:YES;
#BPMS:0.000=72.500;
#STOPS:;
#DELAYS:;
#WARPS:;
#TIMESIGNATURES:0.000=4=4;
#TICKCOUNTS:0.000=4;
#COMBOS:0.000=1;
#SPEEDS:0.000=1.000=0.000=0;
#SCROLLS:0.000=1.000;
#FAKES:;
#LABELS:0.000=Song Start;
#BGCHANGES:;
#KEYSOUNDS:;
#ATTACKS:
;

//---------------dance-single - ----------------
#NOTEDATA:;
#CHARTNAME:;
#STEPSTYPE:dance-single;
#DESCRIPTION:;
#CHARTSTYLE:;
#DIFFICULTY:Hard;
#METER:13;
#RADARVALUES:0.346782,0.538899,0.043155,0.075521,0.442339,225.000000,221.000000,4.000000,7.000000,0.000000,0.000000,0.000000,0.000000,0.000000,0.346782,0.538899,0.043155,0.075521,0.442339,225.000000,221.000000,4.000000,7.000000,0.000000,0.000000,0.000000,0.000000,0.000000;
#CREDIT:Karl with a K;
#NOTES:
// measure 0
0000
0000
0000
0000
,  // measure 1
0000
0000
0000
0000
,  // measure 2
0000
0000
0000
0000
,  // measure 3
1000
0001
1000
0020
,  // measure 4
0130
0000
0010
0000
1000
0000
0000
0000
0001
0000
0000
1000
0100
0000
0100
0000
,  // measure 5
1000
0000
0000
0000
0001
0000
0000
0000
1000
0000
0000
0100
0010
0000
0000
0000
,  // measure 6
0001
0000
0000
0000
1000
0000
0000
0000
0001
0000
0000
1000
0010
0000
0100
0000
,  // measure 7
0001
0000
0000
0000
1000
0000
0000
0000
0001
0000
0000
0100
0010
0000
1000
0000
,  // measure 8
1000
0000
0000
0000
0001
0000
0000
0000
1000
0000
0000
0001
0010
0000
0010
0000
,  // measure 9
0001
0000
1000
0000
0010
0000
0000
0000
1000
0000
0000
0001
0010
0000
0000
0000
,  // measure 10
0001
0000
0000
0000
0100
0000
0000
0000
0001
0000
0000
1000
0100
0010
0001
1000
,  // measure 11
0001
0000
0000
0000
1000
0000
0000
0000
0100
0000
0000
0000
0000
0000
0000
0000
1000
0000
0000
0000
0000
0000
0001
0000
0100
0000
0000
0010
0000
0000
0000
0000
,  // measure 12
1000
0000
0000
0000
0010
0000
0000
0000
1000
0000
0000
0001
0010
0000
0000
0000
,  // measure 13
1000
0000
0100
0000
0010
0000
0000
0000
0001
0000
0000
0100
0010
0000
0000
0000
,  // measure 14
1000
0001
1000
0000
0010
0000
0100
0000
0001
0000
0000
0001
0010
0000
0100
0000
,  // measure 15
1000
0001
0100
0001
,  // measure 16
1000
0000
0000
0000
0000
0000
0000
0000
0100
0000
0000
0000
0000
0000
0000
0000
0010
0000
0000
0000
0010
0000
0000
0000
0001
0000
0000
0001
1000
0000
0100
0000
,  // measure 17
0020
0000
0000
0000
1030
0010
0100
0010
0001
0010
0100
0010
1000
0010
0001
0100
,  // measure 18
0001
0100
0001
0100
0010
0100
0010
0100
1000
0000
0100
0000
0010
0000
0100
0000
0001
0000
0100
0000
0010
0000
0100
0000
1000
0000
0100
0000
0001
0000
1000
0000
,  // measure 19
0010
0000
0120
0000
0031
0010
0100
0010
1000
0010
0100
0010
0001
0010
1000
0100
,  // measure 20
1000
0000
1000
0000
0010
0000
0001
0000
1000
0000
0100
0000
0010
0000
0100
0000
0001
0000
1000
0000
0010
1000
0010
0100
1000
0000
0000
0100
0000
0000
0001
0000
,  // measure 21
1000
0000
0000
0000
0001
1000
0001
1000
0001
0000
0100
0000
1000
0000
0100
0000
0001
0000
0010
0000
1000
0000
0010
0000
0001
0000
0100
0000
1000
0000
0001
0000
,  // measure 22
0010
0000
0110
0000
0001
0010
1000
0010
0001
0100
1000
0100
0001
0010
1000
0001
,  // measure 23
0200
0000
0010
0000
1300
0100
0001
0100
1000
0010
0002
0000
0013
1000
0100
0001
,  // measure 24
1000
0010
0010
0000
1001
0001
0000
0100
0100
0000
0010
0010
1000
0100
0100
0000
,  // measure 25
0010
0010
0000
0001
1000
0010
0100
0001
1000
0100
0010
0001
1000
0000
0001
0000
,  // measure 26
2002
0000
0000
0000
,  // measure 27
0000
0000
0000
3003
;
