#TITLE:the shadow;
#SUBTITLE:;
#ARTIST:kors k;
#TITLETRANSLIT:;
#SUBTITLETRANSLIT:;
#ARTISTTRANSLIT:;
#CREDIT:DigiMindAxel;
#BANNER:the shadow.png;
#BACKGROUND:the shadow-bg.png;
#LYRICSPATH:;
#CDTITLE:beatmania IIDX.png;
#MUSIC:the shadow.ogg;
#METERTYPE:DDR X;
#OFFSET:-0.455;
#SAMPLESTART:49.654;
#SAMPLELENGTH:12.000;
#SELECTABLE:YES;
#BPMS:0.000=156.000;
#STOPS:;
#BGCHANGES:-4.000=the shadow.avi=1.000=1=1=0,
99999=-nosongbg-=1.000=0=0=0 // don't automatically add -songbackground-
;

//---------------dance-single - ----------------
#NOTES:
     dance-single:
     :
     Easy:
     5:
     0.273,0.282,0.060,0.284,0.000:
0000
0000
0000
0000
,
0000
0000
0000
0000
,
0000
0000
0000
0000
,
0000
0000
0000
0000
,
1001
0000
0000
0000
,
1000
0000
0000
0000
,
0100
0000
0000
0000
,
0020
0000
0000
0000
,
0031
1000
0001
1000
,
0001
1000
0001
1000
,
0200
0000
0320
0000
,
0230
0000
0320
0000
,
0031
1000
0001
1000
,
0001
1000
0001
1000
,
0020
0000
0230
0000
,
0320
0000
0230
0000
,
0301
1000
0001
1000
,
0100
1000
0100
1000
,
0020
0000
0230
0000
,
0302
0000
0203
0000
,
0310
0100
0010
0100
,
0001
0010
0001
0010
,
0200
0000
2300
0000
,
3002
0000
0000
0000
,
1003
0100
0010
0001
,
2000
0000
3020
0000
,
1030
0100
0010
0001
,
2000
0000
3020
0000
,
1030
0010
0100
0001
,
0020
0000
0230
0000
,
0310
0001
1000
0010
,
0200
0000
0000
0300
,
0001
1000
0001
1000
,
0002
0000
0023
0000
,
0130
1000
0100
0010
,
0002
0000
0203
0000
,
0310
0100
0001
1000
,
0200
0000
2300
0000
,
3010
0100
0001
0100
,
0020
0000
0230
0000
,
0301
0001
1000
1000
,
0100
0100
0010
0010
,
0001
0001
0100
0100
,
0010
0010
0010
0010
,
1000
1000
0001
0001
,
0010
0010
0100
0100
,
1000
0010
0100
0001
,
2000
0000
0000
0000
,
3001
0000
0000
0000
,
0000
0000
0000
0000
,
0000
0000
0000
0000
,
0000
0000
0000
0000
,
0000
0000
0000
0000
,
0000
0000
0000
0000
,
0000
0000
0000
0000
,
0000
0000
0000
0000
,
0000
1001
0000
0000
,
0000
1001
0000
0000
,
0000
1001
0000
0000
,
0000
0110
0000
0000
,
0000
0110
0000
0010
,
0000
0110
0000
0100
,
0001
0010
0100
1000
,
0002
0000
2003
0000
,
3020
0000
0000
0000
,
0130
0010
0100
0010
,
1000
1000
0100
0010
,
0001
0010
0100
1000
,
0001
0001
0100
0010
,
1000
0010
0100
0001
,
1000
1000
0100
0010
,
0100
1000
0010
0100
,
0001
0001
1000
0010
,
0200
0000
0000
0000
,
0301
1000
0100
1000
,
0001
1000
0100
1000
,
0001
0100
0010
0100
,
0001
1000
0100
0010
,
0001
0100
0010
0100
,
0001
0010
0100
1000
,
0010
0010
0100
0100
,
0001
1000
0100
0010
,
0001
0000
0000
0000
,
2002
0000
0000
0000
,
3003
0000
0000
0000
;

//---------------dance-single - ----------------
#NOTES:
     dance-single:
     :
     Medium:
     10:
     0.454,0.533,0.478,0.246,0.000:
0000
0000
0000
0000
,
0000
0000
0000
0000
,
0000
0000
0000
0000
,
0000
0000
0000
0000
,
2001
0000
0000
0000
,
3200
0000
0000
0000
,
2300
0000
0000
0000
,
3010
0010
0010
0010
,
1001
1001
0100
0100
,
1001
1001
0100
0100
,
1001
0010
0100
1000
,
0001
0010
0100
1000
0001
0000
0001
0000
,
1001
1001
0010
0010
,
1001
1001
0010
0010
,
1001
0100
0010
0001
,
1000
0100
0010
0001
1000
0000
1000
0000
,
1001
1001
0100
0100
,
1001
1001
0100
0100
,
1001
0100
0010
1000
,
0001
0100
0010
1000
0001
0000
0001
0000
,
1001
1001
0010
0010
,
1001
1001
0010
0010
,
1001
0010
0100
0001
,
1000
0010
0100
0001
1000
0000
1000
0000
,
0002
0000
0203
0000
1300
0001
1000
0000
,
0200
0000
0302
0000
1003
0001
1000
0000
,
0002
0000
0023
0000
1030
0001
1000
0000
,
0020
0000
0032
0000
1003
0001
1000
0000
,
2001
0000
3020
0000
0031
1000
0001
0000
,
0020
0000
2030
0000
3001
1000
0001
0000
,
0100
0010
0100
0010
0100
0010
0100
0010
,
2000
0000
0000
3000
,
1001
0000
1001
0000
1000
0001
0100
0000
,
0002
0000
2003
0000
3100
0010
0001
0000
,
1001
0000
1001
0000
0001
1000
0100
0000
,
0020
0000
0230
0000
1300
0001
0100
0000
,
1001
0000
1001
0000
0001
0010
0100
0000
,
0020
0000
0032
0000
1003
0010
0100
0000
,
1001
0000
1001
0000
1000
0010
0100
0000
,
0002
0000
2003
0000
3100
0010
0001
0010
,
0100
0100
0100
0000
1001
0000
1001
0000
,
0010
0010
0010
0000
0110
0000
0110
0000
,
1000
1000
1000
0000
0110
0000
0110
0000
,
0001
0001
0001
0000
1100
0000
1100
0000
,
0010
0001
0100
0000
0010
1000
0100
0000
,
0010
0001
0100
0000
0010
1000
0100
0000
,
0010
0001
0010
0001
0010
0001
1000
0010
,
2000
0000
0000
3000
,
1002
0000
0000
0000
,
0000
0000
0000
0000
,
0000
0000
0000
0000
,
0000
0000
0000
0000
,
0203
0000
0000
0000
,
0000
0000
0000
0000
,
0000
0000
0000
0000
,
0000
0000
0000
0000
,
0310
1001
0000
0100
,
0100
1001
0000
0010
,
0010
1001
0000
1000
,
1000
0110
0000
0001
,
0001
0110
1000
0110
,
0001
0110
1000
0110
,
1001
1001
1001
1001
,
1000
0001
1000
0001
1000
0001
1000
0001
,
0200
0000
0000
0000
,
0310
0010
0010
0010
,
1001
0000
1001
0000
1000
0010
1000
0010
,
0100
0001
0010
0000
1100
0000
1100
0000
,
1001
0000
1001
0000
0001
0010
0001
0010
,
0100
1000
0010
0000
0101
0000
0101
0000
,
1001
0000
1001
0000
1000
0100
1000
0001
,
0010
0001
0100
0000
1010
0000
1010
0000
,
1000
0001
1000
0001
1000
0001
1000
0001
,
0020
0000
0000
0130
,
1000
0010
0001
0000
0010
0000
1000
0000
,
0001
0100
1000
0000
0100
0000
0001
0000
,
1000
0100
0001
0000
0100
0000
1000
0000
,
0001
0010
1000
0000
0010
0000
0001
0000
,
1000
0010
1000
0010
0100
0001
0100
0001
,
2000
0100
3200
0010
,
0310
0001
0010
0001
1000
0100
1000
0100
,
0010
0001
0010
1000
,
0010
0000
0000
0000
,
2002
0000
0000
0000
,
3003
0000
0000
0000
;

//---------------dance-single - ----------------
#NOTES:
     dance-single:
     :
     Hard:
     13:
     0.655,0.753,0.366,0.568,0.295:
0000
0000
0000
0000
,
0000
0000
0000
0000
,
0000
0000
0000
0000
,
0000
0000
0000
0000
,
1100
0010
0001
0010
,
0200
1000
0010
1300
,
0020
0001
0100
0031
,
1000
0000
1000
0000
1000
0001
0010
0100
,
1100
1001
0101
1010
,
1001
0011
1100
0110
,
0001
0000
1000
0000
0000
0100
0000
0000
0001
0000
0000
0100
0000
0000
1000
0000
,
0001
0000
0001
0000
0010
0000
0010
0000
0100
0000
0000
1000
0020
0000
0030
0000
,
0101
1001
1010
0110
,
1001
0000
0011
0000
1100
0000
2000
0001
,
3001
0000
1000
0000
0000
0010
0000
0000
0001
0000
0000
0010
0000
0000
1000
0000
,
0100
0000
0010
0100
0000
0010
0000
0001
0000
1000
0010
0000
0100
0000
0000
0000
,
1001
1010
0110
0101
,
1001
1100
0110
0021
,
0031
0000
0100
0000
0000
0010
0000
0000
1000
0000
0000
0100
0000
0000
0010
0000
,
0100
0000
0100
0000
1000
0000
1000
0000
0001
0000
0000
0100
0020
0000
0030
0000
,
1001
1100
0011
0110
,
1001
0001
1000
1000
0001
0010
0200
0010
,
0310
0000
0001
0000
0000
1000
0000
0000
0100
0000
0000
1000
0000
0000
0010
0000
,
0200
0001
0302
1000
2003
0000
3010
0000
,
0101
0100
0010
1000
0200
0010
0320
0001
,
0031
1000
0100
0001
0200
1000
2300
0010
,
3010
0000
0100
0000
0001
0000
1000
0000
0200
0000
1000
0000
1300
0000
0001
0100
,
0001
1000
0100
0010
0200
1000
2300
0001
,
3001
1000
0010
0100
0020
1000
2030
0001
,
3001
0100
1000
0100
0002
0010
0023
0100
,
0130
1000
0010
0001
0010
1000
0100
0010
,
0002
2003
3002
1003
,
0011
0001
1000
0010
0001
0010
1000
0100
,
0020
0100
0230
1000
2300
0001
0000
3001
,
1000
0010
0100
0010
1000
0100
0001
0100
,
2000
0010
3020
0100
0230
0001
0301
0000
,
1001
1000
0100
1000
0001
0100
1000
0100
,
0002
0010
0023
0100
0230
1000
1300
0000
,
0001
1000
0100
1000
0001
0010
1000
0010
,
0002
0100
0203
0010
0310
0010
1001
0000
,
0001
0100
0001
0000
0100
0010
0000
0000
1000
0001
1000
0000
0001
1000
0001
0000
,
1000
0010
1000
0000
0001
0010
0000
0000
0200
0000
0010
0000
0310
0000
0000
0000
,
0001
1000
0001
0000
1000
0010
0000
0000
0100
0010
0100
0000
0010
0100
0010
0000
,
1000
0001
1000
0000
0001
0010
0000
0000
0200
0000
0010
0000
0310
0000
0000
0000
,
1001
0000
0001
0010
0001
0000
1000
0000
0010
0000
0100
0010
0100
0000
0010
0000
,
2000
0000
0001
0000
3001
0000
1000
0100
0010
0000
0001
0000
0100
0010
0100
0010
,
0100
0001
0000
0010
0000
0100
0000
1000
0000
0001
0000
0100
0000
0001
1000
0000
,
0020
0230
0320
0130
,
2002
0000
0000
0000
,
0000
0000
0000
0000
,
0000
0000
0000
0000
,
0000
0000
0000
3000
,
0020
0000
0000
0000
,
0000
0000
0000
0000
,
0000
0000
0000
0000
,
0000
0000
0000
0033
,
0010
2002
0000
3003
,
0010
2002
0000
3003
,
0100
2002
0000
3003
,
0100
2002
0000
3003
,
0100
0000
2002
3003
0010
0000
2002
3003
,
0100
0000
2002
3003
0010
0000
2002
3003
,
1010
0110
0101
0110
,
0010
1000
0100
0010
0001
0100
0010
0100
,
0001
0000
1000
0000
0001
0000
1000
0000
0000
0100
0000
0000
0000
0000
0000
0010
0000
0000
0000
0000
0000
0001
0000
0000
,
0200
0010
0010
0310
,
1000
0001
1000
0000
0010
1000
0000
0000
0001
1000
0001
0000
1000
0001
1000
0000
,
0001
0010
0001
0000
1000
0010
0000
0000
0100
0000
0010
0000
1000
0000
0001
0000
,
0010
0100
0010
0000
0001
0100
0000
0000
0001
1000
0001
0000
1000
0001
1000
0000
,
0100
1000
0100
0000
0010
0100
0000
0000
1000
0000
0010
0000
0100
0000
0001
0000
,
0010
0100
0010
0000
0001
0100
0000
0000
0001
1000
0001
0000
1000
0001
1000
0000
,
0100
1000
0100
0000
0010
0100
0000
0000
1000
0000
0010
0000
0100
0000
0001
0000
,
1000
0000
0100
0000
0001
0000
0100
0000
1000
0001
1000
0001
0100
0010
0100
0010
,
2000
3000
2000
3000
2000
3000
2002
3003
,
1000
0000
0001
0000
0010
0000
0100
0000
0010
0001
0000
1000
0010
0000
1000
0000
,
0001
0000
0010
0000
0100
0000
0010
0000
0001
0100
0000
0001
1000
0000
0000
0000
,
0001
0000
0100
0000
1000
0000
0100
0000
0001
0010
0000
0100
0020
0000
0001
0000
,
0031
0000
0100
0000
0010
0000
0100
0000
0001
0010
0000
0100
0010
0000
0001
0000
,
1000
0100
0010
0001
0100
1000
0100
0001
,
0020
0000
0100
0000
0230
0000
1000
0000
1300
0000
0000
0001
0100
0000
0010
0000
,
1000
0001
0000
0100
0001
0100
0000
0001
1000
0001
0000
1000
0200
0000
0000
0000
,
0320
2030
3020
0032
,
1003
0000
0000
1000
0000
0000
0001
0000
0010
0000
0100
0000
1000
0000
0000
0000
,
0220
0000
0000
0000
,
0330
0000
0000
0000
;

//---------------dance-single - ----------------
#NOTES:
     dance-single:
     :
     Challenge:
     16:
     0.874,0.973,0.456,0.164,0.960: // measure 1
0000
0000
0000
0000
,  // measure 2
0000
0000
0000
0000
,  // measure 3
0000
0000
0000
0000
,  // measure 4
0000
0000
0000
0000
,  // measure 5
1002
0100
1000
0103
,  // measure 6
1020
0000
0000
1000
0000
0000
1000
0000
0000
0000
0000
0000
0130
0000
0000
0000
,  // measure 7
1002
0010
1000
0013
,  // measure 8
1001
0000
0000
0000
1001
0000
0000
0000
1001
0000
1000
0000
0001
0000
0010
0100
,  // measure 9
1000
0000
0000
1000
0010
0000
0000
0010
0100
0000
0000
0100
0001
0000
0000
0001
,  // measure 10
0100
0000
0000
0100
0010
0000
0000
0010
1000
0000
0000
1000
0100
0000
0000
0100
,  // measure 11
0010
0000
0001
0100
0000
0010
0100
0000
0001
0100
0000
0010
0100
0000
0001
0000
,  // measure 12
1000
0100
1000
0100
1000
0001
1000
0001
1000
0000
0001
0010
0200
0000
0300
0000
,  // measure 13
1001
0000
0000
1000
0100
0000
0000
0100
0010
0000
0000
0010
0001
0000
0000
0001
,  // measure 14
0010
0000
0000
0010
0100
0000
0000
0100
1000
0000
0000
1000
0002
0000
0010
0000
,  // measure 15
0013
0000
0100
1000
0000
0001
1000
0000
0100
1000
0000
0001
1000
0000
0100
0000
,  // measure 16
0010
0001
1000
0010
0000
0100
0000
0001
0000
0010
0100
1000
0020
0000
0030
0000
,  // measure 17
1001
0000
0000
0001
0010
0000
0000
0010
1000
0000
0000
1000
0010
0000
0000
0010
,  // measure 18
0001
0000
0000
0001
1000
0000
0000
1000
0100
0000
0000
0100
0020
0000
0000
0031
,  // measure 19
1000
0000
0001
0100
0000
0010
0100
0000
0001
0100
0000
0010
0100
0000
0001
0000
,  // measure 20
1000
0100
1000
0100
0010
0100
0010
0001
0010
0000
0001
1000
0020
0000
0030
0000
,  // measure 21
1001
0000
0000
0001
0100
0000
0000
0100
1000
0000
0000
1000
0100
0000
0000
0100
,  // measure 22
0001
0010
1000
0010
1001
1001
0110
0110
,  // measure 23
1000
0000
0010
0100
0000
0001
0100
0000
0010
0100
0000
0001
0100
0000
0010
0000
,  // measure 24
1000
0100
0010
0000
0001
0010
0100
0000
1000
0010
0100
0010
2000
0000
3000
0000
,  // measure 25
1001
0001
0100
0010
1010
1000
0001
0010
,  // measure 26
1100
1000
0001
0100
0110
0010
1000
0001
,  // measure 27
0110
0000
1000
0000
0010
0000
0100
0000
0101
0000
0001
0000
0010
0000
0100
0010
,  // measure 28
0001
0000
0100
0000
0010
0000
1000
0000
1001
0000
0001
0000
0100
0000
0010
0100
,  // measure 29
0001
0000
1000
0000
0100
0000
0010
0001
0100
0000
0100
0000
0010
0000
1000
0001
,  // measure 30
0010
0000
0010
0000
0100
0000
1000
0010
0100
0000
0100
0000
0010
0000
1000
0001
,  // measure 31
0010
0011
0100
0110
1000
1100
0001
1001
,  // measure 32
1000
0001
1000
0001
0010
0100
1000
0001
0010
0100
1000
0001
0100
0000
0000
0000
,  // measure 33
0001
1000
0001
0000
1000
0100
1000
0100
1000
0000
0001
0000
0100
0000
0000
0000
,  // measure 34
0010
0100
0010
0000
1000
0001
1000
0001
0010
0000
0100
0000
1000
0000
0001
0000
,  // measure 35
1000
0010
1000
0000
0100
0010
0100
0010
0001
0000
0100
0000
0010
0000
0000
0000
,  // measure 36
1000
0001
1000
0000
0001
0100
0010
0100
0001
0000
1000
0000
1001
0000
0000
0000
,  // measure 37
0001
1000
0100
0000
0010
0100
0010
0001
0100
0000
0010
0000
1000
0000
0000
0000
,  // measure 38
0100
1000
0100
0000
0010
0001
0100
0001
0010
0000
0100
0000
0010
0000
0001
0000
,  // measure 39
1000
0010
1000
0000
0001
0010
0100
0010
0001
0000
1000
0000
0010
0000
0000
0000
,  // measure 40
1001
0000
0001
0010
0000
0010
0100
0000
1010
0000
0101
0000
1001
0000
0000
0000
,  // measure 41
1000
0010
1000
0001
0010
0001
0000
0000
0010
0100
0010
0000
0100
1000
0100
0000
,  // measure 42
1000
0001
1000
0010
0100
0010
0000
0000
1000
0001
0010
0000
1001
0000
0000
0000
,  // measure 43
0001
0010
0001
1000
0010
0100
0000
0000
0010
1000
0010
0000
0100
0010
0100
0000
,  // measure 44
0001
0100
0001
1000
0100
1000
0001
0100
0001
1000
0100
0000
1100
0000
0000
0000
,  // measure 45
1001
0000
0001
0100
0010
0000
0010
0000
1000
0000
0100
0010
0001
0000
0001
1000
,  // measure 46
0100
0010
0001
1000
0010
1000
0000
1000
0001
0000
0010
0000
0100
1000
0000
1000
,  // measure 47
0010
0100
0000
0100
0000
0100
0001
1000
0100
0010
0000
0010
0000
0010
0001
1000
,  // measure 48
0001
0010
0001
0100
0010
1000
0100
1000
0100
0010
0100
0010
0001
0100
0010
0000
,  // measure 49
1000
0001
0000
1000
0100
0000
0000
0000
0000
0000
0000
0010
0000
0000
0001
0000
,  // measure 50
0000
1000
0000
0000
1000
0000
0000
0000
0000
0000
0000
0010
0000
0000
0100
0000
,  // measure 51
0000
0001
0000
0000
0001
0000
0000
0000
0000
0000
0000
0010
0000
0000
0001
0000
,  // measure 52
1000
0100
0010
0000
0100
0000
1000
0000
0000
0001
0000
0001
0100
0000
0010
0000
,  // measure 53
0100
0001
0000
1000
0100
0000
0000
0000
0000
0000
0000
0010
0000
0000
0001
0000
,  // measure 54
0000
0100
0000
0000
0100
0000
0000
0000
0000
0001
0000
1000
0100
1000
0100
0000
,  // measure 55
0010
0100
0000
0000
0100
0000
0000
0000
0000
0000
0000
1000
0000
0000
1000
0000
,  // measure 56
0010
0000
0100
0000
1000
0000
0100
0000
0010
0000
1000
0001
0100
0010
0100
0000
,  // measure 57
0010
1000
0100
0000
0011
0000
0000
0000
0000
0000
0010
0001
0000
0010
0001
0000
,  // measure 58
1000
0010
0100
0000
1010
0000
0000
0000
0000
0000
0010
1000
0000
0010
1000
0000
,  // measure 59
0001
0010
0100
0000
1010
0000
0000
0000
0000
0000
0010
0100
0000
0010
0100
0000
,  // measure 60
0001
1000
0100
0000
0011
0000
0000
0000
0000
0000
0010
0001
0000
0010
0001
0000
,  // measure 61
1000
0010
0100
0000
1001
0000
0000
0000
0001
0100
0010
0000
1001
0000
0000
0000
,  // measure 62
1000
0100
0010
0000
1001
0000
0000
0000
0001
0010
0100
0000
1001
0000
0000
0000
,  // measure 63
2100
3020
0230
0302
,  // measure 64
1003
0100
0001
1000
0010
0001
1000
1000
,  // measure 65
0010
0000
0100
0000
0001
0000
0010
0000
0000
0011
0000
0000
0000
0000
0000
1100
0000
0000
0000
0000
0000
0110
0000
0000
,  // measure 66
1002
0000
0000
0000
2003
0000
0000
0000
3002
0000
0000
0000
1003
0001
0010
0100
,  // measure 67
1000
0010
0100
0010
1000
0100
0000
0000
0010
0100
0010
0000
0001
0010
0001
0000
,  // measure 68
0010
0100
1000
0010
1000
0001
0000
0000
0010
0001
0010
0000
0100
1000
0100
0000
,  // measure 69
1000
0001
1000
0001
0100
0010
0000
0000
1000
0010
1000
0000
0010
0100
0010
0000
,  // measure 70
1000
0001
1000
0100
0010
0100
1000
0000
0010
0100
0000
0001
0010
0000
0100
0000
,  // measure 71
0010
0001
1000
0010
0100
0010
0000
0000
1000
0001
1000
0000
0001
0010
0001
0000
,  // measure 72
0100
0010
1000
0001
0010
0100
0000
0000
1000
0010
1000
0000
0001
1000
0001
0000
,  // measure 73
0011
0000
0011
0000
0110
0000
0110
0000
1000
0100
0010
0100
1000
0001
0100
0010
,  // measure 74
1000
0101
1000
0101
1000
0101
2002
3003
,  // measure 75
1000
0010
0001
0010
1000
0000
0100
0000
0010
0100
0000
1000
0010
0000
0010
0000
,  // measure 76
1000
0010
0001
0010
1000
0000
0100
0000
0010
0200
0000
1300
0001
0000
0001
0000
,  // measure 77
1000
0100
0001
0100
1000
0000
0100
0000
0010
0001
0000
0100
0010
0000
2000
0000
,  // measure 78
3001
1000
0100
0001
0100
0000
1000
0000
0010
1000
0000
0001
0010
0000
0010
0000
,  // measure 79
0101
0000
0110
0000
1010
0000
1001
0000
0001
0010
1000
0010
0001
1000
0100
0000
,  // measure 80
0010
0100
1000
0000
1000
0000
0110
0000
0110
0000
0000
0010
0001
0100
0000
0100
,  // measure 81
0001
1000
0000
0001
0010
0100
0000
1000
0010
0100
0010
1000
0100
0010
0001
0010
,  // measure 82
0100
1000
0001
0100
0001
0100
0010
1000
0010
1000
0001
0010
0100
1000
0010
0000
,  // measure 83
0110
0000
0000
0100
0000
0000
0001
0000
0010
0000
1000
0000
0010
0000
0000
0000
,  // measure 84
0022
0000
0000
0000
,  // measure 85
0033
0000
0000
0000
;

//---------------dance-single - ----------------
#NOTES:
     dance-single:
     :
     Beginner:
     3:
     0.139,0.248,0.142,0.000,0.000:
0000
0000
0000
0000
,
0000
0000
0000
0000
,
0000
0000
0000
0000
,
0000
0000
0000
0000
,
1001
0000
0000
0000
,
0000
0000
0000
0000
,
1000
0000
0000
0000
,
0001
0001
0001
0000
,
1000
0000
0100
0000
,
0010
0000
0100
0000
,
1000
0000
1000
0000
,
0001
0000
0000
0000
,
0100
0000
0010
0000
,
0100
0000
0001
0000
,
1000
0000
1000
0000
,
0100
0000
0000
0000
,
0010
0000
0001
0000
,
0010
0000
0001
0000
,
0100
0000
0100
0000
,
0010
0000
0000
0000
,
1000
0000
0001
0000
,
1000
0000
0000
0000
,
0100
0000
1000
0000
,
0010
0000
0000
0000
,
1001
0000
0000
0000
,
1000
0000
0000
0000
,
1001
0000
0000
0000
,
0001
0000
0000
0000
,
1001
0000
0000
0000
,
1000
0000
0000
0000
,
1001
0000
0000
0000
,
1001
0000
0000
0000
,
0001
0000
0100
0000
,
0001
0000
1000
0000
,
0001
0000
0100
0000
,
0001
0000
0000
0000
,
1000
0000
0010
0000
,
1000
0000
0001
0000
,
1000
0000
0010
0000
,
1000
0000
0000
0000
,
1001
0000
0001
0000
,
1000
0000
1001
0000
,
0110
0000
0100
0000
,
0010
0000
0100
0000
,
1001
0000
0001
0000
,
1000
0000
0001
0000
,
0010
0000
0100
0000
,
1000
1000
1000
0000
,
1001
0000
0000
0000
,
0000
0000
0000
0000
,
0000
0000
0000
0000
,
0000
0000
0000
0000
,
0001
0000
0000
0000
,
0000
0000
0000
0000
,
0000
0000
0000
0000
,
0000
0000
0000
0000
,
0000
1001
0000
0000
,
0000
1001
0000
0000
,
0000
1001
0000
0000
,
0000
1001
0000
0000
,
0000
1001
0000
1000
,
0000
0001
0000
1000
,
0000
0000
0000
0000
,
0000
0000
0000
0000
,
1001
0000
0000
0000
,
0001
0000
0000
0000
,
0100
0000
0010
0000
,
0100
0000
0000
0000
,
0001
0000
1000
0000
,
0001
0000
0000
0000
,
1000
0000
0100
0000
,
1000
0000
0000
0000
,
0001
0000
1000
0000
,
0001
0000
0000
0000
,
1001
0000
1000
0000
,
0001
0000
0001
0000
,
1000
0000
1000
0000
,
0001
0000
0001
0000
,
0010
0000
0100
0000
,
1000
0000
0000
0000
,
0001
0000
0100
0000
,
0000
0010
0000
0000
,
1000
0000
0000
0000
,
1001
0000
0000
0000
;
