#TITLE:snow storm;
#SUBTITLE:-euphoria-;
#ARTIST:Yooh;
#TITLETRANSLIT:;
#SUBTITLETRANSLIT:;
#ARTISTTRANSLIT:;
#CREDIT:DigiMindAxel;
#BANNER:snow storm -euphoria-.png;
#BACKGROUND:snow storm -euphoria--bg.png;
#LYRICSPATH:;
#CDTITLE:SOUND VOLTEX.png;
#MUSIC:snow storm -euphoria-.ogg;
#METERTYPE:DDR X;
#OFFSET:-7.052;
#SAMPLESTART:48.353;
#SAMPLELENGTH:12.000;
#SELECTABLE:YES;
#BPMS:0.000=180.000,56.000=90.000,72.000=180.000,287.000=130.000,297.000=103.000,298.000=89.000;
#STOPS:104.000=1.000
;
#BGCHANGES:;

//---------------dance-single - ----------------
#NOTES:
     dance-single:
     :
     Easy:
     6:
     0.294,0.375,0.066,0.133,0.000: // measure 1
1000
0000
0100
0000
,  // measure 2
0010
0000
0001
0000
,  // measure 3
0200
0000
0302
0000
,  // measure 4
2003
0000
3200
0000
,  // measure 5
1300
0010
1000
0000
,  // measure 6
0001
1000
0001
0000
,  // measure 7
0020
0000
0032
0000
,  // measure 8
0103
0010
0100
0010
,  // measure 9
1000
0001
1000
0000
,  // measure 10
0100
1000
0100
0000
,  // measure 11
0010
0001
0010
0001
,  // measure 12
1000
1000
1000
2002
,  // measure 13
0000
0000
0000
0000
,  // measure 14
0000
0000
0000
3003
,  // measure 15
0001
0000
0100
0000
,  // measure 16
0010
0000
1000
0000
,  // measure 17
0001
0000
0010
0000
,  // measure 18
0100
0000
1000
0000
,  // measure 19
0001
0000
0001
0000
,  // measure 20
1000
0000
1000
0000
,  // measure 21
0001
0000
0001
0000
,  // measure 22
0100
0000
0100
0000
,  // measure 23
0010
0000
0010
0000
,  // measure 24
1000
0000
1000
0000
,  // measure 25
0001
1000
0001
1000
,  // measure 26
0001
0000
0000
0000
,  // measure 27
2002
3003
1000
0000
0100
0000
1000
0000
,  // measure 28
0100
1000
0001
1000
,  // measure 29
0001
0100
0001
0100
,  // measure 30
0010
0100
0010
1000
,  // measure 31
0100
0010
0001
0010
,  // measure 32
0001
0100
0010
0100
,  // measure 33
0010
1000
0100
0010
,  // measure 34
0001
1000
1000
0001
,  // measure 35
0001
0100
0010
0100
,  // measure 36
0010
0100
0001
0100
,  // measure 37
0001
0010
0100
0010
,  // measure 38
0100
1000
0010
0100
,  // measure 39
0001
1000
0100
1000
,  // measure 40
0100
1000
0001
1000
,  // measure 41
0001
0100
0010
0100
,  // measure 42
0010
1000
0100
0010
,  // measure 43
0001
1001
0000
1000
,  // measure 44
0000
1001
0000
0001
,  // measure 45
0000
1001
0000
1000
,  // measure 46
0000
1001
0000
0001
,  // measure 47
0000
0100
0010
0100
,  // measure 48
0010
1000
0100
1000
,  // measure 49
0100
0010
0001
0100
,  // measure 50
0001
0010
0010
0010
,  // measure 51
0010
0002
0000
2003
,  // measure 52
0000
3100
0010
0001
,  // measure 53
0010
0100
0000
1000
,  // measure 54
0001
0100
0001
1000
,  // measure 55
0100
0010
0001
1000
,  // measure 56
0100
1000
0001
1000
,  // measure 57
0100
0010
0001
0100
,  // measure 58
0010
0100
0010
0100
,  // measure 59
0001
0100
0001
1000
,  // measure 60
0100
0010
0001
1000
,  // measure 61
0010
0100
0010
1000
,  // measure 62
1000
0001
0001
0010
,  // measure 63
0100
0010
0100
1000
,  // measure 64
0010
0100
0001
1000
,  // measure 65
0010
0100
0001
1000
,  // measure 66
0000
1001
0000
0001
,  // measure 67
0000
1001
0000
1000
,  // measure 68
0100
1000
0010
0100
,  // measure 69
0100
0100
0100
0200
,  // measure 70
0000
0320
0000
0230
,  // measure 71
0000
0000
0000
0000
,  // measure 72
0000
0000
0000
0310
,  // measure 73
0000
0000
0000
1000
,  // measure 74
0000
0001
0000
1000
,  // measure 75
0000
0000
0000
0000
0020
0000
0000
0000
0000
0000
0000
0030
0000
0000
0000
0000
,  // measure 76
0000
0100
0000
0000
;

//---------------dance-single - ----------------
#NOTES:
     dance-single:
     :
     Medium:
     10:
     0.459,0.538,0.282,0.249,0.004: // measure 1
1020
0000
0230
0000
,  // measure 2
0302
0000
2003
0000
,  // measure 3
3001
0001
0100
0100
,  // measure 4
0010
0010
1000
1000
,  // measure 5
1002
0000
0023
0000
,  // measure 6
0230
0000
2300
0000
,  // measure 7
3001
0001
0100
0100
,  // measure 8
0110
1001
0110
1001
,  // measure 9
1001
0001
0010
0010
,  // measure 10
0100
0100
1000
1000
,  // measure 11
0001
0100
0010
0100
,  // measure 12
0001
1000
0100
1000
0001
0000
2002
0000
,  // measure 13
0000
0000
0000
0000
,  // measure 14
0000
0000
0000
3003
,  // measure 15
1001
0000
1000
0010
,  // measure 16
0100
0100
0001
0001
,  // measure 17
0010
0100
0010
0100
,  // measure 18
1000
0010
0100
0001
,  // measure 19
1000
0001
1000
0000
,  // measure 20
0100
1000
0100
0000
,  // measure 21
0010
0001
0010
0000
,  // measure 22
0001
0100
0010
0100
,  // measure 23
0001
0001
1000
1000
,  // measure 24
0100
0100
0010
0010
,  // measure 25
0100
1000
0010
0100
,  // measure 26
0001
1000
0100
0010
,  // measure 27
0002
0003
1000
0010
0100
0000
0001
0000
,  // measure 28
0001
0000
0010
0100
1000
0000
0010
0000
,  // measure 29
0010
0000
0100
0001
1000
0000
0100
1000
,  // measure 30
0001
0000
0100
0001
0100
0001
1000
0100
,  // measure 31
1000
0001
0100
1000
,  // measure 32
0100
0001
0010
1000
,  // measure 33
0010
0000
0001
0000
1000
0100
1000
0010
,  // measure 34
0100
0001
0010
0000
0010
0000
0100
0000
,  // measure 35
0100
0000
1000
0010
1000
0000
0001
0000
,  // measure 36
0001
0000
0010
0100
0010
0000
0100
0000
,  // measure 37
0100
1000
0010
0001
,  // measure 38
0010
1000
0100
0001
,  // measure 39
0100
0000
1000
0001
1000
0001
0100
0001
,  // measure 40
0100
0000
0001
1000
0001
1000
0100
1000
,  // measure 41
0100
0000
0010
0001
0010
0000
0100
0010
,  // measure 42
0100
0000
1000
0010
0100
0001
1000
0010
,  // measure 43
0100
0101
0000
1001
,  // measure 44
0000
1010
0000
1001
,  // measure 45
0000
0011
0000
0110
,  // measure 46
0000
1100
1000
1001
,  // measure 47
0001
0101
0101
0110
,  // measure 48
0110
1010
1010
1001
,  // measure 49
1001
0110
0101
0110
,  // measure 50
1010
0000
1000
0100
0010
0001
1000
0100
,  // measure 51
0010
0000
0001
0100
0001
1000
0001
0100
,  // measure 52
0001
0000
0100
0010
1000
0010
0100
0010
,  // measure 53
1000
0010
0200
0000
0000
0000
0301
1000
,  // measure 54
0100
0000
0010
0000
0010
0000
0100
1000
,  // measure 55
0010
0000
0100
0000
0100
0000
0001
1000
,  // measure 56
0100
0000
0010
0001
1000
0000
0100
1000
,  // measure 57
0100
1000
0010
0100
0010
0100
0002
0000
,  // measure 58
0203
2300
3200
0302
,  // measure 59
0023
2030
3020
0032
,  // measure 60
2003
3200
0302
0203
,  // measure 61
1300
0000
0010
0100
0010
1000
0001
0010
,  // measure 62
0100
0000
0010
0000
0010
0000
0001
1000
,  // measure 63
0010
0000
0100
0000
0100
0000
0001
1000
,  // measure 64
0100
0010
0001
1000
0010
0000
0100
0001
,  // measure 65
0010
0100
1000
0000
1100
0000
0110
0000
,  // measure 66
0000
1001
0000
0011
,  // measure 67
0000
0000
1001
0000
1000
0000
0100
1000
,  // measure 68
0100
0000
0010
0100
0010
0000
0001
1000
,  // measure 69
0001
1000
0001
1000
0001
1000
0100
0010
,  // measure 70
0001
0100
0020
0000
2030
0000
3200
0000
,  // measure 71
0000
0000
0000
0000
,  // measure 72
0000
0000
0000
0310
,  // measure 73
0000
0000
0000
0001
,  // measure 74
0100
0000
0010
0000
1000
0000
0100
0010
,  // measure 75
0100
0000
0000
0000
1000
0000
0010
0000
0100
0000
0000
0002
0000
0000
0000
0000
,  // measure 76
0000
2003
0000
0000
,  // measure 77
0000
3000
0000
0000
;

//---------------dance-single - ----------------
#NOTES:
     dance-single:
     :
     Hard:
     13:
     0.651,0.918,0.108,0.432,0.066: // measure 1
2000
0100
3200
0010
,  // measure 2
0320
0001
0032
1000
,  // measure 3
1003
0001
0010
0100
0010
0100
1000
0000
,  // measure 4
0001
1000
0010
0100
0010
0100
0001
1000
,  // measure 5
0200
0010
0320
0001
,  // measure 6
0032
0100
0203
0010
,  // measure 7
0310
1000
0001
0010
0100
0010
0100
1000
,  // measure 8
0001
1000
0000
0010
1000
0000
0000
0001
0010
0000
0000
0001
2000
0000
0000
0000
,  // measure 9
3100
0010
0100
0010
0100
0010
0100
0010
,  // measure 10
0001
1000
0001
1000
0001
1000
0001
1000
,  // measure 11
0001
0010
0001
0010
0100
1000
0100
1000
,  // measure 12
0001
0000
0000
0100
0000
0000
0000
0000
0000
0001
0000
0000
1000
0000
0000
0000
0000
0000
0000
0000
0000
0000
0000
0000
0010
0000
0000
0000
0100
0000
0000
0000
0010
0000
0000
0000
0200
0000
0000
0000
0000
0000
0000
0000
0000
0000
0000
0000
,  // measure 13
0000
0000
0000
0000
,  // measure 14
0000
0000
0000
0300
,  // measure 15
1002
0000
0203
0320
,  // measure 16
2030
3002
0023
0230
,  // measure 17
2300
3020
0032
0023
2030
3002
0203
2300
,  // measure 18
3200
0302
2003
3020
1030
0001
0010
0100
,  // measure 19
1000
0010
1000
0001
,  // measure 20
1000
0100
1000
0001
,  // measure 21
1000
0100
0001
0100
,  // measure 22
1000
0010
0001
0010
,  // measure 23
1000
0001
1000
0001
0010
0001
0010
0001
,  // measure 24
1000
0010
1000
0010
0100
0010
0100
0010
,  // measure 25
1000
0100
0010
0001
1000
0010
1000
0000
,  // measure 26
0001
0010
0100
1000
0001
0100
0001
0000
,  // measure 27
2002
3003
1000
0001
0010
0001
1000
0010
,  // measure 28
0100
0001
1000
0100
1000
0001
0100
0010
,  // measure 29
1000
0100
1000
0100
0001
0100
1000
0010
,  // measure 30
0001
0010
1000
0100
0001
0100
1000
0100
,  // measure 31
0010
0001
1000
0100
1000
0100
0001
0100
,  // measure 32
0001
0100
1000
0100
1000
0100
0001
0100
,  // measure 33
0001
0100
1000
0001
0010
0100
1000
0001
,  // measure 34
0010
0100
1000
0010
0100
0001
1000
0010
,  // measure 35
0100
0001
1000
0001
0010
0001
1000
0010
,  // measure 36
0100
0001
1000
0100
0010
0100
1000
0001
,  // measure 37
0100
0010
1000
0010
0001
0010
1000
0100
,  // measure 38
0001
0100
1000
0010
0001
0010
1000
0100
,  // measure 39
0010
0001
1000
0010
1000
0010
0001
0010
,  // measure 40
0001
0010
1000
0010
1000
0010
0001
0010
,  // measure 41
0001
0010
1000
0100
0001
0100
1000
0001
,  // measure 42
0100
0001
1000
0010
0001
0010
1000
0001
,  // measure 43
0100
0001
2002
0000
3003
0000
2200
0000
,  // measure 44
3300
0220
0330
0022
,  // measure 45
0033
2002
3003
0202
,  // measure 46
0303
0000
1010
0000
1000
0000
0001
1000
,  // measure 47
0100
0010
0001
0001
0001
0000
0010
0001
,  // measure 48
1000
0001
0010
0010
0010
0000
0100
1000
,  // measure 49
0010
0100
0001
0010
0001
0010
0100
1000
,  // measure 50
0100
1000
0010
0100
0010
0100
0001
0010
,  // measure 51
1000
0010
0001
1000
0001
1000
0100
0010
,  // measure 52
0100
0010
0001
0100
1000
0100
0001
0010
,  // measure 53
1000
0010
0002
0000
0000
0000
1003
0010
,  // measure 54
1000
0001
0010
0100
0010
0001
1000
0001
,  // measure 55
0100
0001
1000
0010
0100
0001
0010
0100
,  // measure 56
0010
0100
1000
0010
0100
0001
0010
0100
,  // measure 57
0010
0100
1000
0010
0001
0010
1000
0100
,  // measure 58
1000
0100
0001
0100
0001
0100
1000
0010
,  // measure 59
1000
0010
0001
0010
0001
0010
1000
0100
,  // measure 60
0001
0100
1000
0010
0001
0010
1000
0100
,  // measure 61
0010
0001
0100
1000
0100
0001
1000
0100
,  // measure 62
0010
0100
1000
0010
0001
0010
1000
0001
,  // measure 63
0010
0001
1000
0100
0001
0100
1000
0010
,  // measure 64
0100
0001
1000
0010
0001
0010
1000
0100
,  // measure 65
0010
0000
0000
0001
0000
0000
0100
0000
0010
0000
0100
0000
0001
0000
0010
0000
0001
0000
2000
0000
0000
0000
0000
0000
,  // measure 66
3000
2002
3003
0220
,  // measure 67
0330
0000
1001
0000
1001
0000
1000
0001
,  // measure 68
0010
0001
1000
0100
0001
0100
1000
0010
,  // measure 69
0100
0000
0010
0000
1000
0000
0100
0000
0010
0000
0001
0000
1000
0000
0001
0100
,  // measure 70
0001
0000
1000
0001
1000
0000
0100
1000
0100
0000
0010
0000
0002
0000
0000
0000
,  // measure 71
0000
0000
0000
0000
,  // measure 72
0000
0000
0000
1003
,  // measure 73
0000
0000
0000
0001
,  // measure 74
1000
0000
0001
0000
0100
0010
1000
0010
,  // measure 75
0001
0000
0010
0000
1000
0000
0100
0000
0010
0000
0001
1000
0020
0000
0000
0000
,  // measure 76
0000
0200
0000
0000
,  // measure 77
0000
0330
0000
0000
;

//---------------dance-single - ----------------
#NOTES:
     dance-single:
     :
     Challenge:
     17:
     0.974,1.000,0.066,0.158,1.000:
1002
0013
0120
0130
,
1200
1300
2001
3001
,
1000
0010
0000
1000
0001
0000
0010
0000
0200
0000
0000
1000
0000
0000
1300
0000
,
0001
0100
0000
0001
1000
0000
0100
0000
0010
0001
0010
0001
1000
0001
1000
0001
,
2000
3100
1002
0013
,
0210
0000
0000
0000
1300
0000
0000
0000
0120
0000
0000
0000
0031
0000
1000
0100
,
1000
0001
0000
0100
0000
0000
0001
1000
0001
0000
0000
0100
0000
0000
0010
0000
,
1000
0100
0000
0010
0001
0010
0000
0001
1000
0001
0000
1000
0010
0100
0010
0100
,
0001
0000
1000
0000
0100
0000
0010
0000
0001
0000
1000
0000
0100
0000
0010
0001
,
1000
0000
0010
0000
0100
0000
0001
0000
1000
0000
0010
0000
0100
0000
0001
1000
,
0100
0000
0010
0000
0100
0000
1000
0001
0100
0000
0001
0000
1000
0000
0100
0000
,
0010
0000
0000
0100
0000
0000
0000
0000
0000
1000
0000
0000
0001
0000
0000
1000
0000
0000
0000
0000
0000
0010
0000
0000
0100
0000
0000
0000
0001
0000
0000
0000
1000
0000
0000
0000
0200
0000
0000
0000
0000
0000
0000
0000
0000
0000
0000
0000
,
0000
0000
0000
0000
,
0000
0000
0000
0300
,
1001
0000
0001
0000
0100
0000
0100
0000
0010
0000
0010
0000
0100
0001
0100
0001
,
1000
0100
0010
0100
1000
0100
0010
0100
2000
0000
0000
0000
3001
0000
0001
0000
,
0001
0100
0010
1000
0001
0100
0010
1000
0001
0010
1000
0010
0001
0100
1000
0100
,
0001
0010
0100
1000
0001
0010
0100
1000
0010
0000
0001
0000
0010
0000
1000
0000
,
0001
0000
0100
0000
0001
0000
0100
0000
0010
0000
0000
1000
0000
0000
0001
0000
,
0010
0000
0100
0000
0010
0000
0100
0000
1000
0000
0000
0001
0000
0000
0100
0000
,
0010
0000
1000
0000
0010
0000
1000
0000
0001
0000
0000
0010
0000
0000
0100
0000
,
0010
0001
0010
0001
0100
0100
0010
0010
,
1000
0100
0010
0100
1000
0001
0100
0001
,
1000
0100
0010
0100
1000
0001
0100
0001
,
1000
0000
0010
1000
0010
1000
0001
1000
0001
0000
0010
0001
0010
0001
0010
0000
,
0100
1000
0100
1000
0010
0100
0010
0100
0001
0010
0001
0010
0100
1000
0100
1000
,
0002
0000
0003
0000
1000
0000
0001
0100
0001
0000
1000
0000
0100
0000
0100
0000
,
0010
0000
0010
0000
0001
0000
1000
0010
1000
0000
0001
0000
0100
0000
0100
0000
,
0010
0000
0010
0000
1000
0000
0001
0010
0100
0000
1000
0000
1000
0000
0010
0100
,
0001
0000
1000
0000
0001
0100
0001
0000
1000
0100
1000
0001
0010
0100
1000
0000
,
0001
0100
0001
0001
0100
0100
1000
1000
,
0100
0100
0001
0001
0010
0010
1000
1000
,
0010
0000
0010
0000
0001
0000
0100
0000
0010
1000
0010
1000
0001
0000
0010
0001
,
0010
0001
1000
0000
0001
0100
0001
0100
0010
1000
0010
1000
0100
0010
0100
0010
,
0001
0100
0001
0100
0001
0000
1000
0001
0010
0000
0100
0000
1000
0000
1000
0000
,
0010
0000
0010
0000
0100
0000
0001
1000
0100
0000
0010
0000
0001
0000
0001
0000
,
0100
0000
0100
0000
0010
0000
1000
0100
0010
0001
1000
0000
0001
0000
1000
0100
,
0010
0001
1000
0010
1000
0010
0100
0001
0100
0001
1000
0100
1000
0100
0010
0100
,
0010
0001
0010
0001
1000
0000
0001
0100
0010
0100
0001
0000
1000
0001
1000
0000
,
0100
1000
0100
0000
0010
0001
0010
0000
0100
0010
0100
0000
1000
0010
0100
0010
,
1000
0010
0100
0000
0001
1000
0001
1000
0100
0010
0100
1000
0001
1000
0001
1000
,
0010
0100
0010
1000
0001
0010
0001
0010
0100
1000
0100
1000
0001
1000
0010
1000
,
0001
0100
0010
0100
0001
0000
0010
0100
0010
0000
0001
1000
0001
0000
0100
0000
,
1000
0000
0100
0000
0001
0000
0001
0000
1000
0100
0010
0100
1000
0000
0010
0000
,
0001
0000
0010
0000
1000
0000
0100
0010
0001
0000
0001
0000
1000
0000
0100
0000
,
0001
0000
0100
0000
1000
0000
0010
0100
0001
0000
0001
0000
1000
0000
0010
0000
,
0001
0000
0010
0000
1000
0000
0100
1000
0100
0000
0010
0001
1000
0010
0100
0001
,
0010
0000
0100
0000
1000
0000
1000
0000
1000
0000
0001
0100
0001
1000
0100
0010
,
0100
1000
0001
0000
1000
0010
1000
0001
0010
0100
1000
0001
1000
0100
0010
0001
,
1000
0010
1000
0000
0001
0100
0010
0000
0100
0010
1000
0000
0001
0010
0001
0100
,
0010
1000
0100
0000
0010
0001
0010
0001
1000
0100
1000
0100
1000
0010
0100
0001
,
0100
0010
1000
0100
1000
0001
1000
0001
0100
0001
0100
0001
1000
0100
0010
0100
,
1000
0001
0100
0001
2000
0000
0000
0000
0000
0000
0000
0000
3001
0000
1000
0010
,
0100
0000
0001
0000
0010
0100
0010
0100
1000
0001
0100
0001
1000
0000
0100
0010
,
0001
0000
1000
0000
0100
0010
0100
0010
0001
1000
0100
1000
0001
0000
0010
0100
,
1000
0000
0001
0000
0100
0010
0100
0010
1000
0100
0010
0001
1000
0000
0010
0100
,
0001
0000
1000
0001
0010
0000
0100
1000
0100
0010
0001
0000
1000
0010
1000
0010
,
0100
0001
0100
0001
0010
0100
0010
0100
1000
0100
0010
0001
1000
0010
1000
0010
,
0100
0001
0100
0001
0010
0100
0010
0100
1000
0001
0010
0100
0010
0001
1000
0010
,
1000
0001
0010
0100
0010
0100
1000
0010
1000
0010
0100
0001
0100
0001
1000
0100
,
0010
0100
1000
0100
0010
0001
1000
0010
1000
0001
0010
0000
0001
0000
0010
0100
,
1000
0000
0010
1000
0010
1000
0100
0010
0001
0010
0100
0010
0001
0000
0100
0010
,
1000
0000
0100
0010
0100
0010
0001
1000
0010
0100
0001
0010
0001
0000
1000
0001
,
1000
0100
0010
0001
1000
0100
0010
0100
1000
0010
0100
0010
1000
0010
0100
0001
,
1000
0000
0000
0010
0000
0000
0100
0000
0000
0010
0000
0000
1000
0000
0000
0000
0100
0000
0000
0000
0001
0000
0000
0000
1000
0000
0000
0000
0010
0000
0000
0000
0001
0000
0000
0000
1000
0000
0000
0000
0000
0000
0010
0000
0000
0100
0000
0000
,
0010
0000
1000
0000
0001
1000
0010
1000
0001
0000
0010
0000
0100
1000
0001
1000
,
0100
0000
0010
0000
0001
0000
0001
0000
1000
0000
1000
0000
0100
0010
0100
0010
,
0001
0100
0001
0100
0010
1000
0010
1000
0100
0010
0001
1000
0010
0100
0010
1000
,
0001
0010
0001
1000
0010
0100
0010
1000
0100
0010
0001
1000
0100
0010
0001
1000
,
0010
1000
0001
1000
0010
1000
0001
0010
0100
1000
0001
0100
0002
0000
0000
0000
,
0000
0000
0000
0000
,
0000
0000
0000
1003
,
0000
0000
0000
0000
0000
0000
0000
0000
0000
0000
0000
0000
0000
0000
0000
0000
0001
0100
0002
0000
0000
0000
0000
0000
,
2003
0000
0000
0000
3020
0000
0000
0000
0130
0000
0001
1000
0001
0000
0100
0000
,
1000
0000
0000
0000
0100
0000
0000
0000
0001
0000
0000
0000
0010
0000
0000
0000
0100
0000
0000
0000
1000
0000
0001
0100
0002
0000
0000
0000
0000
0000
0000
0000
,
0000
2000
0000
0000
,
0000
3003
0000
0000
;

//---------------dance-single - ----------------
#NOTES:
     dance-single:
     :
     Beginner:
     3:
     0.114,0.155,0.050,0.000,0.000: // measure 1
1000
0000
0001
0000
,  // measure 2
1000
0000
0001
0000
,  // measure 3
0100
0000
0000
0000
,  // measure 4
0010
0000
0000
0000
,  // measure 5
1000
0000
0001
0000
,  // measure 6
1000
0000
0001
0000
,  // measure 7
0100
0000
0010
0000
,  // measure 8
0100
0000
0000
0000
,  // measure 9
0001
0000
1000
0000
,  // measure 10
0001
0000
1000
0000
,  // measure 11
0100
0000
0000
0000
,  // measure 12
0010
0000
0000
0000
,  // measure 13
0000
0000
0000
0000
,  // measure 14
0000
0000
0000
0000
,  // measure 15
1001
0000
0000
0000
,  // measure 16
0001
0000
0000
0000
,  // measure 17
0010
0000
0000
0000
,  // measure 18
0001
0000
0000
0000
,  // measure 19
1000
0000
0000
0000
,  // measure 20
0100
0000
0000
0000
,  // measure 21
0010
0000
0000
0000
,  // measure 22
0100
0000
0000
0000
,  // measure 23
0010
0000
0000
0000
,  // measure 24
0001
0000
0000
0000
,  // measure 25
1000
0000
0000
0000
,  // measure 26
0010
0000
0000
0000
,  // measure 27
0000
1001
0000
0000
,  // measure 28
0000
1000
0000
0000
,  // measure 29
0000
0001
0000
0000
,  // measure 30
0000
1000
0000
0000
,  // measure 31
0000
0100
0000
0000
,  // measure 32
0000
0010
0000
0000
,  // measure 33
0000
0100
0000
0000
,  // measure 34
0000
0010
0000
0000
,  // measure 35
0000
0001
0000
0000
,  // measure 36
0000
1000
0000
0000
,  // measure 37
0000
0001
0000
0000
,  // measure 38
0000
0010
0000
0000
,  // measure 39
0000
0001
0000
0000
,  // measure 40
0000
0100
0000
0000
,  // measure 41
0000
0010
0000
0000
,  // measure 42
0000
1000
0000
0000
,  // measure 43
0000
1001
0000
0000
,  // measure 44
0000
0000
0000
0000
,  // measure 45
0000
0001
0000
0000
,  // measure 46
0000
0000
0000
0000
,  // measure 47
0000
1000
0000
0000
,  // measure 48
0000
0100
0000
0000
,  // measure 49
0000
1000
0000
0001
,  // measure 50
0000
1000
0000
0000
,  // measure 51
0000
0001
0000
1000
,  // measure 52
0000
0001
0000
0000
,  // measure 53
0000
0010
0000
0001
,  // measure 54
0000
0100
0000
0001
,  // measure 55
0000
0000
0000
1000
,  // measure 56
0000
0010
0000
1000
,  // measure 57
0000
0000
0000
0001
,  // measure 58
0000
0000
0000
0100
,  // measure 59
0000
0000
0000
0010
,  // measure 60
0000
1000
0000
0100
,  // measure 61
0000
0000
0000
0010
,  // measure 62
0000
0001
0000
0010
,  // measure 63
0000
0000
0000
0100
,  // measure 64
0000
1000
0000
0100
,  // measure 65
0000
0000
0000
1001
,  // measure 66
0000
0001
0000
1001
,  // measure 67
0000
1000
0000
0001
,  // measure 68
0000
0100
0000
0010
,  // measure 69
0000
0010
0000
1000
,  // measure 70
0000
1000
0000
1001
,  // measure 71
0000
0000
0000
0000
,  // measure 72
0000
0000
0000
0001
,  // measure 73
0000
0000
0000
0000
,  // measure 74
0000
0000
0000
0010
,  // measure 75
0000
0100
0000
1000
;
