#TITLE:rings on the water;
#SUBTITLE:〜thunderstorm mix〜;
#ARTIST:PEACH TREES;
#TITLETRANSLIT:;
#SUBTITLETRANSLIT:~thunderstorm mix~;
#ARTISTTRANSLIT:;
#CREDIT:DigiMindAxel;
#BANNER:rings on the water ~thunderstorm mix~.png;
#BACKGROUND:rings on the water ~thunderstorm mix~-bg.png;
#LYRICSPATH:rings on the water ~thunderstorm mix~.lrc;
#CDTITLE:Konami original REMIX.png;
#MUSIC:rings on the water ~thunderstorm mix~.ogg;
#METERTYPE:DDR X;
#OFFSET:-13.888;
#SAMPLESTART:56.767;
#SAMPLELENGTH:12.000;
#SELECTABLE:YES;
#BPMS:0.000=144.000;
#STOPS:33.000=2.083
,44.000=2.083
;
#BGCHANGES:;

//---------------dance-single - ----------------
#NOTES:
     dance-single:
     :
     Easy:
     3:
     0.159,0.166,0.083,0.194,0.000:
1000
0000
0000
0001
,
0000
0000
1000
0000
,
0001
0000
0000
0100
,
0000
0000
0001
0000
,
1000
0000
0000
0100
,
0000
0000
0010
0000
,
0001
0000
0000
1000
,
0000
0000
0110
0000
,
0110
0000
0010
1001
,
0000
0000
0000
1001
,
0000
0001
0000
1001
,
0000
0100
0110
0000
,
0000
0000
1001
0000
,
0000
0000
0001
0000
,
0100
0000
0001
0000
,
1000
0000
0001
0000
,
0100
0000
0001
0000
,
1000
0000
0010
0000
,
0100
0000
0010
0000
,
1000
0000
0200
0000
,
0000
0000
0320
0000
,
0000
0000
0032
0000
,
0000
0000
2003
0000
,
3000
0000
0001
0100
,
0001
0000
1000
0000
,
0001
0000
1000
0100
,
1000
0000
0001
0000
,
1000
0000
0010
0100
,
0010
0000
0100
0000
,
0001
0000
1001
0000
,
1001
0000
1000
0000
,
0100
0000
0020
0000
,
0000
0000
0030
0000
,
0000
0000
0002
0000
,
0203
0000
0000
0000
,
0301
1000
0200
0000
,
0000
0000
2300
0000
,
0000
3010
0200
0000
,
0320
0000
0230
0000
,
0000
0300
0001
0100
,
0001
0000
1000
0001
,
1000
0000
0100
1000
,
0100
0000
0010
0100
,
0010
0001
0200
0000
,
0000
0000
0320
0000
,
0000
0000
2030
0000
,
3002
0000
0203
0000
,
0000
0300
0002
0000
,
2003
0000
3200
0000
,
1300
0000
0002
0000
,
0000
0000
0000
0000
,
0000
0000
1003
0000
;

//---------------dance-single - ----------------
#NOTES:
     dance-single:
     :
     Medium:
     7:
     0.283,0.287,0.055,0.194,0.000:
1000
0000
1000
0000
0000
0001
0000
0001
,
0000
0000
0000
0100
0000
0000
0000
0000
,
0010
0000
0010
0000
0000
1000
0000
1000
,
0000
0000
0000
0001
0000
0000
0000
0000
,
0010
0000
0010
0000
0000
0100
0000
0100
,
0000
0000
0000
1000
0000
0000
1000
0000
,
0001
0000
0001
0000
0000
0100
0000
0100
,
0000
0000
0000
0000
0001
1000
0000
0000
,
0001
0001
0001
0000
1000
0000
0100
0100
,
0000
0000
0000
0000
0000
1001
0000
0000
,
0000
0000
0010
0000
0100
0000
1000
1000
,
1000
0000
0001
0000
0100
0100
0000
0000
,
0010
0000
0000
0110
0000
0000
0000
0000
,
0010
0000
0100
0000
1000
0001
1000
0000
,
0001
0100
0001
0000
1000
0001
1000
0000
,
0001
0000
0100
0000
0010
0100
0010
0000
,
1000
0010
1000
0000
0100
1000
0100
0000
,
0010
0000
0001
0000
0100
0010
0100
0000
,
0001
0100
0001
0000
1000
0001
1000
0000
,
0100
0000
0010
0000
0001
0100
0001
0100
,
0000
0000
0000
0000
0001
1000
0001
1000
,
0000
0000
0000
0000
0100
1000
0100
1000
,
0000
0000
0000
0000
0010
0100
0010
0100
,
0000
0000
1001
0010
,
0100
0000
1000
0000
0010
0100
0010
0000
,
0100
0000
0100
0000
0001
0100
0001
0000
,
1000
0100
1000
0000
0001
0000
0010
0000
,
0100
0000
1000
0000
0001
0100
0001
0000
,
0100
0010
0100
0000
0001
0000
0001
0000
,
1000
0100
0010
0101
,
0010
0101
1000
0110
,
0001
1000
0001
1000
0020
0000
0000
0000
,
0000
0000
0030
0000
,
0000
0000
2000
3200
,
0320
0000
0000
0000
,
0031
0000
0100
0010
0200
0000
0000
0000
,
0000
0301
0000
2000
0000
0000
0000
0000
,
3000
0000
0010
0100
0002
0000
0000
0023
,
0000
0000
0230
0000
0000
0000
0000
1300
,
0000
0001
1000
0000
0020
0000
0000
0000
,
0230
0000
0000
0000
0301
0000
1000
0100
,
0000
0100
0000
2000
0000
0000
0000
3010
,
0000
0100
0000
0002
0000
0000
0000
1003
,
0010
0100
0002
0000
,
0000
0000
1003
0200
0000
0000
0000
0000
,
0000
0000
1300
0010
0200
0000
0000
0320
,
0000
0000
2030
0000
0000
0000
0000
3001
,
0000
0100
0001
0000
2000
0000
0000
0000
,
3020
0000
0230
0000
,
0301
1000
0000
0000
0001
0000
1000
0000
,
0100
0010
0001
1000
,
0010
0000
0100
0000
0001
0010
0100
1000
;

//---------------dance-single - ----------------
#NOTES:
     dance-single:
     :
     Hard:
     10:
     0.481,0.479,0.304,0.240,0.101:
1001
0000
0101
0000
0000
0100
0010
0100
,
0000
0000
0000
0120
0000
1000
1030
0000
,
0001
1000
1001
0000
0000
0100
1000
0100
,
0000
0000
0000
0210
0000
0001
0301
0000
,
1001
0000
1100
0000
0000
0010
0100
0010
,
0000
0000
0000
0102
0000
1000
1003
0001
,
0010
0100
0110
0000
0000
1000
0001
1000
,
0000
0100
0000
0010
0001
0101
0000
0000
,
0100
0100
0110
0000
1020
0000
0100
0130
,
0000
0000
0001
0100
0010
2010
0000
0000
,
0001
0000
3001
0000
1001
0000
0100
0100
,
0101
0000
0000
0000
1002
0000
0000
0000
0010
0000
0013
0000
0000
0000
0000
0100
,
1000
0001
0100
0102
0000
0000
1000
0000
,
1003
0000
1001
0000
0100
1000
1010
0000
,
0010
0100
0101
0000
0010
0001
1001
0000
,
0010
1000
1001
0000
0010
1000
1100
0000
,
0010
0001
0101
0000
0010
0100
0010
1000
,
0001
0000
0010
0001
0010
0001
0100
0010
0200
0000
0000
0000
0001
0000
0001
0000
,
0302
0000
1000
1000
1003
0000
0100
1000
,
0010
0000
0100
0001
0010
0100
1000
0010
,
0000
0000
0010
0000
0000
0000
1000
0000
0010
0000
0001
0000
0010
0000
1000
0001
,
1000
0000
0001
0100
0001
0000
0000
0000
1000
0000
0010
0000
0110
0000
0100
0000
,
0000
0001
0000
1000
0100
0001
0100
1000
,
0000
0000
0000
0000
0000
0000
0000
0000
0010
0000
0000
0010
1000
0000
0000
1000
,
0001
0000
0000
0001
0010
0000
0000
0000
0100
0000
1000
0000
0010
0000
1000
0000
,
0100
0000
0000
0000
0010
0000
0000
0000
0001
0000
0000
0001
1000
0000
0000
1000
,
0100
0000
0000
0100
0010
0000
0000
0000
0001
0000
0100
0000
0010
0000
0100
0000
,
0001
0000
1000
0000
1001
0000
0000
0000
0010
0000
0000
0010
0001
0000
0000
0001
,
0100
0000
0000
0100
0010
0000
0000
0000
1000
0000
0100
0000
0010
0000
0100
0000
,
1000
0001
0100
0000
0010
0100
1001
0000
,
0010
0100
1001
0000
0100
0010
0001
1000
,
0100
0001
0100
1000
0001
0001
0001
0010
,
0000
0100
0000
0100
0000
1000
0001
1000
,
0001
0000
0000
0100
0010
0000
1000
0000
0100
0000
0001
0000
0100
0000
0000
0000
,
1020
0000
0100
0000
1000
0000
0130
1000
,
0010
0100
0001
0010
0200
0000
1000
0000
,
1300
0002
0000
0203
0000
0000
0010
0000
,
0310
0000
1000
0100
1000
0100
0010
0001
0200
0000
0000
0000
0010
0000
0320
0000
,
0000
1000
2030
0000
0001
0000
3001
0100
,
0000
0010
0100
0001
0010
1000
0010
0001
,
0100
0010
1000
0100
0010
0001
0100
0101
,
0000
0101
0000
1002
0000
1000
1003
0001
,
0010
0100
1000
0020
0000
0000
0130
0001
,
0010
1000
0010
0001
0200
0000
0010
0000
,
0001
0000
0310
2000
0000
0000
0001
0000
,
0100
0000
0000
0000
3001
0100
0001
0100
0020
0000
0000
0000
1000
0000
2030
0000
,
0000
0001
3002
0000
0100
0000
0103
0010
,
0000
1000
0010
0100
0002
0000
0100
0000
,
2003
0000
0000
0000
0010
0000
0000
0000
3002
0000
0000
0000
0103
0000
0010
0100
,
0010
1001
0000
0000
1000
0000
0100
0000
,
0001
0100
1000
0010
,
0001
0010
1000
1000
0001
0010
0100
1000
;

//---------------dance-double - ----------------
#NOTES:
     dance-double:
     :
     Easy:
     3:
     0.163,0.190,0.083,0.194,0.000:
10000000
00000000
00000000
01000000
,
00000000
00000000
10000000
00000000
,
00010000
00000000
00000000
01000000
,
00000000
00000000
00001000
00000000
,
00010000
00000000
00000000
00000100
,
00000000
00000000
00000010
00000000
,
00000001
00000000
00000000
00000100
,
00000000
00000000
00001001
00000000
,
00001001
00000000
00000010
00000110
,
00000000
00000000
00000000
00011000
,
00000000
00001000
00000000
01100000
,
00000000
10000000
10010000
00000000
,
00000000
00000000
10010000
00000000
,
00000000
00000000
00010000
00000000
,
01000000
00000000
00010000
00000000
,
10000000
00000000
00001000
00000000
,
01000000
00000000
00001000
00000000
,
00010000
00000000
00001000
00000000
,
00010000
00000000
00000100
00000000
,
00000010
00000000
00000002
00000000
,
00000000
00000000
00000203
00000000
,
00000000
00000000
00000302
00000000
,
00000000
00000000
00002003
00000000
,
00003000
00000000
00000001
00000100
,
00000001
00000100
00000001
00000000
,
00000010
00000000
00000100
00010000
,
00000100
00010000
00000100
00000000
,
00010000
00000000
00001000
01000000
,
00001000
01000000
00001000
00000000
,
00100000
00000000
10010000
00000000
,
10010000
00000000
01000000
00000000
,
00100000
00000000
00002000
00000000
,
00000000
00000000
00003000
00000000
,
00000000
00000000
00020000
00000000
,
00030020
00000000
00000000
00000000
,
00000130
00000001
00000200
00000000
,
00000000
00000000
00000302
00000000
,
00000000
00000013
00000200
00000000
,
00020300
00000000
00030200
00000000
,
00000000
00000300
00010000
00001000
,
00010000
00000000
00001000
00100000
,
00001000
00000000
00100000
01000000
,
00100000
00000000
00010000
01000000
,
00010000
01000000
00200000
00000000
,
00000000
00000000
02300000
00000000
,
00000000
00000000
03020000
00000000
,
20030000
00000000
32000000
00000000
,
00000000
03000000
00200000
00000000
,
00302000
00000000
00023000
00000000
,
00031000
00000000
00020000
00000000
,
00000000
00000000
00000000
00000000
,
00000000
00000000
00030001
00000000
;

//---------------dance-double - ----------------
#NOTES:
     dance-double:
     :
     Hard:
     10:
     0.468,0.431,0.203,0.221,0.129:
10010000
00000000
00110000
00000000
00000000
01000000
00100000
01000000
,
00000000
00000000
00000000
10010000
00000000
00100000
01000000
00000000
,
00001000
00001000
00001000
00000000
00000000
00010000
00000010
00010000
,
00000000
00000000
00000000
00000110
00000000
00000001
00000100
00000000
,
00010001
00000000
00010100
00000000
00000000
00001000
00010000
00001000
,
00000000
00000000
00000000
01100000
00000000
01000000
00100000
10000000
,
01000000
00100000
00010000
00000000
00000000
01000000
00100000
01000000
,
00000000
00001000
00000000
00010000
00000010
00000110
00000000
00000000
,
00000001
00000001
00000011
00000000
00000120
00000000
00010000
00010030
,
00000000
00000000
00001000
00100000
01000000
20000000
00000000
00000000
,
00100000
00000000
30100000
00000000
01100000
00000000
10000000
10000000
,
10100000
00000000
00000000
00000000
01002000
00000000
00000000
00000000
00010000
00000000
00013000
00000000
00000000
00000000
00000000
00000010
,
00000100
00000001
00000010
00000200
00000000
00000000
00010000
00000000
,
00010300
00000000
00001000
00000000
00010000
00000000
00000000
00000000
00001000
00000000
00000000
01000000
00100000
00000000
00000000
10000000
,
01000000
00000000
00100000
00000000
01000000
00000000
00000000
00000000
10000000
00000000
00000000
00100000
01000000
00000000
00000000
00001000
,
00100000
00000000
00001000
00000000
00010000
00000000
00000000
00000000
00000100
00000000
00000000
00000010
00000001
00000000
00000000
00000010
,
00000100
00001000
00010000
00000000
01000000
00100000
01000000
00100000
,
10000000
00000000
01000000
00100000
01000000
00100000
00001000
01000000
00002000
00000000
00000000
00000000
00010000
00000000
00000000
00000000
,
00023000
00000010
00030020
00000230
,
00000302
00000000
00020003
00000000
00031000
00100000
01000000
10000000
,
00000000
00000000
10100000
00000000
00000000
00000000
01000000
00000000
00100000
00000000
00010000
00000000
00001000
00000000
00000010
00000100
,
00000010
00000000
00000100
00000001
00000100
00000000
00000000
00000000
00000001
00000000
00000010
00000000
00000100
00000000
00010000
00000000
,
00000000
00010000
00000000
00001000
01000000
00100000
10000000
01000000
,
00000000
00000000
00000000
00000000
00000000
00000000
00000000
00000000
10000000
00000000
00000000
10000000
01000000
00000000
00000000
01000000
,
00100000
00000000
00000000
00100000
00001000
00000000
00000000
00000000
00010000
00000000
00000010
00000000
00000100
00000000
00000010
00000000
,
00010000
00000000
00000000
00000000
00000100
00000000
00000000
00000000
00000010
00000000
00000000
00000010
00000001
00000000
00000000
00000001
,
00010000
00000000
00000000
00010000
00001000
00000000
00000000
00000000
00100000
00000000
01000000
00000000
10000000
00000000
01000000
00000000
,
00100000
00000000
00001000
00000000
00011000
00000000
00000000
00000000
00010000
00000000
00000000
00010000
00000010
00000000
00000000
00000010
,
00000100
00000000
00000000
00000100
00000001
00000000
00000000
00000000
00000010
00000000
00000100
00000000
00001000
00000000
00000100
00000000
,
00000010
00000001
00010000
00000000
00001000
01000000
01100000
00000000
,
00001000
01000000
01100000
00000000
00001000
01000000
00100000
10000000
,
01000000
00100000
00010000
00001000
00000100
00000100
00000100
00000010
,
00000000
00000001
00000000
00000001
00000000
00000100
00000100
00000010
,
00000010
00000000
00000000
00010000
00001000
00000000
01000000
00000000
00100000
00000000
01000000
00000000
00001000
00000000
00000000
00000000
,
01200000
00000000
10000000
00000000
01000000
00000000
10300000
01000000
,
00100000
00001000
00010000
00000010
00000200
00000000
00000010
00000000
,
00000310
00002000
00000000
00003200
00000000
00000000
00010000
00000000
,
00010300
00000000
00001000
01000000
00001000
01000000
00100000
01000000
00200000
00000000
00000000
00000000
10000000
00000000
20300000
00000000
,
00000000
01000000
32000000
00000000
00100000
00000000
03100000
00010000
,
00000000
00001000
00010000
00000010
00000100
00000010
00010000
00000100
,
00000001
00000100
00010000
00001000
00100000
01000000
10000000
10010000
,
00000000
10010000
00000000
01200000
00000000
01000000
01300000
00001000
,
00100000
00010000
00100000
00002000
00000000
00000000
00013000
00000010
,
00000001
00000010
00010000
00001000
02000000
00000000
00100000
00000000
,
00001000
00000000
03100000
20000000
00000000
00000000
00100000
00000000
,
01000000
00000000
00000000
00000000
30100000
01000000
00100000
01000000
00002000
00000000
00000000
00000000
00100000
00000000
00203000
00000000
,
00000000
00010000
00320000
00000000
00001000
00000000
00031000
00000010
,
00000000
00000100
00000001
00000010
00000100
00001000
00010000
00000000
,
01000000
00000000
00100000
00000000
10000000
00000000
00000000
00000000
01000000
00000000
00100000
00000000
00010000
00000000
01000000
00100000
,
01000000
01100000
00000000
00000000
10000000
00000000
01000000
00000000
,
00100000
00010000
00001000
00000100
,
00000010
00000001
00000100
00000100
00000010
00001000
00010000
01000000
;

//---------------dance-single - ----------------
#NOTES:
     dance-single:
     :
     Beginner:
     1:
     0.061,0.114,0.037,0.000,0.000:
1000
0000
0000
0000
,
0000
0000
0000
0000
,
1000
0000
0000
0000
,
0000
0000
0000
0000
,
0001
0000
0000
0000
,
0000
0000
0000
0000
,
0001
0000
0000
0000
,
0000
0000
0000
0000
,
1001
0000
0000
1001
,
0000
0000
0000
0010
,
0000
0000
0000
0110
,
0000
0000
0110
0000
,
0000
0000
0100
0000
,
0000
0000
0001
0000
,
0000
0000
1000
0000
,
0000
0000
0001
0000
,
0000
0000
0000
0000
,
0000
0000
1000
0000
,
0001
0000
1000
0000
,
0000
0000
0100
0000
,
0000
0000
0000
0000
,
0000
0000
0010
0000
,
0000
0000
0000
0000
,
0000
0000
0001
0000
,
0100
0000
0001
0000
,
0000
0000
1000
0000
,
0100
0000
1000
0000
,
0000
0000
0001
0000
,
1000
0000
0001
0000
,
0000
0000
1000
0000
,
1000
0000
1000
0000
,
0000
0000
1000
0000
,
0000
0000
0000
0000
,
0000
0000
0100
0000
,
0000
0000
0000
0000
,
0000
0000
0010
0000
,
0000
0000
0000
0000
,
0000
0000
0001
0000
,
0000
0000
0000
0000
,
0000
0000
0100
0000
,
0000
0000
0001
0000
,
0000
0000
1000
0000
,
0000
0000
0000
0000
,
0000
0000
0100
0000
,
0000
0000
0000
0000
,
0000
0000
1000
0000
,
0000
0000
0000
0000
,
0000
0000
0010
0000
,
0000
0000
0100
0000
,
0000
0000
0001
0000
;

//---------------dance-double - ----------------
#NOTES:
     dance-double:
     :
     Medium:
     7:
     0.285,0.287,0.028,0.194,0.000: // measure 1
10000000
00000000
10000000
00000000
00000000
00010000
00000000
00010000
,  // measure 2
00000000
00000000
00000000
01000000
00000000
00000000
00000000
00000000
,  // measure 3
00001000
00000000
00001000
00000000
00000000
00100000
00000000
00100000
,  // measure 4
00000000
00000000
00000000
00001000
00000000
00000000
00000000
00000000
,  // measure 5
00010000
00000000
00010000
00000000
00000000
00000100
00000000
00000100
,  // measure 6
00000000
00000000
00000000
00000010
00000000
00000000
00000010
00000000
,  // measure 7
00000001
00000000
00000001
00000000
00000000
00000100
00000000
00000100
,  // measure 8
00000000
00000000
00000000
00000000
00000001
00001000
00000000
00000000
,  // measure 9
00000100
00000100
00000100
00000000
00010000
00000000
00001000
00010000
,  // measure 10
00000000
00000000
00000000
00000000
00000000
01100000
00000000
00000000
,  // measure 11
00000000
00000000
00100000
00000000
01000000
00000000
10000000
10000000
,  // measure 12
10000000
00000000
00010000
00000000
01000000
00010000
00000000
00000000
,  // measure 13
01000000
00000000
00000000
01001000
00000000
00000000
00000000
00000000
,  // measure 14
00001000
00000000
00010000
00000000
00000010
00010000
00000010
00000000
,  // measure 15
00000100
00000010
00000100
00000000
00000001
00000100
00000001
00000000
,  // measure 16
00000010
00000000
00000100
00000000
00001000
00010000
00001000
00000000
,  // measure 17
00010000
01000000
00010000
00000000
10000000
01000000
10000000
00000000
,  // measure 18
01000000
00000000
00100000
00000000
00001000
00100000
00001000
00000000
,  // measure 19
00010000
00001000
00010000
00000000
00000010
00010000
00000010
00000000
,  // measure 20
00000100
00000000
00000001
00000000
00000010
00000100
00000010
00000100
,  // measure 21
00000000
00000000
00000000
00000000
00010000
00001000
00010000
00001000
,  // measure 22
00000000
00000000
00000000
00000000
00100000
01000000
00100000
01000000
,  // measure 23
00000000
00000000
00000000
00000000
10000000
00100000
10000000
00100000
,  // measure 24
00000000
00000000
10010000
00100000
,  // measure 25
01000000
00000000
10000000
00000000
00100000
01000000
00100000
00000000
,  // measure 26
01000000
00000000
01000000
00000000
00001000
01000000
00001000
00000000
,  // measure 27
00010000
00001000
00010000
00000000
00000100
00000000
00000010
00000000
,  // measure 28
00000100
00000000
00001000
00000000
00000001
00000100
00000001
00000000
,  // measure 29
00000100
00000010
00000100
00000000
00000001
00001000
00000001
00000000
,  // measure 30
00000010
00000000
00000100
00000000
00010000
00010000
00010000
00000000
,  // measure 31
00001000
00001000
00001000
00000000
01000000
00100000
01000000
00000000
,  // measure 32
00010000
10000000
00010000
10000000
00002000
00000000
00000000
00000000
,  // measure 33
00000000
00000000
00003000
00000000
,  // measure 34
00000000
00000000
00020000
00030020
,  // measure 35
00000230
00000000
00000000
00000000
,  // measure 36
00000301
00000000
00010000
00000100
00020000
00000000
00000000
00000000
,  // measure 37
00000000
00031000
00000000
00200000
00000000
00000000
00000000
00000000
,  // measure 38
00300000
00000000
01000000
10000000
00020000
00000000
00000000
00230000
,  // measure 39
00000000
00000000
02300000
00000000
00000000
00000000
00000000
03100000
,  // measure 40
00000000
00001000
00010000
00000000
00000020
00000000
00000000
00000000
,  // measure 41
00000230
00000000
00000000
00000000
00000301
00000000
00000010
00000100
,  // measure 42
00000000
00000100
00000000
00020000
00000000
00000000
00000000
00031000
,  // measure 43
00000000
01000000
00000000
00200000
00000000
00000000
00000000
10300000
,  // measure 44
00010000
00100000
02000000
00000000
,  // measure 45
00000000
00000000
13000000
00020000
00000000
00000000
00000000
00000000
,  // measure 46
00000000
00000000
01030000
00100000
02000000
00000000
00000000
03002000
,  // measure 47
00000000
00000000
00023000
00000000
00000000
00000000
00000000
00030100
,  // measure 48
00000000
00000010
00000001
00000000
00000200
00000000
00000000
00000000
,  // measure 49
00000320
00000000
00020030
00000000
,  // measure 50
00001000
00031000
00000000
00000000
00100000
00000000
01000000
00000000
,  // measure 51
10000000
01000000
00100000
00001000
,  // measure 52
00010000
00000000
00000010
00000000
00000100
00000001
00000010
00000100
;
