#TITLE:radius;
#SUBTITLE:;
#ARTIST:yasuhiro abe;
#TITLETRANSLIT:;
#SUBTITLETRANSLIT:;
#ARTISTTRANSLIT:;
#CREDIT:DigiMindAxel;
#BANNER:radius.png;
#BACKGROUND:radius-bg.png;
#LYRICSPATH:;
#CDTITLE:beatmania IIDX.png;
#MUSIC:radius.ogg;
#METERTYPE:DDR X;
#OFFSET:-0.417;
#SAMPLESTART:19.200;
#SAMPLELENGTH:12.000;
#SELECTABLE:YES;
#BPMS:0.000=150.000;
#STOPS:;
#BGCHANGES:0.000=radius.avi=1.000=1=1=0,
99999=-nosongbg-=1.000=0=0=0 // don't automatically add -songbackground-
;

//---------------dance-single - ----------------
#NOTES:
     dance-single:
     :
     Easy:
     5:
     0.281,0.301,0.017,0.294,0.000:
0000
0000
0000
0000
,
0000
0000
0000
0000
,
0000
0000
0000
0000
,
0000
0000
0000
0000
,
2000
0000
0000
0000
,
3002
0000
2003
0000
,
3001
0000
0110
0000
,
0010
0100
0010
0100
,
0002
0000
2003
0000
,
3002
0000
2003
0000
,
3010
0000
0010
0000
,
1000
0100
0010
0001
,
0200
0000
0320
0000
,
0230
0000
0302
0000
,
0103
0010
0100
0000
,
0001
1000
0001
1000
,
0002
0000
0203
0000
,
0320
0000
0230
0000
,
0301
1000
0001
1000
,
0001
0010
0100
1000
,
0002
0000
0103
0000
,
0020
0000
0130
0000
,
0002
0000
0203
0000
,
0301
0010
0100
1000
,
0200
0000
0310
0000
,
0002
0000
1003
0000
,
0010
0100
0010
0100
,
0001
0010
0100
1000
,
0020
0000
0000
0000
,
2030
0000
0000
0000
,
3200
0000
0000
0000
,
2300
0000
0000
0000
,
3001
0010
0100
1000
,
0001
0010
0100
1000
,
0001
0100
0001
0100
,
0010
1000
0010
1000
,
0002
0000
0100
0000
,
0203
0000
0010
0000
,
0320
0000
1000
0000
,
2030
0000
0001
0000
,
3002
0000
0010
0000
,
0023
0000
0100
0000
,
0230
0000
1000
0000
,
1300
0001
1000
0001
,
2000
0000
0000
0000
,
0000
0000
3000
0000
,
0001
0010
0100
1000
,
0001
0100
0001
1000
,
0010
0000
0100
0001
,
0010
0100
1000
0001
,
0100
0001
0100
0010
,
1000
0000
0100
0010
,
0001
0100
0001
0100
,
0010
1000
0001
0000
,
0100
0001
0100
0010
,
0100
0010
1000
0100
,
1000
0001
0010
0001
,
0100
0010
0100
0001
,
1000
0100
0010
0001
,
1000
0010
0100
0001
,
0010
0100
1000
0010
,
0100
0010
0100
0001
,
1000
1000
0001
0001
,
1000
1000
0001
0001
,
0100
0010
0100
0001
,
0010
0100
1000
0010
,
0100
0100
0010
0010
,
0100
0100
0010
0010
,
1000
0100
0010
0001
,
1000
0100
0010
0001
,
2002
0000
0000
0000
,
0000
0000
3003
0000
;

//---------------dance-single - ----------------
#NOTES:
     dance-single:
     :
     Hard:
     12:
     0.588,0.691,0.008,0.345,0.416: // measure 1
0000
0000
0000
0000
,  // measure 2
0000
0000
0000
0000
,  // measure 3
0000
0000
0000
0000
,  // measure 4
0000
0000
0000
0000
,  // measure 5
2000
0000
0001
0000
0001
0000
3001
0010
,  // measure 6
0002
0100
0203
0010
,  // measure 7
0310
0000
0000
0000
0000
0000
1000
0001
2000
0000
0000
0000
0001
0000
0000
0000
,  // measure 8
3001
0000
0000
0100
0001
0000
0000
0010
0100
0000
0000
1000
0100
0000
1000
0000
,  // measure 9
0020
1000
2030
0001
,  // measure 10
3002
0000
0000
0000
0100
0000
0000
0000
0103
0000
0000
0000
0000
0000
0001
1000
,  // measure 11
0002
0203
2300
3200
,  // measure 12
0302
0000
0000
0000
1003
0000
0000
0000
1001
0000
0000
0000
1000
0001
1000
0001
,  // measure 13
1000
0000
0000
0100
0000
0000
0010
0000
0001
0000
0000
0001
0000
0000
0100
0000
,  // measure 14
0010
0000
0000
0010
0000
0000
1000
0000
0100
0000
0000
0100
0000
0000
0010
0000
,  // measure 15
0001
0000
0000
0001
0000
0000
0010
0000
0100
0000
0000
0100
0000
0000
1000
0000
,  // measure 16
0010
0000
0000
0010
0000
0000
0100
0000
0001
0000
0000
0001
0000
0000
0010
0000
,  // measure 17
0100
0000
0000
0100
0000
0000
1000
0000
0001
0000
0000
0001
0000
0000
0100
0000
,  // measure 18
0010
0000
0000
0010
0000
0000
1000
0000
0001
0000
0000
0001
0000
0000
1000
0000
,  // measure 19
0100
0000
0000
0100
0000
0000
1000
0000
0001
0000
0000
0001
0000
0000
0100
0000
,  // measure 20
0020
2030
3002
2003
,  // measure 21
3001
0000
0000
0100
0001
0000
1000
0000
0100
0000
0000
1000
0001
0000
0000
0000
,  // measure 22
0010
0000
0000
0100
1000
0000
0010
0000
0100
0000
0000
0001
1000
0000
0000
0000
,  // measure 23
0100
0000
0000
0010
0001
0000
0010
0000
0100
0000
0000
1000
0010
0000
0000
0000
,  // measure 24
0100
0000
0000
0001
0010
0000
0100
0000
0010
0000
0000
0001
0100
0000
0000
0000
,  // measure 25
0010
0000
0000
1000
0001
0000
0010
0000
0001
0000
0000
0010
0100
0000
0000
0000
,  // measure 26
1000
0000
0000
0001
0100
0000
0001
0000
1000
0000
0000
0100
0010
0000
0000
0000
,  // measure 27
0001
0000
0000
0100
0001
0000
1000
0000
0100
0000
0000
0010
0100
0000
0000
0000
,  // measure 28
1000
0000
0000
0001
0100
0000
0001
0000
1000
0000
0000
0100
0010
0000
0100
0000
,  // measure 29
1000
0000
0000
0000
0000
0000
0000
0000
0010
0000
0000
1000
0000
0000
0001
0000
,  // measure 30
0010
0000
0000
0000
0000
0000
0000
0000
0100
0000
0000
0010
0000
0000
0001
0000
,  // measure 31
0100
0000
0000
0000
0000
0000
0000
0000
0001
0000
0000
1000
0000
0000
0100
0000
,  // measure 32
0010
0000
0000
0000
0001
0000
0000
0000
1000
0000
0000
0001
0000
0000
0100
0010
,  // measure 33
0100
0001
1000
0100
0010
0001
0100
0010
,  // measure 34
1000
0100
0010
0001
0100
0010
1000
0100
,  // measure 35
0010
0100
1000
0001
0100
0001
1000
0100
,  // measure 36
0010
0100
1000
0001
0100
0001
1000
0100
,  // measure 37
0020
0000
0000
0001
0000
0000
0031
0000
0200
0000
0000
0010
0000
0000
0310
0000
,  // measure 38
2000
0000
0000
0100
0000
0000
3100
0000
0020
0000
0000
0001
0000
0000
0031
0000
,  // measure 39
2000
0000
0000
0010
0000
0000
3010
0000
0200
0000
0000
0001
0000
0000
0301
0000
,  // measure 40
0020
0000
0000
0100
0000
0000
0130
0000
2000
0000
0000
0001
0000
0000
3001
0000
,  // measure 41
0200
0000
0000
0001
0000
0000
0301
0000
2000
0000
0000
0100
0000
0000
3100
0000
,  // measure 42
0020
0000
0000
0100
0000
0000
0130
0000
2000
0000
0000
0001
0000
0000
3001
0000
,  // measure 43
0200
0000
0000
0001
0000
0000
0301
0000
0020
0000
0000
0100
0000
0000
0130
0000
,  // measure 44
2000
0000
0000
0100
0000
0000
3100
0000
0020
0000
0000
0001
0000
0000
0031
0000
,  // measure 45
2000
0000
3200
0000
,  // measure 46
0320
0000
0032
0000
,  // measure 47
1003
0000
0001
0010
0100
0000
1000
0000
0010
0000
0000
0000
1000
0001
0100
0001
,  // measure 48
1000
0000
0000
0000
0100
0000
0010
0001
0100
0000
0100
0000
0010
0000
0010
0000
,  // measure 49
1000
0000
0000
0000
0100
0000
0010
0001
0010
0001
0100
0010
0100
0010
1000
0010
,  // measure 50
2000
0000
0000
0000
3001
0000
1000
0100
0010
0000
0001
0100
0001
0000
1000
0000
,  // measure 51
0100
0000
0000
0000
1000
0000
0100
0010
0100
0000
1000
0010
1000
0000
0001
1000
,  // measure 52
0001
0000
0000
0000
0010
0000
0100
1000
0100
0000
1000
0010
1000
0000
0001
1000
,  // measure 53
0001
0010
0100
0010
0001
1000
0010
1000
,  // measure 54
0001
0000
0010
0000
0100
0000
1000
0000
0001
0000
0000
0000
1000
0001
1000
0001
,  // measure 55
1000
0000
0000
0010
0100
0000
0001
0000
0010
0000
0000
0100
0010
0000
0001
0000
,  // measure 56
0100
0000
0000
0010
1000
0000
0100
0000
0010
0000
0000
0001
0100
0000
0010
0000
,  // measure 57
1000
0000
0000
0010
1000
0000
0100
0000
0010
0000
0000
0001
1000
0000
0001
0000
,  // measure 58
0010
0000
0000
0100
0010
0000
0001
0000
0100
0000
0000
0010
1000
0000
0001
0000
,  // measure 59
0010
0000
0000
0100
1000
0000
0010
0000
0100
0000
0000
0001
1000
0000
0100
0000
,  // measure 60
0010
0000
0000
0100
1000
0000
0001
0000
0100
0000
0000
0001
1000
0000
0100
0000
,  // measure 61
0010
0000
0000
0001
0100
0000
0010
0000
1000
0000
0000
0100
0010
0000
0001
0000
,  // measure 62
0100
0000
0000
0001
1000
0000
0010
0000
0100
0000
0000
0001
0100
0000
0010
0000
,  // measure 63
1000
0100
0001
0100
1000
0100
0001
0100
,  // measure 64
1000
0000
0010
0000
0100
0000
0001
0000
0020
0000
0000
0000
0030
0000
0100
1000
,  // measure 65
0100
0000
1000
0000
0010
0000
0100
0001
0000
0100
0001
0000
0010
0000
0100
0000
,  // measure 66
0000
0010
0100
1000
0001
0100
0001
1000
,  // measure 67
0000
0100
0001
0100
1000
0010
0001
0020
,  // measure 68
0000
0000
0000
0000
0000
0000
1030
0010
0100
0000
0001
0000
2000
0000
0000
0000
,  // measure 69
0000
3001
0100
1000
0100
0001
0010
0100
,  // measure 70
1000
0000
0001
0000
0100
0000
1000
0000
0100
0000
0001
0000
1000
0001
1000
0001
,  // measure 71
0200
0000
0000
0000
,  // measure 72
0000
0000
0300
0000
;

//---------------dance-single - ----------------
#NOTES:
     dance-single:
     :
     Medium:
     10:
     0.478,0.511,0.008,0.462,0.008:
0000
0000
0000
0000
,
0000
0000
0000
0000
,
0000
0000
0000
0000
,
0000
0000
0000
0000
,
0002
0000
0203
0000
,
0302
0000
2003
0000
,
3010
0000
0000
0100
0010
0000
0100
0000
,
0001
0000
0100
0000
0010
0000
1000
0001
,
2000
0000
3200
0000
,
0320
0000
0230
0000
,
1300
0001
0010
0100
,
1000
1000
0001
0001
,
0020
0000
0100
0000
0130
1000
0100
0000
,
0020
0000
0001
0000
0031
1000
0001
0000
,
0200
0000
0301
1000
0100
0000
0010
0000
,
0001
0000
0100
0010
1000
0000
0100
0010
,
0002
0000
1000
0000
1003
0100
1000
0000
,
0020
0000
0100
0000
0130
0001
0100
0000
,
0001
0010
0100
0000
1000
0001
0100
0000
,
0020
0230
0320
0130
,
0001
0000
0010
0000
0100
0000
0000
0000
0010
0000
0001
0000
0010
0000
0000
0001
,
1000
0100
0010
0000
0100
1000
0100
0000
,
2000
0000
3100
0010
0001
0000
0100
0001
,
2000
3200
0320
0031
,
1000
0100
0010
0000
0001
0010
0100
0000
,
0010
0001
0100
0000
0010
0100
0001
0100
,
0010
0000
0100
0010
1000
0000
0100
0010
,
0001
0100
0000
0010
0000
0100
0000
0010
,
2000
0200
0000
3300
,
0020
0032
0200
0303
,
0002
0023
0230
2300
,
3002
0000
2003
0000
,
3001
1000
0001
0000
1000
0100
0010
0000
,
0001
0010
0001
0000
0010
0001
0100
0000
,
0010
0100
0010
0100
0001
0100
0001
0000
,
0010
0100
0010
0100
1000
0010
1000
0010
,
0200
0000
0001
0000
0301
0000
0100
0010
,
2000
0000
0100
0000
3100
0000
0010
0001
,
0100
0000
0010
1000
0100
1000
0010
0000
,
1000
0100
0010
0100
1000
0001
0100
0001
,
0000
0000
1000
0000
0100
0000
1000
0000
0000
0000
0001
0000
0000
0100
0000
0000
,
0002
0000
0000
1003
0100
1000
0000
0000
,
0001
0000
0100
0010
1000
0000
0100
0010
,
0001
0000
0100
0010
1000
0000
0100
0010
,
0002
0000
2003
0000
,
3002
0000
2003
0000
,
3001
0010
0100
1000
0010
0000
1000
0001
,
0010
0000
0100
1000
0010
1000
0100
1000
,
0010
0000
0100
0001
0010
0100
0010
0001
,
0100
0000
0010
0000
1000
0100
0010
0001
,
1000
0000
0001
0010
0100
1000
0001
0010
,
0100
0000
1000
0010
0100
0001
0010
0100
,
1000
0020
0230
0302
,
0023
0230
2300
0000
,
3001
0000
0001
0100
0010
0000
0010
0100
,
0001
0000
0010
0100
1000
0000
1000
0100
,
0010
0001
0100
0010
0100
0000
0100
0001
,
1000
0100
0010
0001
1000
0000
1000
0001
,
0010
0000
0010
0100
1000
0000
1000
0001
,
0100
0000
0100
0010
1000
0000
1000
0100
,
0020
0000
0032
0000
1003
0100
0010
0100
,
2000
0000
3002
0000
0203
0000
0301
1000
,
0001
0000
0010
0100
0000
0010
0100
0000
,
1000
0001
0000
1000
0002
0000
0103
0010
,
0100
0010
1000
0000
0100
0000
0001
0000
,
0100
0000
1000
0100
0010
0001
1000
0000
,
0010
0000
0100
0001
0010
0100
1000
0002
,
0000
0000
0000
0103
0010
0100
0002
0000
,
0000
1003
0100
0010
0001
1000
0010
1000
,
0002
0100
0100
0103
,
2002
0000
0000
0000
,
0000
0000
3003
0000
;

//---------------dance-double - ----------------
#NOTES:
     dance-double:
     :
     Easy:
     5:
     0.292,0.391,0.017,0.361,0.000:
00000000
00000000
00000000
00000000
,
00000000
00000000
00000000
00000000
,
00000000
00000000
00000000
00000000
,
00000000
00000000
00000000
00000000
,
20000000
00000000
00000000
00000000
,
30020000
00000000
02030000
00000000
,
03100000
00000000
10010000
00000000
,
10000000
01000000
00100000
00010000
,
00002000
00000000
00003020
00000000
,
00000230
00000000
00000320
00000000
,
00001030
00000001
00001000
00000000
,
00000001
00000010
00000100
00001000
,
00020000
00000000
02030000
00000000
,
03020000
00000000
20030000
00000000
,
31000000
10000000
00010000
00000000
,
00100000
01000000
00100000
01000000
,
20000000
00000000
30200000
00000000
,
02300000
00000000
03002000
00000000
,
00013000
00000010
00010000
00000010
,
00000100
00000001
00000100
00000010
,
00020000
00000000
00031000
00000000
,
02000000
00000000
03010000
00000000
,
20000000
00000000
32000000
00000000
,
03100000
00001000
00010000
00000100
,
00000020
00000000
00000031
00000000
,
00000200
00000000
00000310
00000000
,
00010000
00001000
00010000
00001000
,
00100000
01000000
00100000
00001000
,
20000000
00000000
00000000
00000000
,
32000000
00000000
00000000
00000000
,
03200000
00000000
00000000
00000000
,
00320000
00000000
00000000
00000000
,
00031000
00000100
00001000
00000100
,
00000010
00000001
00000010
00000001
,
00000100
00000010
00000100
00000010
,
00010000
00001000
00010000
00001000
,
02000000
00000000
00010000
00000000
,
03020000
00000000
10000000
00000000
,
20030000
00000000
01000000
00000000
,
32000000
00000000
00100000
00000000
,
03200000
00000000
00001000
00000000
,
00302000
00000000
00010000
00000000
,
00023000
00000000
00000100
00000000
,
00030100
00000010
00000100
00000010
,
00000002
00000000
00000000
00000000
,
00000000
00000000
00000003
00000000
,
00001000
00000100
00000010
00000001
,
00001000
00000001
00000100
00000010
,
00010000
00000000
00001000
00100000
,
01000000
00100000
00001000
00100000
,
00010000
00100000
00010000
10000000
,
01000000
00000000
10000000
01000000
,
00100000
01000000
10000000
00010000
,
01000000
00001000
00010000
00000000
,
00000100
00000010
00000001
00000100
,
00000001
00000100
00000010
00010000
,
00001000
00100000
01000000
00100000
,
00001000
10000000
01000000
00100000
,
00010000
10000000
00010000
00100000
,
00001000
00010000
00000100
00000010
,
00000100
00010000
00000001
00000100
,
00000001
00000100
00000010
00010000
,
00002000
01003000
00002000
01003000
,
00200000
01300000
00200000
01300000
,
00010000
10000000
01000000
00100000
,
01000000
10000000
00010000
01000000
,
00002000
00013000
00002000
00013000
,
00000200
00000310
00000200
00000310
,
00000001
00000100
00000001
00000010
,
00000100
00010000
00001000
00100000
,
02200000
00000000
00000000
00000000
,
00000000
00000000
03300000
00000000
;

//---------------dance-double - ----------------
#NOTES:
     dance-double:
     :
     Medium:
     10:
     0.471,0.511,0.008,0.429,0.004:
00000000
00000000
00000000
00000000
,
00000000
00000000
00000000
00000000
,
00000000
00000000
00000000
00000000
,
00000000
00000000
00000000
00000000
,
20000000
00000000
30020000
00000000
,
20030000
00000000
30020000
00000000
,
10030000
00000000
00000000
00100000
01000000
00000000
00010000
00000000
,
00001000
00000000
00000100
00000000
00000010
00000000
00000001
00001000
,
00000002
00000000
00002003
00000000
,
00003002
00000000
00002003
00000000
,
00003001
00000100
00000010
00010000
,
00001000
00001000
00100000
00100000
,
02000000
00000000
10000000
00000000
13000000
00010000
10000000
00000000
,
00200000
00000000
01000000
00000000
01300000
00010000
01000000
00000000
,
00002000
00000000
00013000
00000100
00000010
00000000
00000001
00000000
,
00000100
00000000
00000001
00000010
00000100
00000000
00010000
00001000
,
00200000
00000000
01000000
00000000
01300000
10000000
01000000
00000000
,
20000000
00000000
00010000
00000000
30010000
00100000
00010000
00000000
,
10000000
01000000
00100000
00000000
00001000
00010000
00000010
00000000
,
00000100
00000100
00000010
00000010
,
00001000
00000100
00000010
00000000
00000001
00000100
00000001
00000000
,
00000010
00000100
00010000
00000000
00001000
01000000
00001000
00000000
,
02000000
00000000
03010000
00100000
01000000
00000000
10000000
00100000
,
02000000
03200000
02300000
03100000
,
10000000
01000000
00100000
00000000
00001000
01000000
00001000
00000000
,
00010000
00000010
00000100
00000000
00000001
00001000
00000100
00000000
,
00001000
00000100
00010000
00000000
00001000
00100000
00001000
00000000
,
00100000
01000000
00000000
01000000
00000000
10000000
00000000
10000000
,
00020000
02000000
00000000
03030000
,
00002000
00023000
00000020
00030030
,
00000200
00000302
00000203
00000320
,
00020030
00000000
00032000
00000000
,
00103000
01000000
00100000
00000000
00010000
00100000
01000000
00000000
,
10000000
00010000
10000000
00000000
01000000
00100000
00010000
00000000
,
00001000
00010000
00001000
00010000
00000010
00010000
00000010
00000000
,
00000100
00000001
00000100
00000001
00000010
00000100
00000010
00000100
,
00020000
00000000
00001000
00000000
00031000
00000000
00100000
01000000
,
20000000
00000000
00010000
00000000
30010000
00000000
10000000
01000000
,
00100000
00000000
00001000
01000000
00100000
01000000
00001000
00000000
,
00010000
00000010
00000100
00000010
00010000
00000001
00010000
00000001
,
00000000
00000000
00000100
00000000
00000001
00000000
00000100
00000000
00000000
00000000
00000001
00000000
00000000
00010000
00000000
00000000
,
00002000
00000000
00000000
01003000
00100000
01000000
00000000
00000000
,
00010000
00000000
10000000
01000000
00100000
00000000
00010000
01000000
,
00100000
00000000
10000000
01000000
00100000
00000000
00010000
01000000
,
00200000
00000000
02300000
00000000
,
03200000
00000000
02300000
00000000
,
03100000
10000000
01000000
00100000
00001000
00000000
00010000
00000010
,
00000100
00000000
00000001
00000010
00000100
00000010
00000001
00000010
,
00000100
00000000
00010000
00001000
01000000
00100000
01000000
00001000
,
00010000
00000000
00100000
00000000
01000000
10000000
00010000
00100000
,
01000000
00000000
10000000
01000000
00100000
01000000
10000000
01000000
,
00100000
00000000
00001000
01000000
00100000
01000000
00001000
00010000
,
00000100
00000020
00000032
00000203
,
00000320
00020030
00032000
00000000
,
01003000
00000000
00100000
10000000
01000000
00000000
01000000
00100000
,
00010000
00000000
00001000
00010000
00000010
00000000
00000010
00000100
,
00000001
00000010
00000100
00001000
00010000
00000000
00100000
01000000
,
10000000
00010000
10000000
01000000
00100000
00000000
00010000
00100000
,
00001000
00000000
00001000
00010000
00000100
00000000
00000010
00000001
,
00001000
00000000
00001000
00000100
00010000
00000000
00100000
01000000
,
20000000
00000000
32000000
00000000
03100000
00010000
10000000
00010000
,
00200000
00000000
00302000
00000000
00023000
00000000
00030100
00000010
,
00000100
00000000
00001000
00000001
00000000
00001000
00000001
00000000
,
00000010
00000100
00000000
00000010
00000100
00000000
00010000
00001000
,
00010000
00001000
01000000
00000000
00100000
00000000
10000000
00000000
,
01000000
00000000
00100000
00010000
10000000
01000000
00100000
00000000
,
00001000
00000000
00010000
00000100
00000010
00000001
00000010
00000200
,
00000000
00000000
00000000
00010300
00001000
00100000
02000000
00000000
,
00000000
13000000
00010000
10000000
01000000
00100000
00010000
01000000
,
00200000
01000000
01000000
01300000
,
20020000
00000000
00000000
00000000
,
00000000
00000000
30030000
00000000
;

//---------------dance-double - ----------------
#NOTES:
     dance-double:
     :
     Hard:
     12:
     0.573,0.691,0.000,0.244,0.416:
00000000
00000000
00000000
00000000
,
00000000
00000000
00000000
00000000
,
00000000
00000000
00000000
00000000
,
00000000
00000000
00000000
00000000
,
10000000
00000000
00010000
00000000
10000000
00000000
00100000
01000000
,
00001000
00010000
00000100
00000010
,
00000100
00000000
00000000
00000000
00000000
00000000
00001000
00000001
00001000
00000000
00000000
00000000
00000001
00000000
00000000
00000000
,
00001000
00000000
00000000
00000010
00010000
00000000
00000000
00001000
01000000
00000000
00000000
00100000
01000000
00000000
00010000
00000000
,
10000000
00100000
00010000
00100000
,
10000000
00000000
00000000
00000000
00010000
00000000
00000000
00000000
10000000
00000000
00000000
00000000
00000000
00000000
00010000
10000000
,
00010000
00100000
10000000
00100000
,
00010000
00000000
00000000
00000000
01000000
00000000
00000000
00000000
00001000
00000000
00000000
00000000
00010000
00001000
00010000
00001000
,
00010000
00000000
00000000
00000010
00000000
00000000
00000100
00000000
00000001
00000000
00000000
00000001
00000000
00000000
00000010
00000000
,
00000100
00000000
00000000
00000100
00000000
00000000
00010000
00000000
00001000
00000000
00000000
00001000
00000000
00000000
00100000
00000000
,
01000000
00000000
00000000
01000000
00000000
00000000
10000000
00000000
00100000
00000000
00000000
00100000
00000000
00000000
01000000
00000000
,
00001000
00000000
00000000
00001000
00000000
00000000
00010000
00000000
00000010
00000000
00000000
00000010
00000000
00000000
00000100
00000000
,
00000001
00000000
00000000
00000001
00000000
00000000
00000010
00000000
00000100
00000000
00000000
00000100
00000000
00000000
00001000
00000000
,
00010000
00000000
00000000
00010000
00000000
00000000
01000000
00000000
00100000
00000000
00000000
00100000
00000000
00000000
10000000
00000000
,
01000000
00000000
00000000
01000000
00000000
00000000
10000000
00000000
00010000
00000000
00000000
00010000
00000000
00000000
01000000
00000000
,
00200000
02300000
03200000
20300000
,
30001000
00000000
00000000
00010000
00000010
00000000
00010000
00000000
00000001
00000000
00000000
00000010
00000100
00000000
00000000
00000000
,
00010000
00000000
00000000
00001000
01000000
00000000
00100000
00000000
10000000
00000000
00000000
00010000
00100000
00000000
00000000
00000000
,
00001000
00000000
00000000
00010000
00000100
00000000
00000010
00000000
00000100
00000000
00000000
00001000
00000010
00000000
00000000
00000000
,
00000100
00000000
00000000
00000001
00000010
00000000
00000100
00000000
00000010
00000000
00000000
00000001
00001000
00000000
00000000
00000000
,
00000010
00000000
00000000
00010000
00001000
00000000
01000000
00000000
00100000
00000000
00000000
01000000
00010000
00000000
00000000
00000000
,
10000000
00000000
00000000
00100000
01000000
00000000
00100000
00000000
10000000
00000000
00000000
01000000
00100000
00000000
00000000
00000000
,
00001000
00000000
00000000
00010000
00000100
00000000
00000010
00000000
00000100
00000000
00000000
00001000
00000001
00000000
00000000
00000000
,
00000010
00000000
00000000
00000100
00010000
00000000
00001000
00000000
01000000
00000000
00000000
00100000
01000000
00000000
00010000
00000000
,
00100000
00000000
00000000
00000000
00000000
00000000
00000000
00000000
01000000
00000000
00000000
01000000
00000000
00000000
01000000
00000000
,
00100000
00000000
00000000
00000000
00000000
00000000
00000000
00000000
00001000
00000000
00000000
00001000
00000000
00000000
00001000
00000000
,
00010000
00000000
00000000
00000000
00000000
00000000
00000000
00000000
00000010
00000000
00000000
00000010
00000000
00000000
00000010
00000000
,
00000100
00000000
00000000
00000000
00000001
00000000
00000000
00000000
00000100
00000000
00000000
00000100
00000000
00000000
00000100
00000010
,
00000100
00000001
00000100
00000001
00010000
00001000
00010000
00001000
,
01000000
00100000
01000000
00100000
10000000
01000000
10000000
01000000
,
00100000
00001000
00100000
00001000
00010000
00000010
00010000
00000010
,
00001000
00000001
00001000
00000001
00000010
00000100
00000010
00000100
,
00002000
00000000
00000000
00010000
00000000
00000000
00013000
00000000
02000000
00000000
00000000
00100000
00000000
00000000
03100000
00000000
,
20000000
00000000
00000000
01000000
00000000
00000000
31000000
00000000
00200000
00000000
00000000
00010000
00000000
00000000
00310000
00000000
,
00002000
00000000
00000000
00000010
00000000
00000000
00003010
00000000
00000200
00000000
00000000
00000001
00000000
00000000
00000301
00000000
,
00000020
00000000
00000000
00000100
00000000
00000000
00000130
00000000
00002000
00000000
00000000
00010000
00000000
00000000
00013000
00000000
,
02000000
00000000
00000000
00010000
00000000
00000000
03010000
00000000
20000000
00000000
00000000
01000000
00000000
00000000
31000000
00000000
,
00200000
00000000
00000000
01000000
00000000
00000000
01300000
00000000
20000000
00000000
00000000
00010000
00000000
00000000
30010000
00000000
,
02000000
00000000
00000000
00001000
00000000
00000000
03001000
00000000
00020000
00000000
00000000
00000100
00000000
00000000
00030100
00000000
,
00000020
00000000
00000000
00000001
00000000
00000000
00000031
00000000
00000200
00000000
00000000
00000010
00000000
00000000
00000310
00000000
,
00020000
00000000
00032000
00000000
,
00023000
00000000
00032000
00000000
,
01003000
00000000
00100000
01000000
00010000
00000000
00100000
00000000
01000000
00000000
00000000
00000000
10000000
00010000
01000000
00010000
,
10000000
00000000
00000000
00000000
01000000
00000000
00100000
00010000
00001000
00000000
00001000
00000000
00000010
00000000
00000010
00000000
,
00000100
00000000
00000000
00000000
00000001
00000000
00000010
00000001
00000010
00000001
00000100
00000010
00000100
00000010
00010000
00000100
,
00020000
00000000
00000000
00000000
00031000
00000000
00100000
01000000
10000000
00000000
00010000
01000000
00010000
00000000
01000000
00000000
,
00100000
00000000
00000000
00000000
10000000
00000000
00100000
10000000
00100000
00000000
01000000
00100000
01000000
00000000
00001000
01000000
,
00001000
00000000
00000000
00000000
00010000
00000000
00000100
00010000
00000100
00000000
00000010
00000100
00000010
00000000
00000001
00001000
,
00000001
00000010
00000100
00000010
00000001
00001000
00000010
00001000
,
00000001
00000000
00000010
00000000
00000100
00000000
00010000
00000000
00001000
00000000
00000000
00000000
01000000
00100000
01000000
00100000
,
01000000
00000000
00000000
00100000
01000000
00000000
00010000
00000000
00100000
00000000
00000000
01000000
10000000
00000000
00010000
00000000
,
01000000
00000000
00000000
00010000
00001000
00000000
00000010
00000000
00000100
00000000
00000000
00000001
00001000
00000000
00000100
00000000
,
00000010
00000000
00000000
00000001
00000100
00000000
00000010
00000000
00010000
00000000
00000000
00001000
01000000
00000000
00100000
00000000
,
10000000
00000000
00000000
01000000
00100000
00000000
00010000
00000000
01000000
00000000
00000000
00100000
10000000
00000000
00010000
00000000
,
00100000
00000000
00000000
00001000
00010000
00000000
00000100
00000000
00000010
00000000
00000000
00000001
00000100
00000000
00000001
00000000
,
00001000
00000000
00000000
00000010
00010000
00000000
00001000
00000000
01000000
00000000
00000000
00100000
10000000
00000000
01000000
00000000
,
00100000
00000000
00000000
01000000
10000000
00000000
00100000
00000000
01000000
00000000
00000000
00010000
00001000
00000000
00000010
00000000
,
00000100
00000000
00000000
00000001
00000100
00000000
00000001
00000000
00001000
00000000
00000000
00000100
00000010
00000000
00000001
00000000
,
00001000
00000010
00000001
00000010
00001000
00000010
00000001
00000010
,
00001000
00000000
00000100
00000000
00001000
00000000
00010000
00000000
00200000
00000000
00000000
00000000
00300000
00000000
01000000
10000000
,
01000000
00000000
10000000
00000000
00100000
00000000
01000000
00010000
00000000
01000000
00010000
00000000
00100000
00000000
01000000
00000000
,
00000000
00100000
01000000
10000000
00001000
00100000
00001000
00010000
,
00000000
00000010
00000001
00000010
00010000
00000100
00000010
00000002
,
00000000
00000000
00000000
00000000
00000000
00000000
00000103
00000010
00001000
00000000
00000100
00000000
00020000
00000000
00000000
00000000
,
00000000
00031000
01000000
10000000
01000000
00001000
00100000
01000000
,
10000000
00000000
00001000
00000000
01000000
00000000
00100000
00000000
01000000
00000000
00001000
00000000
00010000
00000010
00010000
00000010
,
00000200
00000000
00000000
00000000
,
00000000
00000000
00000300
00000000
;

//---------------dance-single - ----------------
#NOTES:
     dance-single:
     :
     Beginner:
     1:
     0.078,0.118,0.025,0.000,0.000:
0000
0000
0000
0000
,
0000
0000
0000
0000
,
0000
0000
0000
0000
,
0000
0000
0000
0000
,
1000
0000
0000
0000
,
0001
0000
0000
0000
,
1000
0000
0000
0000
,
0001
0000
0000
0000
,
1000
0000
0000
0000
,
0001
0000
0000
0000
,
1000
0000
0000
0000
,
0001
0000
0000
0000
,
0010
0000
0000
0000
,
0010
0000
0000
0000
,
0100
0000
0000
0000
,
0100
0000
0000
0000
,
1000
0000
0000
0000
,
1000
0000
0000
0000
,
0010
0000
0000
0000
,
0010
0000
0000
0000
,
0100
0000
0000
0000
,
0001
0000
0000
0000
,
0100
0000
0000
0000
,
0010
0000
0000
0000
,
0100
0000
0000
0000
,
0001
0000
0000
0000
,
0100
0000
0000
0000
,
0010
0000
0000
0000
,
1000
0000
0000
0000
,
0000
0000
0000
0000
,
0000
0000
0000
0000
,
0000
0000
0000
0000
,
0001
0000
0000
0000
,
1000
0000
0000
0000
,
0001
0000
0000
0000
,
1000
0000
0000
0000
,
0100
0000
0000
0000
,
0010
0000
0000
0000
,
0100
0000
0000
0000
,
0010
0000
0000
0000
,
0001
0000
0000
0000
,
0100
0000
0000
0000
,
0001
0000
0000
0000
,
1000
0000
0000
0000
,
0000
0000
0000
0000
,
0000
0000
0000
0000
,
1001
0000
0000
0000
,
0001
0000
0000
0000
,
0100
0000
0000
0000
,
0001
0000
0000
0000
,
1000
0000
0000
0000
,
0100
0000
0000
0000
,
1000
0000
0000
0000
,
0100
0000
0000
0000
,
1001
0000
0000
0000
,
0001
0000
0000
0000
,
0100
0000
0000
0000
,
0010
0000
0000
0000
,
0100
0000
0000
0000
,
0001
0000
0000
0000
,
1000
0000
0000
0000
,
0100
0000
0000
0000
,
0010
0000
0000
0000
,
0010
0000
0000
0000
,
0100
0000
0000
0000
,
0100
0000
0000
0000
,
1000
0000
0000
0000
,
1000
0000
0000
0000
,
0001
0000
0000
0000
,
0001
0000
0000
0000
,
1001
0000
0000
0000
;
