#TITLE:madrugada;
#SUBTITLE:;
#ARTIST:PINK PONG;
#TITLETRANSLIT:;
#SUBTITLETRANSLIT:;
#ARTISTTRANSLIT:;
#CREDIT:DigiMindAxel;
#BANNER:madrugada.png;
#BACKGROUND:madrugada-bg.png;
#LYRICSPATH:;
#CDTITLE:beatmania IIDX.png;
#MUSIC:madrugada.ogg;
#METERTYPE:DDR X;
#OFFSET:-0.406;
#SAMPLESTART:84.880;
#SAMPLELENGTH:12.000;
#SELECTABLE:YES;
#BPMS:0.000=125.000,144.000=62.500,160.000=125.000;
#STOPS:;
#BGCHANGES:-1.000=madrugada.avi=1.000=1=1=0,
99999=-nosongbg-=1.000=0=0=0 // don't automatically add -songbackground-
;

//---------------dance-single - ----------------
#NOTES:
     dance-single:
     :
     Easy:
     5:
     0.180,0.233,0.067,0.125,0.000: // measure 1
0000
0000
0000
0000
,  // measure 2
0000
0000
0000
0000
,  // measure 3
0000
0000
0000
0000
,  // measure 4
0000
0000
0000
0000
,  // measure 5
2001
0000
0100
0000
,  // measure 6
3100
0000
0010
0000
,  // measure 7
0002
0000
0100
0000
,  // measure 8
0103
0000
0010
0000
,  // measure 9
1000
0000
0100
0000
,  // measure 10
0010
0000
0100
0000
,  // measure 11
1000
0000
0100
0000
,  // measure 12
0010
0000
0001
0000
,  // measure 13
0200
0000
0010
0000
,  // measure 14
0010
0000
0310
0000
,  // measure 15
2000
0000
0001
0000
,  // measure 16
0001
0000
3001
0000
,  // measure 17
0020
0000
0001
0000
,  // measure 18
0001
0000
0031
0000
,  // measure 19
0200
0000
0010
0000
,  // measure 20
0010
0000
0310
0000
,  // measure 21
1001
0100
0010
0001
,  // measure 22
2000
0000
0010
0000
,  // measure 23
3020
0000
0100
0000
,  // measure 24
0000
0000
0130
0001
,  // measure 25
0010
0100
1000
0001
,  // measure 26
0020
0000
0100
0000
,  // measure 27
0130
0000
1000
0000
,  // measure 28
0010
0000
0000
0000
,  // measure 29
1001
0000
0001
0000
,  // measure 30
0100
0000
0010
0000
,  // measure 31
2000
0000
0001
0000
,  // measure 32
0001
0000
3001
1000
,  // measure 33
0100
0000
0010
0000
,  // measure 34
0001
0000
1000
0000
,  // measure 35
0020
0000
0100
0000
,  // measure 36
0100
0000
0130
0000
,  // measure 37
2002
0000
0000
0000
,  // measure 38
3003
0000
0000
0000
,  // measure 39
0220
0000
0000
0000
,  // measure 40
0000
0000
0330
0000
,  // measure 41
1001
1000
0010
1000
,  // measure 42
0010
0100
0010
0100
,  // measure 43
0001
0010
0001
0010
,  // measure 44
0100
1000
0010
0000
,  // measure 45
0100
0001
0100
0001
,  // measure 46
1000
0100
1000
0100
,  // measure 47
0010
0001
0010
0001
,  // measure 48
0100
0010
1000
0000
,  // measure 49
0001
1000
0001
1000
,  // measure 50
0100
1000
0100
1000
,  // measure 51
0010
0100
0010
0100
,  // measure 52
0001
0010
0100
0000
,  // measure 53
1000
0001
1000
0001
,  // measure 54
0100
0001
0100
0001
,  // measure 55
1000
0000
0000
0001
0000
0000
1000
0000
,  // measure 56
0000
0000
0000
0000
1001
0000
0000
1001
;

//---------------dance-single - ----------------
#NOTES:
     dance-single:
     :
     Medium:
     8:
     0.332,0.326,0.125,0.225,0.013:
0000
0000
0000
0000
,
0000
0000
0000
0000
,
0000
0000
0000
0000
,
0000
0000
0000
0000
,
1001
0000
0001
0000
0100
0010
0100
0010
,
0100
0001
1000
0100
,
0010
0000
0100
0000
1000
0001
1000
0001
,
1000
0000
0100
0000
1000
0000
0001
1000
,
0010
0100
0010
0000
1000
0100
1000
0000
,
0100
0010
0100
0000
0010
0001
0010
0000
,
0001
1000
0001
0000
1000
0010
1000
0000
,
0001
0100
0001
1000
0100
0000
0100
0000
,
1002
0000
0103
0010
,
2000
0000
3200
0320
,
0032
0000
1003
0010
,
0200
0000
0301
0010
,
0200
0000
1300
0010
,
0200
0000
0302
0203
,
0320
0000
1030
0100
,
0010
0010
0010
0000
0002
0000
0000
0000
,
1003
1100
1100
0110
,
1002
0000
1000
0100
,
2003
0000
0000
0100
0100
0000
0000
0000
,
3002
0000
0203
0000
,
0310
0101
0101
0110
,
2001
0000
0001
0100
,
3002
0000
0000
0100
0100
0000
0000
0000
,
0203
0000
0000
0300
,
1001
0000
0001
0100
0000
0100
0010
0000
,
1000
0000
1000
0100
0000
0100
0010
0000
,
0001
0000
0001
0100
0000
0100
0010
0000
,
0100
0000
0100
0001
0000
0001
1000
0000
,
0100
0000
0100
1000
0000
1000
0010
0000
,
0100
0000
0100
0001
0000
0001
1000
0000
,
0100
0000
0100
1000
0000
1000
0010
0000
,
0100
0000
0100
0001
0000
0001
1000
0100
,
0020
0000
0032
0000
,
0203
0000
0000
0000
0000
0000
0010
0310
,
1002
0000
0203
0000
,
0320
0000
0000
0000
0000
0000
0000
0000
1030
0000
0000
0001
0000
0000
1000
0001
,
1000
0100
0010
0000
0001
0100
0001
0000
,
1000
0100
0010
0000
0001
0100
0001
0000
,
0100
0010
1000
0000
0100
0010
0100
0000
,
1000
0010
0100
0000
0001
0010
0100
1000
,
0001
0100
0001
0000
0010
0100
1000
0000
,
0001
0100
0001
0000
0010
0100
1000
0000
,
0001
1000
0010
0000
0100
0001
1000
0000
,
0100
0010
0001
0000
0100
0010
1000
0100
,
0020
0000
0001
0001
0000
0000
0031
0000
,
0200
0000
0010
0010
0000
0000
0310
0000
,
1000
0000
0001
0100
0010
1000
0100
1000
,
0001
0000
0010
0000
0100
1000
0010
0100
,
0001
1000
0001
1001
,
1000
0000
0001
0000
0011
0000
0100
1000
,
0010
0010
0000
0100
0100
0000
0010
0010
,
0000
0000
0100
0000
0010
0000
0000
0000
1000
0000
0000
1000
0000
0000
1001
0000
;

//---------------dance-single - ----------------
#NOTES:
     dance-single:
     :
     Hard:
     13:
     0.572,0.699,0.108,0.209,0.621:
0000
0000
0000
0000
,
0000
0000
0000
0000
,
0000
0000
0000
0000
,
0000
0000
0000
0000
,
1001
0000
0000
0000
1000
0000
0000
1000
0001
0000
0100
0000
0010
0000
1000
0000
,
0100
0000
0000
0100
1000
0000
0001
0000
0010
0000
0000
0000
0010
0000
0000
0000
,
0110
0000
0000
0000
0100
0000
0000
0100
1000
0000
0001
0000
0010
0000
0100
0000
,
1000
0000
0000
1000
0001
0000
0100
0000
0010
0000
0000
1000
0001
0000
0001
0000
,
1000
0010
0001
0010
1000
0010
0100
0001
,
1000
0100
0001
0100
1000
0100
0010
0001
,
1000
0010
0001
0010
1000
0100
0010
0001
,
1000
0000
0010
1000
0000
0010
1000
0000
0001
0010
0001
0010
0000
0001
0010
0001
,
0010
0000
0000
0010
0000
0000
0001
0000
0100
0000
0000
1000
0000
0000
0100
0000
,
0010
0000
0000
1000
0000
0000
0001
0000
0010
0000
0000
1000
0000
0000
0010
0000
,
0100
0000
0000
1000
0000
0000
0001
0000
0100
0000
0000
0010
0000
0000
1000
0000
,
0001
0000
0000
0010
0000
0000
0100
0000
0010
0000
0000
0001
0000
0000
0100
0000
,
0010
0000
0000
1000
0000
0000
0100
0000
0001
0000
0000
0100
0000
0000
0010
0000
,
0001
0000
0000
1000
0000
0000
0001
0000
0100
0000
0000
1000
0000
0000
0100
0000
,
0010
0000
0000
1000
0000
0000
0100
0000
0010
0000
0000
0001
0000
0000
1000
0000
,
0010
0100
0010
0100
0010
0000
0010
0000
0110
0000
0000
0100
0000
0000
0100
0000
,
1001
1020
0230
0302
,
0023
0100
0000
0000
0130
0010
0001
0010
,
0200
0000
0000
1000
1000
0000
1300
0000
,
0020
0000
0100
0000
0000
0000
0000
0000
0130
0000
0000
0001
0000
0000
1000
0000
,
1010
0210
0302
2003
,
3200
0010
0000
0000
0310
0100
1000
0100
,
0020
0000
0000
0001
0001
0000
0031
0000
,
0200
0000
0000
0000
0000
0000
0000
0000
0310
0100
0010
0100
0010
0100
0010
0000
,
1001
0000
0000
0001
0100
0000
0010
0000
0000
0000
1000
0010
0000
1000
0001
0000
,
0010
0000
0000
0010
0100
0000
1000
0000
0000
0000
0010
0100
0000
0001
0010
0000
,
0100
0000
0000
0100
1000
0000
0010
0000
0000
0000
0100
0001
0000
1000
0100
0000
,
0010
0000
0010
0000
0001
0000
1000
0000
0000
0000
0010
1000
0000
0100
0010
0000
,
0001
0000
0000
0001
1000
0000
0010
0000
0100
0000
0000
0100
0001
0000
0010
0000
,
0100
0000
0000
0100
1000
0000
0010
0000
0100
0000
0000
0100
0001
0000
0010
0000
,
0100
0000
0000
0100
1000
0000
0001
0000
0100
0000
0000
0100
0001
0000
1000
0000
,
0100
1000
0100
0000
0100
0000
1000
0001
0000
0001
1000
0000
0001
0100
0001
0000
,
2001
0000
0100
0100
0000
0000
3200
0000
0320
0000
0001
0001
0000
0000
0032
0000
,
0203
0000
0301
1000
0100
0010
0001
1000
0020
0000
0000
1030
0001
0010
0100
1000
,
1002
0000
0000
0203
0320
0000
2030
0000
,
3002
0000
0000
0000
1003
0000
0010
0000
0100
0000
0001
0000
0010
0000
0100
0000
0010
0001
0000
0010
0001
0000
1000
0001
0000
1000
0001
0000
0010
0000
0100
0000
,
1000
0010
1000
0000
0010
0100
0000
0010
0100
0000
0010
0100
0000
0100
0001
0000
,
1000
0001
1000
0000
0100
0010
0000
0100
0010
0000
0001
0100
0000
0100
0010
0000
,
0100
0001
0100
0000
0010
1000
0000
0010
1000
0000
0100
0010
0000
0010
0001
0000
,
1000
0001
1000
0001
0010
0100
0010
0000
0002
0000
0000
1000
0000
0000
1003
0000
,
0001
0010
0001
0000
0100
0010
0000
0100
0010
0000
1000
0010
0000
0010
0100
0000
,
0010
0100
0010
0000
0100
0001
0000
0100
0001
0000
0010
0100
0000
0100
1000
0000
,
0001
1000
0001
0000
0010
0001
0000
0010
0001
0000
0100
0010
0000
0010
1000
0000
,
0001
1000
0001
1000
0100
0010
0100
0000
2000
0000
0000
0001
0000
0000
3001
0000
,
1000
0010
1000
0000
0010
0100
0000
0100
0001
0000
0001
0010
0000
0010
0100
0000
,
1000
0001
1000
0000
0100
1000
0000
1000
0010
0000
0010
0100
0000
0100
0001
0000
,
0010
0100
0010
0000
0001
1000
0000
1000
0100
0000
0100
0010
0000
0010
0001
0000
,
1000
0010
1000
0010
0100
0001
0010
0000
0100
1000
0100
1000
0001
0010
0001
0010
,
0100
1000
0100
0000
1000
0010
0000
0010
0001
0000
0001
0010
0000
0010
1000
0000
,
0100
0010
0100
0000
1000
0100
0000
0100
0001
0000
0001
0100
0000
0100
1000
0000
,
0010
0100
0010
0100
0001
0000
0100
0001
0100
0001
1000
0000
0100
1000
0100
1000
,
0010
0000
0100
0010
0100
0000
0000
0000
0011
0000
0000
0011
0000
0000
1001
0000
;

//---------------dance-single - ----------------
#NOTES:
     dance-single:
     :
     Beginner:
     2:
     0.079,0.116,0.033,0.000,0.000:
0000
0000
0000
0000
,
0000
0000
0000
0000
,
0000
0000
0000
0000
,
0000
0000
0000
0000
,
1000
0000
0000
0000
,
0100
0000
0000
0000
,
1000
0000
0000
0000
,
0100
0000
0000
0000
,
0010
0000
0000
0000
,
0010
0000
0000
0000
,
0010
0000
0000
0000
,
0010
0000
0000
0000
,
0001
0000
0000
0000
,
0100
0000
0000
0000
,
0010
0000
0000
0000
,
0100
0000
0000
0000
,
0001
0000
0000
0000
,
1000
0000
0000
0000
,
0100
0000
0000
0000
,
1000
0000
0000
0000
,
1001
0000
0000
0000
,
0001
0000
0000
0000
,
1000
0000
0000
0000
,
0000
0000
0000
0000
,
0001
0000
0000
0000
,
1000
0000
0000
0000
,
0001
0000
0000
0000
,
1000
0000
0000
0000
,
0100
0000
0000
0000
,
0010
0000
0000
0000
,
0100
0000
0000
0000
,
0010
0000
0000
0000
,
0001
0000
0000
0000
,
0100
0000
0000
0000
,
0001
0000
0000
0000
,
1000
0000
0000
0000
,
1001
0000
0000
0000
,
1000
0000
0000
0000
,
1001
0000
0000
0000
,
0001
0000
0000
0000
,
1000
0000
0010
0000
,
1000
0000
0010
0000
,
1000
0000
0010
0000
,
1000
0000
0000
0000
,
0001
0000
1000
0000
,
0001
0000
1000
0000
,
0001
0000
1000
0000
,
0001
0000
0000
0000
,
0010
0000
0001
0000
,
0010
0000
0001
0000
,
0010
0000
0001
0000
,
0010
0000
0000
0000
,
0001
0000
1000
0000
,
0001
0000
1000
0000
,
0001
0000
0000
0000
,
0000
0000
1001
0000
;
