#TITLE:lifework;
#SUBTITLE:;
#ARTIST:ああああ;
#TITLETRANSLIT:;
#SUBTITLETRANSLIT:;
#ARTISTTRANSLIT:aaaa;
#CREDIT:DigiMindAxel;
#BANNER:lifework.png;
#BACKGROUND:lifework-bg.png;
#LYRICSPATH:;
#CDTITLE:DigiMindAxel original simfile.png;
#MUSIC:lifework.ogg;
#METERTYPE:DDR X;
#OFFSET:-0.356;
#SAMPLESTART:21.908;
#SAMPLELENGTH:12.000;
#SELECTABLE:YES;
#BPMS:0.000=178.000;
#STOPS:;
#BGCHANGES:0.000=lifework.avi=1.000=1=1=0,
99999=-nosongbg-=1.000=0=0=0 // don't automatically add -songbackground-
;

//---------------dance-single - ----------------
#NOTES:
     dance-single:
     :
     Easy:
     6:
     0.291,0.365,0.029,0.096,0.000:
0000
0000
0000
0000
,
0000
0000
0000
0000
,
0000
0000
0000
0000
,
0000
0000
0000
0000
,
0000
0000
0000
0000
,
0000
0000
0000
0000
,
0000
0000
0000
0000
,
0000
0000
0000
0000
,
1000
0000
0001
0000
,
0100
0000
0001
0000
,
1000
0000
0100
0000
,
0010
0000
0100
0000
,
1000
0000
0001
0000
,
0100
0000
0001
0000
,
1000
0000
0100
0000
,
0010
0000
0001
0000
,
1001
0000
1000
0000
,
0100
0000
1000
0000
,
0010
0000
0100
0000
,
0001
0000
0001
0000
,
0010
0000
0100
0000
,
0010
0000
0001
0000
,
1000
0000
0010
0000
,
0200
0000
0000
0310
,
1001
1000
0001
0100
,
0001
1000
0100
0010
,
0001
0001
1000
1000
,
0001
0001
0100
0100
,
0010
1000
0100
0010
,
0001
0001
1000
1000
,
0100
0010
0001
0100
,
0010
0010
1000
1000
,
0100
0100
1000
1000
,
0010
0100
0001
1000
,
0010
0010
0100
0100
,
0001
0010
0100
1000
,
0001
0001
1000
1000
,
0100
0010
0001
1000
,
0100
0100
1000
1000
,
0010
0100
0001
0100
,
0020
0000
0000
0000
,
0230
0000
0000
0000
,
0302
0000
0000
0000
,
2003
0000
0000
0000
,
3200
0000
0000
0000
,
2300
0000
0000
0000
,
3002
0000
0000
0000
,
0203
0000
0000
0310
,
1001
1000
0001
0100
,
0001
0001
1000
1000
,
0100
0100
0010
0001
,
1000
0010
0100
0100
,
0001
1000
0100
0100
,
0010
0001
1000
1000
,
0010
0100
0001
0001
,
0010
0000
0000
0000
,
0001
1000
0100
1000
,
0001
0001
0010
0010
,
0100
1000
0010
0100
,
0001
0001
1000
1000
,
0100
0010
0001
0100
,
0010
0010
1000
1000
,
0100
0010
0100
0010
,
0001
0001
1000
1000
,
0001
0100
0010
1000
,
0100
0100
0010
0010
,
0001
1000
0100
1000
,
0001
0001
0100
0100
,
0001
0010
0100
1000
,
0001
0001
1000
1000
,
0100
0010
0001
1000
,
0010
0100
0001
1000
,
0020
0000
0000
0000
,
0000
0000
0000
0000
,
0000
0000
0000
0000
,
0000
0000
0000
0000
,
0030
0000
0000
0000
;

//---------------dance-single - ----------------
#NOTES:
     dance-single:
     :
     Medium:
     10:
     0.469,0.583,0.384,0.182,0.014: // measure 1
0000
0000
0000
0000
,  // measure 2
0000
0000
0000
0000
,  // measure 3
0000
0000
0000
0000
,  // measure 4
0000
0000
0000
0000
,  // measure 5
0000
0000
0000
0000
,  // measure 6
0000
0000
0000
0000
,  // measure 7
0000
0000
0000
0000
,  // measure 8
0000
0000
0000
0000
,  // measure 9
1001
0001
0100
0101
,  // measure 10
0000
0001
1000
1100
,  // measure 11
0000
0010
0001
1001
,  // measure 12
0000
1000
0010
0110
,  // measure 13
0000
0100
0001
0011
,  // measure 14
0000
1100
1000
0010
,  // measure 15
0000
0110
0100
0001
,  // measure 16
0000
1001
0001
1000
,  // measure 17
1100
0100
0010
0011
,  // measure 18
0000
1100
0100
0010
,  // measure 19
0000
0101
0001
1000
,  // measure 20
0000
1010
1000
0001
,  // measure 21
0000
0110
0100
1000
,  // measure 22
0000
0110
0010
0001
,  // measure 23
0000
1001
0001
0100
,  // measure 24
0002
0000
0000
0000
0000
1000
1003
0000
,  // measure 25
0001
0100
0001
0000
2000
0000
3200
0000
,  // measure 26
0310
0001
0010
0001
1000
0100
0010
0000
,  // measure 27
0100
1000
0100
0000
0020
0000
0032
0000
,  // measure 28
0103
0010
0100
0001
1000
0100
1000
0000
,  // measure 29
0001
1000
0001
0000
2000
0000
3020
0000
,  // measure 30
0130
0001
0100
0000
0001
1000
0100
0000
,  // measure 31
1000
0001
1000
0000
0200
0000
0320
0000
,  // measure 32
0031
0100
0001
1000
0100
1000
0001
0000
,  // measure 33
0010
0100
0010
0000
0002
0000
2003
0000
,  // measure 34
3100
1000
0100
0000
0010
0001
0100
0000
,  // measure 35
0001
1000
0001
0000
2000
0000
3200
0000
,  // measure 36
0310
0100
0010
0000
0001
1000
0010
0000
,  // measure 37
0100
0010
0100
0000
0002
0000
2003
0000
,  // measure 38
3100
0010
0100
0000
1000
0010
0100
0000
,  // measure 39
0001
1000
0100
0000
0020
0000
0032
0000
,  // measure 40
0103
0010
0100
0010
1000
0100
0010
0000
,  // measure 41
1001
0000
0000
1000
0000
0000
1000
0000
,  // measure 42
0000
0000
0000
0100
0000
0000
0100
0000
,  // measure 43
0000
0000
0000
0010
0000
0000
0010
0000
,  // measure 44
0000
0000
0000
0001
0000
0000
0001
0000
,  // measure 45
0000
0000
0000
1000
0000
0000
1000
0000
,  // measure 46
0000
0000
0000
0010
0000
0000
0010
0000
,  // measure 47
0000
0000
0000
0100
0000
0000
0100
0000
,  // measure 48
0000
0000
0000
0000
0000
0001
0001
0000
,  // measure 49
1000
0000
1010
0000
0010
0100
0001
0000
,  // measure 50
1000
0000
1100
0000
0100
0010
0001
0000
,  // measure 51
0010
0000
0110
0000
0100
1000
0001
0000
,  // measure 52
0100
0000
0101
0000
0001
1000
0100
0010
,  // measure 53
0001
0000
1001
0000
1000
0010
0100
0000
,  // measure 54
0010
0000
1010
0000
1000
0001
0010
0000
,  // measure 55
0100
0000
0110
0000
0010
0100
1000
0000
,  // measure 56
2001
0000
0000
0000
0000
0001
3001
0000
,  // measure 57
1000
0000
0000
0000
0100
0000
0000
0000
0010
0000
0100
0000
0000
1000
0000
0000
,  // measure 58
1100
0000
0000
1001
0000
0000
0101
0000
,  // measure 59
0100
0001
0010
0000
0100
0000
1000
0000
,  // measure 60
0100
1000
0010
0000
0100
0001
1000
0000
,  // measure 61
0001
0000
0000
0000
0100
0000
0000
0000
1000
0000
0100
0000
0000
0001
0000
0000
,  // measure 62
1001
0000
0000
1100
0000
0000
0011
0000
,  // measure 63
0001
1000
0001
1000
0100
1000
0100
0010
,  // measure 64
0001
0010
0001
0100
0010
0100
0001
0000
,  // measure 65
1000
0000
0010
0000
0100
0000
0000
0000
0001
0000
1000
0000
0000
0010
0000
0000
,  // measure 66
0110
0000
0000
0101
0000
0000
1010
0000
,  // measure 67
1000
0001
0010
0000
0100
1000
0100
0000
,  // measure 68
0010
0001
1000
0000
0010
0100
0010
1000
,  // measure 69
1001
0000
0000
1100
0000
0000
1001
0000
,  // measure 70
0000
0011
0000
0000
1001
0000
0000
0000
,  // measure 71
1000
0100
1000
0100
0010
0001
0010
0000
,  // measure 72
0100
1000
0001
0100
0010
0100
0001
1000
,  // measure 73
0200
0000
0000
0000
,  // measure 74
0000
0000
0000
0000
,  // measure 75
0000
0000
0000
0000
,  // measure 76
0000
0000
0000
0000
,  // measure 77
0300
0000
0000
0000
;

//---------------dance-single - ----------------
#NOTES:
     dance-single:
     :
     Hard:
     13:
     0.635,0.766,0.086,0.269,0.427: // measure 1
0000
0000
0000
0000
,  // measure 2
0000
0000
0000
0000
,  // measure 3
0000
0000
0000
0000
,  // measure 4
0000
0000
0000
0000
,  // measure 5
0000
0000
0000
0000
,  // measure 6
0000
0000
0000
0000
,  // measure 7
0000
0000
0000
0000
,  // measure 8
0000
0000
0000
0000
,  // measure 9
1001
0000
1000
0010
0000
1000
0001
0010
,  // measure 10
0100
0010
0000
0001
0100
0001
0000
1000
,  // measure 11
0000
0000
0100
0000
0010
0000
0001
0010
,  // measure 12
0100
1000
0000
0010
0000
0100
0010
0100
,  // measure 13
0000
0000
0001
0100
0000
0001
1000
0100
,  // measure 14
0010
0100
0000
1000
0010
1000
0000
0001
,  // measure 15
0000
0000
0010
0000
0100
0000
1000
0001
,  // measure 16
0100
0001
0000
1000
0100
0010
0001
0000
,  // measure 17
1001
0000
1000
0100
0000
0010
0100
1000
,  // measure 18
0010
1000
0000
0100
0010
0100
0000
1000
,  // measure 19
0000
0000
0010
0000
0100
0000
0001
0010
,  // measure 20
0100
1000
0000
0001
0000
0100
0001
0100
,  // measure 21
0000
0000
0001
1000
0000
0100
0010
0001
,  // measure 22
0100
0001
0000
1000
0100
1000
0000
0001
,  // measure 23
0000
0000
0010
0000
0100
0000
1000
0001
,  // measure 24
0200
0000
0000
0000
0000
0001
0301
0000
,  // measure 25
1000
0000
1000
0000
1000
0000
0000
0000
0010
0100
0000
0000
0001
0100
0000
0000
,  // measure 26
0001
0000
1000
0000
0100
0000
0010
0000
0100
1000
0100
1000
0100
0000
0000
0000
,  // measure 27
0010
0000
0010
0000
0010
0000
0000
0000
0001
0100
0000
0000
0001
1000
0000
0000
,  // measure 28
0200
0000
0000
0000
0320
0000
0000
0000
0031
1000
0001
1000
0001
0000
0000
0000
,  // measure 29
0100
0000
0100
0000
0100
0000
0000
0000
0001
1000
0000
0000
0100
0010
0000
0000
,  // measure 30
0001
0000
0100
0000
0010
0000
0100
0000
0001
1000
0001
1000
0001
0000
0000
0000
,  // measure 31
0010
0000
0010
0000
0010
0000
0000
0000
0001
1000
0000
0000
0010
1000
0000
0000
,  // measure 32
0200
0000
0000
0000
0320
0000
0000
0000
0031
0100
0001
0100
0001
0000
0000
0000
,  // measure 33
0010
0100
0010
0100
0010
0000
0000
0000
0001
0000
0010
0000
1000
0000
0010
0000
,  // measure 34
0001
0000
0100
0000
0010
0000
1000
0000
0100
0010
0100
0010
0100
0000
0000
0000
,  // measure 35
1000
0001
1000
0001
1000
0000
0000
0000
0001
0000
0010
0000
1000
0000
0010
0000
,  // measure 36
0001
0000
1000
0000
0100
0000
0010
0000
0001
0100
0001
0100
0001
0000
0000
0000
,  // measure 37
1000
0001
1000
0001
1000
0000
0000
0000
0100
0010
0000
0000
0001
0100
0000
0000
,  // measure 38
0001
0000
1000
0000
0100
0000
0001
0000
0100
1000
0100
1000
0100
0000
0000
0000
,  // measure 39
1000
0001
1000
0001
1000
0000
0000
0000
0010
0100
0000
0000
0001
0010
0000
0000
,  // measure 40
0001
1000
0000
0000
0100
0010
0000
0000
0001
0100
0001
0100
0001
0000
0000
0000
,  // measure 41
1001
0000
0001
1000
0000
0001
1000
0000
,  // measure 42
0100
0000
0000
0010
0100
0000
1000
0000
,  // measure 43
0001
0000
0100
0001
0000
1000
0100
0000
,  // measure 44
0010
0000
0000
0001
0100
0000
0010
0000
,  // measure 45
1000
0000
0100
0010
0000
0001
0010
0000
,  // measure 46
0100
0000
0000
1000
0010
0000
0100
0000
,  // measure 47
0001
0000
0010
0100
0000
1000
0001
0000
,  // measure 48
2000
0000
0000
0000
0000
0010
3010
0000
,  // measure 49
0101
0000
0000
0001
1000
0000
0000
0100
0000
0000
0010
0000
0100
0000
1000
0000
,  // measure 50
0001
0000
0000
0100
0001
0000
0000
0010
0000
0000
0100
0000
0010
0000
0001
0000
,  // measure 51
1000
0000
0000
0001
0100
0000
0000
0001
0000
0000
1000
0000
0010
0000
0001
0000
,  // measure 52
0010
0000
0000
1000
0001
0000
0000
0100
0000
0000
0010
0000
1000
0000
0100
0010
,  // measure 53
0100
0000
0000
1000
0010
0000
0000
0100
0000
0000
0001
0000
0010
0000
1000
0000
,  // measure 54
0010
0000
0000
0001
1000
0000
0000
0010
0000
0000
1000
0000
0100
0000
0001
0000
,  // measure 55
0100
0000
0000
1000
0001
0000
0000
0010
0000
0000
0100
0000
1000
0000
0001
0000
,  // measure 56
0100
0001
0000
0001
0000
0001
1000
0001
,  // measure 57
0100
0000
0010
0000
0000
1000
0000
0000
0100
0000
0010
0000
0000
0001
0000
0000
,  // measure 58
1000
0010
0000
1000
0010
0000
1000
0001
0000
1000
0001
0000
0010
0000
0100
0000
,  // measure 59
1000
0010
1000
0000
0001
0000
0000
0010
0000
0000
0100
0000
0000
0010
0000
0000
,  // measure 60
0002
0000
0000
0023
0000
0000
2030
0000
0000
3020
0000
0000
0032
0000
0100
0000
,  // measure 61
0103
0000
0001
0000
0000
1000
0000
0000
0010
0000
1000
0000
0000
0100
0000
0000
,  // measure 62
0010
0001
0000
0010
0001
0000
0010
0100
0000
0010
0100
0000
2000
0000
0001
0000
,  // measure 63
3001
1000
0001
0000
1000
0000
0100
0000
0001
0000
1000
0000
0010
0000
0001
0000
,  // measure 64
1000
0000
0001
0000
0100
0000
1000
0000
0100
0000
0001
0000
1000
0001
1000
0001
,  // measure 65
1000
0000
0100
0000
0000
0010
0000
0000
0001
0000
0000
0100
0000
0000
0010
0000
,  // measure 66
1000
0001
0000
1000
0001
0000
0100
0001
0000
0100
0001
0000
2000
0000
0001
0000
,  // measure 67
3001
1000
0001
0000
1000
0000
0000
0010
0000
0000
0100
0000
0000
0001
0000
0000
,  // measure 68
2000
0000
0000
3200
0000
0000
0302
0000
0000
0203
0000
0000
1300
0001
1000
0000
,  // measure 69
2200
0000
3300
0220
0000
0330
0022
0000
,  // measure 70
0033
2002
0000
3003
0220
0000
0000
0330
,  // measure 71
0010
1000
0100
0000
0010
0000
0001
0000
1000
0100
1000
0000
0001
0000
0100
0000
,  // measure 72
0010
1000
0001
0000
0010
0000
0100
0000
1000
0001
1000
0000
0010
0000
0100
0000
,  // measure 73
0002
0000
0000
0000
,  // measure 74
0000
0000
0000
0000
,  // measure 75
0000
0000
0000
0000
,  // measure 76
0000
0000
0000
0000
,  // measure 77
0003
0000
0000
0000
;

//---------------dance-single - ----------------
#NOTES:
     dance-single:
     :
     Challenge:
     16:
     0.891,1.000,0.249,0.365,0.835: // measure 1
0000
0000
0000
0000
,  // measure 2
0000
0000
0000
0000
,  // measure 3
0000
0000
0000
0000
,  // measure 4
0000
0000
0000
0000
,  // measure 5
0000
0000
0000
0000
,  // measure 6
0000
0000
0000
0000
,  // measure 7
0000
0000
0000
0000
,  // measure 8
0000
0000
0000
0000
,  // measure 9
2001
0000
0000
0000
0100
0000
0100
0000
0000
0000
0001
0000
3001
0000
1000
0100
,  // measure 10
0010
0000
0002
0000
0000
0000
1003
0100
0010
0000
0001
0000
0100
0000
0001
0000
,  // measure 11
0000
0000
1000
0000
0100
0000
1000
0000
0100
0000
0010
0001
0100
0000
0020
0000
,  // measure 12
1000
1000
0000
0100
0000
0130
0001
0010
,  // measure 13
0200
0000
0000
0000
1000
0000
1000
0000
0000
0000
0010
0000
0310
0000
0001
0100
,  // measure 14
0010
0000
2000
0000
0000
0000
3001
0100
0010
0000
2000
0000
0000
0000
3001
0000
,  // measure 15
0000
0000
1000
0000
0010
0000
1000
0000
0010
0000
0100
0001
0010
0000
0200
0000
,  // measure 16
1000
0000
1000
0000
0000
0000
0010
0000
0310
0001
0100
0000
0010
0000
1000
0001
,  // measure 17
2000
0000
0000
0000
0100
0000
0100
0000
0000
0000
0001
0000
3001
0000
1000
0100
,  // measure 18
0010
0000
0001
0000
0001
0000
1000
0100
0010
0000
0001
0000
0001
0000
0100
0000
,  // measure 19
0000
0000
0010
0000
1000
0000
0001
0000
1000
0000
0010
0100
0001
0000
1000
0000
,  // measure 20
0100
0010
0000
0010
0001
0100
1000
0100
,  // measure 21
0002
0000
0000
0000
0010
0000
0010
0000
0000
0000
1000
0000
1003
0000
0001
0010
,  // measure 22
0100
0000
1000
0000
1000
0000
0001
0010
0100
0000
1000
0000
1000
0000
0010
0000
,  // measure 23
0000
0000
0100
0000
0001
0000
1000
0000
0100
0000
0010
0001
1000
0000
0010
0000
,  // measure 24
0200
0000
0000
0000
0000
0310
0110
0000
,  // measure 25
1000
0001
1000
0000
0001
1000
0001
0000
1000
0100
0010
0000
0100
1000
0100
0000
,  // measure 26
0010
0000
0100
0000
1000
0001
1000
0000
0001
0100
0010
0100
0001
0000
0000
0000
,  // measure 27
1000
0001
1000
0000
0001
1000
0001
0000
0100
0001
0100
0000
0010
0100
0001
0000
,  // measure 28
1000
0100
2000
0000
3010
0100
0020
0000
1030
0100
0010
0100
1000
0000
0000
0000
,  // measure 29
0001
0100
0001
0000
0100
0001
0100
0000
0001
1000
0100
0000
0010
0100
0010
0000
,  // measure 30
0001
0000
1000
0000
0010
0100
0001
0000
1000
0100
0010
0100
1000
0000
0000
0000
,  // measure 31
0001
0010
0001
0000
0010
0001
0010
0000
0001
0010
0100
0000
1000
0100
1000
0000
,  // measure 32
0001
0100
0002
0000
1003
0100
2000
0000
3001
0100
0010
0100
0001
0000
0000
0000
,  // measure 33
1000
0001
1000
0001
1000
0001
1000
0000
0100
0010
0001
0000
1000
0100
0010
0000
,  // measure 34
0002
0000
0100
0000
0103
0010
1000
0010
1000
0100
0010
0100
0010
0000
0000
0000
,  // measure 35
0001
1000
0001
1000
0001
1000
0001
0000
0010
0100
1000
0000
0001
0010
0100
0000
,  // measure 36
1000
0010
2000
0000
3001
0100
0002
0000
0013
0100
1000
0100
0010
0000
0000
0000
,  // measure 37
0001
1000
0001
1000
0001
1000
0001
0000
0100
0010
1000
0000
0010
0100
0001
0000
,  // measure 38
0020
0000
0100
0000
0130
1000
0001
1000
0001
0100
0001
0100
0001
0000
0000
0000
,  // measure 39
0100
0010
0100
0010
0100
0010
0100
0000
0001
1000
0100
0000
0010
0001
1000
0000
,  // measure 40
0100
0010
0200
0000
0310
0001
0020
0000
0130
1000
0010
1000
0100
1000
0010
1000
,  // measure 41
0200
0000
0000
0000
0010
0000
0010
0000
0000
0000
0010
0000
0310
0000
0001
1000
,  // measure 42
0002
1000
0000
1000
1000
1000
0000
1003
,  // measure 43
0000
0000
0001
0000
0010
0000
0100
0000
0000
0000
1000
0001
1000
0000
0100
0000
,  // measure 44
0010
0002
0000
0100
0000
0103
0001
0010
,  // measure 45
0200
0000
0000
0000
1000
0000
1000
0000
0000
0000
1000
0000
1300
0000
0010
0100
,  // measure 46
0002
0100
0000
0100
0100
0100
0000
0103
,  // measure 47
0000
0000
0001
0000
1000
0000
0100
0000
0000
0000
0010
0001
0010
0000
0100
0000
,  // measure 48
2000
0000
0000
0000
0000
3001
1001
0000
,  // measure 49
0101
0000
0000
0100
0001
0000
0000
1001
0000
0000
1100
0000
1000
0000
1001
0000
,  // measure 50
0101
0000
0000
0100
0010
0000
0000
1010
0000
0000
1001
0000
0011
0000
0010
0000
,  // measure 51
0110
0000
0000
0100
1000
0000
0000
1001
0000
0000
0101
0000
0110
0000
0010
0000
,  // measure 52
1010
0000
0000
1000
0001
0000
0000
0011
0000
0000
0110
0000
0100
0000
0010
1000
,  // measure 53
0001
0000
0000
0001
1000
0000
0010
1000
0000
1000
0001
0000
0011
0000
0010
0000
,  // measure 54
0110
0000
0000
0100
1000
0000
0010
0100
0000
0100
0001
0000
1001
0000
1000
0000
,  // measure 55
1010
0000
0000
0010
0100
0000
0001
1000
0000
1000
0100
0000
0110
0000
0010
0000
,  // measure 56
0002
1000
0000
1000
0000
1000
1000
1003
,  // measure 57
0001
0000
0100
0000
0010
1000
0000
1000
0100
0000
0010
0001
0000
0001
1000
0000
,  // measure 58
0001
0010
0000
0010
1000
0000
1000
0010
0000
0010
0001
0000
1000
0000
0010
0000
,  // measure 59
0100
0001
0010
0000
0100
1000
0000
1000
0010
0000
0100
0001
0000
0001
1000
0000
,  // measure 60
0100
1000
0000
1000
0010
0000
0100
0001
0000
0001
1000
0000
0010
1000
0100
0010
,  // measure 61
0001
0000
1000
0000
0100
0010
0000
0010
0001
0000
1000
0010
0000
0010
0100
0000
,  // measure 62
0001
0100
0000
0100
1000
0000
1000
0100
0000
0100
0001
0000
1000
0100
0010
0000
,  // measure 63
0001
1000
0010
0000
1000
0010
1000
0000
0001
0010
0100
0000
0010
0001
0010
0000
,  // measure 64
1001
0000
1000
0000
1100
0000
0100
0000
0110
0000
0010
0000
0001
0100
0010
1000
,  // measure 65
0100
0000
0010
0000
0001
0100
0000
0100
0010
0000
1000
0100
0000
0100
0010
0000
,  // measure 66
0001
0100
0000
0100
1000
0000
1000
0100
0000
0100
0001
0000
0010
0100
1000
0000
,  // measure 67
0100
1000
0001
0000
0100
0010
0000
0010
1000
0000
0100
0010
0000
0010
0001
0000
,  // measure 68
1000
0010
0000
0010
0001
0000
0001
0010
0000
0010
1000
0000
0001
1000
0100
0010
,  // measure 69
0002
0200
0000
0000
0303
0000
0200
0020
0000
0000
0330
0000
0020
2000
0000
0000
,  // measure 70
3030
0000
2000
0002
0000
0000
3003
0000
0002
0200
0000
0000
0000
0000
0303
0000
,  // measure 71
0001
1000
0100
0000
0010
0000
0001
0100
0010
0000
0100
0000
0001
1000
0100
0000
,  // measure 72
0010
0001
0010
0100
1000
0100
1000
0001
0100
0010
0100
0001
1000
0010
0100
0010
,  // measure 73
2000
0000
0000
0000
,  // measure 74
0000
0000
0000
0000
,  // measure 75
0000
0000
0000
0000
,  // measure 76
0000
0000
0000
0000
,  // measure 77
3000
0000
0000
0000
;

//---------------dance-single - ----------------
#NOTES:
     dance-single:
     :
     Beginner:
     3:
     0.106,0.173,0.115,0.000,0.000:
0000
0000
0000
0000
,
0000
0000
0000
0000
,
0000
0000
0000
0000
,
0000
0000
0000
0000
,
0000
0000
0000
0000
,
0000
0000
0000
0000
,
0000
0000
0000
0000
,
0000
0000
0000
0000
,
1000
0000
0000
0000
,
0100
0000
0000
0000
,
1000
0000
0000
0000
,
0001
0000
0000
0000
,
0100
0000
0000
0000
,
0001
0000
0000
0000
,
1000
0000
0000
0000
,
0001
0000
0000
0000
,
1001
0000
0000
0000
,
1000
0000
0000
0000
,
0100
0000
0000
0000
,
1000
0000
0000
0000
,
0001
0000
0000
0000
,
1000
0000
0000
0000
,
0001
0000
0000
0000
,
0000
0000
0000
0000
,
1001
0000
0000
0000
,
1000
0000
0000
0000
,
1001
0000
0000
0000
,
0001
0000
0000
0000
,
0110
0000
0000
0000
,
0100
0000
0000
0000
,
0110
0000
0000
0000
,
0010
0000
0000
0000
,
1001
0000
0000
0000
,
1000
0000
0000
0000
,
1001
0000
0000
0000
,
0001
0000
0000
0000
,
0110
0000
0000
0000
,
0010
0000
0000
0000
,
0110
0000
0000
0000
,
0100
0000
0000
0000
,
1001
0000
0000
0000
,
0000
0000
0000
0000
,
0000
0000
0000
0000
,
0000
0000
0000
0000
,
1000
0000
0000
0000
,
0000
0000
0000
0000
,
0001
0000
0000
0000
,
0000
0000
0000
0000
,
0100
0000
0000
0000
,
0001
0000
0000
0000
,
0100
0000
0000
0000
,
0010
0000
0000
0000
,
1000
0000
0000
0000
,
0100
0000
0000
0000
,
0010
0000
0000
0000
,
0100
0000
0000
0000
,
1001
0000
0000
0000
,
1000
0000
0001
0000
,
1000
0000
0000
0000
,
0100
0000
1000
0000
,
0100
0000
0000
0000
,
0010
0000
0100
0000
,
0010
0000
0000
0000
,
1001
0000
0000
0000
,
0001
0000
0000
0000
,
0100
0000
0001
0000
,
0100
0000
0000
0000
,
0010
0000
0100
0000
,
0010
0000
0000
0000
,
0000
0000
0000
0000
,
1000
0000
0100
0000
,
0010
0000
0001
0000
,
0100
0000
0000
0000
;
