#TITLE:i.c.;
#SUBTITLE:;
#ARTIST:Another Infinity;
#TITLETRANSLIT:;
#SUBTITLETRANSLIT:;
#ARTISTTRANSLIT:;
#CREDIT:DigiMindAxel;
#BANNER:i.c..png;
#BACKGROUND:i.c.-bg.png;
#LYRICSPATH:;
#CDTITLE:EXIT TUNES.png;
#MUSIC:i.c..ogg;
#METERTYPE:DDR X;
#OFFSET:-7.587;
#SAMPLESTART:69.451;
#SAMPLELENGTH:12.000;
#SELECTABLE:YES;
#BPMS:0.000=128.000;
#STOPS:191.500=0.234375
;
#BGCHANGES:;

//---------------dance-single - ----------------
#NOTES:
     dance-single:
     :
     Easy:
     5:
     0.289,0.263,0.159,0.090,0.000:
1000
1000
0001
0001
,
1000
1000
0001
0001
,
0100
0100
0010
0010
,
0100
0100
0010
0010
,
0100
0001
0100
0001
,
1000
0100
1000
0100
,
1000
0001
1000
0001
,
0200
0000
0000
0000
,
0301
0001
1000
0100
,
0010
0010
0100
1000
,
0001
0001
1000
0100
,
0010
0010
0001
0010
,
0100
0100
0010
0001
,
1000
1000
0001
0010
,
0100
0100
0010
0001
,
1000
1000
2000
0000
,
3001
0010
0100
1000
,
0001
0001
1000
0001
,
1000
1000
0001
1000
,
0001
0001
1000
0001
,
0100
0100
0010
0100
,
0010
0010
1000
0010
,
1000
1000
0001
0100
,
0001
0001
0100
0010
,
0100
0100
0010
1000
,
0100
0100
0010
0001
,
1000
0010
0100
0001
,
2000
0000
0000
0000
,
3002
0000
0000
0000
,
1003
1001
0001
0100
,
0001
1001
1000
0010
,
1000
1001
0001
0100
,
0001
1001
1000
0010
,
1000
1001
0001
0010
,
0001
1001
1000
0100
,
1000
1001
0001
0010
,
0001
0001
0002
0000
,
1003
1010
0100
0001
,
1000
1010
0100
0001
,
1000
1010
0100
0001
,
1000
1010
0001
1000
,
0001
0101
0010
1000
,
0001
0101
0010
1000
,
0001
0101
0010
1000
,
0001
0101
1000
0001
,
2000
0000
3002
0000
,
2003
0000
3002
0000
,
0100
0103
0010
1000
,
1001
0000
0000
0000
;

//---------------dance-single - ----------------
#NOTES:
     dance-single:
     :
     Medium:
     8:
     0.427,0.382,0.518,0.030,0.000:
0101
0101
1000
0001
,
1010
1010
0001
1000
,
0011
0011
1000
0001
,
1100
0000
1100
0000
0001
0100
1000
0000
,
0010
0100
0010
0000
1000
0000
1010
0000
,
0100
0010
0100
0000
0001
0000
0101
0000
,
0010
0100
0010
0000
1000
0000
1001
0000
,
0200
0000
0001
0301
,
0101
0000
1001
0000
0100
1000
0100
0000
,
0101
0000
1001
0000
0100
1000
0100
0000
,
1010
0000
1001
0000
0010
0001
0010
0000
,
1010
0000
1001
0000
0010
0001
0010
0000
,
0001
0100
0010
0000
0100
0010
0100
0000
,
0010
1000
0100
0000
1000
0001
1000
0000
,
1000
0010
0100
0000
0010
0100
0010
0000
,
0100
0001
0010
0000
0001
1000
0001
1000
,
0002
0100
1000
0100
,
1003
1010
1000
1010
,
0001
0011
0001
0011
,
0100
0101
0100
0101
,
0100
1100
0100
1100
,
0010
0001
0010
0000
0001
1000
0001
0000
,
0010
0001
0010
0000
0001
1000
0001
0000
,
1000
0100
1000
0000
0010
0100
0010
0000
,
1000
0100
1000
0000
0010
0100
0010
0000
,
1001
0000
1010
0000
0100
0001
0100
0000
,
1001
0000
0101
0000
0010
1000
0010
0000
,
1000
0001
0000
0010
0000
0100
0000
1000
,
0002
1000
1000
1003
,
1100
0000
1100
0000
0001
0010
0100
0000
,
1100
0000
1100
0000
0001
0010
0100
0000
,
0011
0000
0011
0000
1000
0100
0010
0000
,
0011
0000
0011
0000
1000
0100
0010
0001
,
1000
0000
1010
0000
0100
0001
1000
0000
,
0001
0000
0101
0000
0010
1000
0001
0000
,
1000
0000
1100
0000
0010
0001
1000
0000
,
0001
0010
0001
0000
1000
0001
1000
0001
,
1000
0000
0101
0000
0010
1000
0100
0000
,
1000
0000
0101
0000
0010
1000
0100
0000
,
0010
0000
1010
0000
0100
0001
0010
0000
,
0001
0010
0100
0000
1000
0001
1000
0001
,
1000
0000
1100
0000
0010
0001
1000
0000
,
0100
0000
1100
0000
0010
0001
1000
0000
,
0110
0000
0110
0000
1000
0100
0001
0000
,
0110
0000
0110
0000
0001
0100
1000
0000
,
0100
0010
0100
0000
1000
0000
0001
0000
,
0010
0100
0010
0000
0001
0000
1000
0000
,
0100
0010
0100
0000
1000
0100
0010
0000
,
1001
0000
0000
0000
;

//---------------dance-single - ----------------
#NOTES:
     dance-single:
     :
     Hard:
     10:
     0.529,0.454,0.617,0.030,0.234:
1100
0000
1100
0000
0010
0001
1000
0010
,
1010
0000
1010
0000
0100
0001
1000
0100
,
1100
0000
1100
0000
0010
0001
1000
0010
,
1010
0000
1010
0000
0100
0001
1000
1000
,
0001
0000
0000
0010
0000
0000
0100
0000
0000
0000
0000
0000
1010
0000
0000
0000
0000
1000
0000
0000
0000
0001
0000
0000
,
1000
0000
0000
0100
0000
0000
0010
0000
0000
0000
0000
0000
0101
0000
0000
0000
0000
0001
0000
0000
0000
1000
0000
0000
,
0001
0000
0000
0010
0000
0000
0100
0000
0000
0000
0000
0000
1010
0000
0000
0000
0000
0010
0000
0000
0000
1000
0000
0000
,
0001
0000
0001
0000
0001
0100
0010
0100
,
0101
0000
1001
0000
0100
1000
0001
0100
,
0101
0000
1001
0000
0100
1000
0001
0100
,
0101
0000
1001
0000
0100
1000
0001
0100
,
0101
0000
1001
0000
0100
1000
0001
0001
,
1100
0000
1001
0000
0100
0001
1000
0100
,
1100
0000
1001
0000
0100
0001
1000
0100
,
1100
0000
1001
0000
0100
0001
1000
0100
,
1100
0000
1001
0000
0100
0001
1000
1000
,
0001
0010
0100
1000
0001
0010
0100
0000
,
1001
0000
0000
0000
0000
0001
0100
0000
0000
0000
0000
0000
0010
0000
0000
0000
0000
0010
1000
0000
0000
0000
0000
0000
,
0001
0000
0000
0000
0000
0001
0010
0000
0000
0000
0000
0000
0100
0000
0000
0000
0000
0100
1000
0000
0000
0000
0000
0000
,
1000
0000
0000
0000
0000
1000
0100
0000
0000
0000
0000
0000
0010
0000
0000
0000
0000
0010
0100
0000
0000
0000
0000
0000
,
0010
0000
0000
0000
0000
0010
0001
0000
0000
0000
0000
0000
0001
0000
0000
0000
0000
0001
1000
0000
0000
0100
0000
0000
,
1000
0000
0000
0000
0000
1000
0100
0000
0000
0000
0000
0100
0010
0000
0000
0000
0000
0010
0001
0000
0000
0000
0000
0000
,
0001
0000
0000
0000
0000
0001
0100
0000
0000
0000
0000
0100
0010
0000
0000
0000
0000
0010
1000
0000
0000
0000
0000
0000
,
1000
0000
0000
0000
0000
1000
0010
0000
0000
0000
0000
0010
0100
0000
0000
0000
0000
0100
0001
0000
0000
0000
0000
0000
,
0001
0000
0000
0000
0000
0001
0010
0000
0000
0000
0000
0010
0100
0000
0000
0000
0000
0100
1000
0000
0000
0000
0000
0000
,
1001
0000
0000
0000
0000
1000
0010
0000
0000
0000
0000
0010
0100
0000
0000
0000
0000
0001
0100
0000
0000
0010
0000
0000
,
0100
0000
0000
0000
0000
0001
0100
0000
0000
0000
0000
0100
0010
0000
0000
0000
0000
1000
0010
0000
0000
0100
0000
0000
,
0010
1000
0100
0010
0001
1000
0100
0010
,
0001
0001
0100
0100
0001
1000
0100
1000
,
1100
0000
1001
0000
1000
0001
0010
0001
,
0011
0000
1001
0000
0001
1000
0100
1000
,
1100
0000
1001
0000
1000
0001
0010
0001
,
0011
0000
1001
0000
1000
0001
0010
0100
,
0110
0000
0000
0000
0000
0000
1001
0000
0000
0000
0000
0000
0001
0000
0000
1000
0000
0100
0000
0000
0000
1000
0000
0000
,
1100
0000
0000
0000
0000
0000
1001
0000
0000
0000
0000
0000
1000
0000
0000
0001
0000
0010
0000
0000
0000
0001
0000
0000
,
0011
0000
0000
0000
0000
0000
1001
0000
0000
0000
0000
0000
0001
0000
0000
1000
0000
0010
0000
0000
0000
1000
0000
0000
,
0010
0100
0010
0000
1000
0100
0010
0001
,
1000
0000
0010
0000
0000
0000
1010
0000
0000
0000
0000
0000
0100
0000
0000
0001
0000
0000
0001
0000
0000
1000
0000
0000
,
0001
0000
0100
0000
0000
0000
0101
0000
0000
0000
0000
0000
0010
0000
0000
1000
0000
0000
1000
0000
0000
0001
0000
0000
,
1000
0000
0100
0000
0000
0000
1100
0000
0000
0000
0000
0000
0010
0000
0000
0001
0000
0000
0001
0000
0000
1000
0000
0000
,
0010
0000
0100
0000
0000
0000
0110
0000
0000
0000
0000
0000
0001
0000
0000
0001
0000
0000
1000
0000
0000
1000
0000
0000
,
0000
0000
1100
0000
0000
0000
1100
0000
0000
0000
0000
0000
0010
0000
0000
0001
0000
2000
0000
0000
0000
3001
0000
0000
,
0000
0000
0011
0000
0000
0000
0011
0000
0000
0000
0000
0000
0100
0000
0000
1000
0000
0002
0000
0000
0000
1003
0000
0000
,
0000
0000
1010
0000
0000
0000
1010
0000
0000
0000
0000
0000
0100
0000
0000
0001
0000
2000
0000
0000
0000
3001
0000
0000
,
0000
0000
0101
0000
0000
0000
0101
0000
0000
0000
0000
0000
0010
0000
0000
1000
0000
0000
0001
0000
0000
0010
0000
0000
,
0100
0110
1000
0110
,
0001
0110
1000
0110
,
0000
0000
0011
0000
0000
0000
0011
0000
0000
0000
0000
0000
0010
0000
0001
1000
0000
0001
1000
0000
0001
1000
0000
0000
,
1001
0000
0000
0000
;

//---------------dance-single - ----------------
#NOTES:
     dance-single:
     :
     Beginner:
     1:
     0.067,0.096,0.040,0.000,0.000:
1000
0000
0000
0000
,
1000
0000
0000
0000
,
1000
0000
0000
0000
,
1000
0000
0000
0000
,
0001
0000
0000
0000
,
0001
0000
0000
0000
,
0001
0000
0000
0000
,
0001
0000
0000
0000
,
1001
0000
0000
0000
,
1000
0000
0000
0000
,
0001
0000
0000
0000
,
1000
0000
0000
0000
,
0010
0000
0000
0000
,
0100
0000
0000
0000
,
0010
0000
0000
0000
,
0100
0000
0000
0000
,
0001
0000
0000
0000
,
1000
0000
0000
0000
,
0000
0000
0000
0000
,
1000
0000
0000
0000
,
0000
0000
0000
0000
,
0001
0000
0000
0000
,
0000
0000
0000
0000
,
0001
0000
0000
0000
,
0000
0000
0000
0000
,
1000
0000
0000
0000
,
0001
0000
0000
0000
,
1000
0000
0000
0000
,
0000
0000
0000
0000
,
1001
0000
0000
0000
,
0001
0000
0000
0000
,
1000
0000
0000
0000
,
0001
0000
0000
0000
,
0100
0000
0000
0000
,
0010
0000
0000
0000
,
1000
0000
0000
0000
,
0001
0000
0000
0000
,
1001
0000
0000
0000
,
0001
0000
0000
0000
,
1000
0000
0000
0000
,
0001
0000
0000
0000
,
1000
0000
0000
0000
,
0010
0000
0000
0000
,
0100
0000
0000
0000
,
0001
0000
0000
0000
,
0001
0000
0000
0000
,
0000
0000
0000
0000
,
1000
0000
0000
0000
,
1001
0000
0000
0000
;

//---------------dance-single - ----------------
#NOTES:
     dance-single:
     :
     Challenge:
     14:
     0.661,0.573,0.229,0.179,0.732: // measure 1
1000
0000
0010
0000
0000
0000
1010
0000
0000
0000
0000
0000
0100
0000
0000
0001
0000
2000
0000
0000
0000
3001
0000
0000
,  // measure 2
0010
0000
0001
0000
0000
0000
0011
0000
0000
0000
0000
0000
0100
0000
0000
1000
0000
0002
0000
0000
0000
1003
0000
0000
,  // measure 3
0010
0000
1000
0000
0000
0000
1010
0000
0000
0000
0000
0000
0100
0000
0000
0001
0000
2000
0000
0000
0000
3001
0000
0000
,  // measure 4
0010
0000
0001
0000
0000
0000
0011
0000
0000
0000
0000
0000
0100
0000
1000
0001
0000
1000
0001
0000
1000
0001
0000
1000
,  // measure 5
0001
0000
0100
0000
0000
0000
0101
0000
0000
0000
0000
0000
0010
0000
0000
1000
0000
0020
0000
0000
0000
0130
0000
0000
,  // measure 6
0001
0000
0010
0000
0000
0000
0011
0000
0000
0000
0000
0000
0100
0000
0000
1000
0000
0200
0000
0000
0000
1300
0000
0000
,  // measure 7
0010
0000
0100
0000
0000
0000
0110
0000
0000
0000
0000
0000
0001
0000
0000
0100
0000
0020
0000
0000
0000
0130
0000
0000
,  // measure 8
0000
0000
0001
0000
0000
0000
0001
0000
0000
0000
0000
0000
1000
0000
0000
0010
0000
0000
0100
0000
0000
0001
0000
0000
,  // measure 9
1000
0000
0100
0000
0000
0000
1100
0000
0000
0000
0000
0000
1000
0000
0000
0010
0000
0200
0000
0000
0000
0301
0000
0000
,  // measure 10
1000
0000
0100
0000
0000
0000
1100
0000
0000
0000
0000
0000
1000
0000
0000
0010
0000
0200
0000
0000
0000
0301
0000
0000
,  // measure 11
0100
0000
0010
0000
0000
0000
0110
0000
0000
0000
0000
0000
1000
0000
0000
0100
0000
0020
0000
0000
0000
0031
0000
0000
,  // measure 12
0010
0000
0100
0000
0000
0000
0110
0000
0000
0000
0000
0000
1000
0000
0010
1000
0000
0010
1000
0000
0010
1000
0000
0010
,  // measure 13
1000
0000
0001
0000
0000
0000
1001
0000
0000
0000
0000
0000
0001
0000
0000
0100
0000
0020
0000
0000
0000
1030
0000
0000
,  // measure 14
0001
0000
1000
0000
0000
0000
1001
0000
0000
0000
0000
0000
0001
0000
0000
0010
0000
0200
0000
0000
0000
1300
0000
0000
,  // measure 15
0001
0000
0100
0000
0000
0000
0101
0000
0000
0000
0000
0000
0010
0000
0000
1000
0000
0200
0000
0000
0000
0310
0000
0000
,  // measure 16
0001
0000
1000
0000
0000
0000
1001
0000
0000
0000
0000
0000
0001
0000
0010
0001
0000
0010
0001
0000
0010
0001
0000
0010
,  // measure 17
0001
0000
0000
1000
0000
0000
0100
0000
0000
0010
0000
0000
0001
0000
0000
1000
0000
0000
0001
0000
1000
0010
0000
1000
,  // measure 18
0010
0000
0000
0000
0000
1000
0001
0000
0000
0100
0000
0000
0001
0000
0000
0000
0000
1000
0001
0000
0000
0001
0000
0000
,  // measure 19
0100
0000
0000
0000
0000
0001
1000
0000
0000
0010
0000
0000
1000
0000
0000
0000
0000
0001
1000
0000
0000
1000
0000
0000
,  // measure 20
0100
0000
0000
0000
0000
1000
0010
0000
0000
0100
0000
0000
0010
0000
0000
0000
0000
1000
0100
0000
0000
0010
0000
0000
,  // measure 21
0010
0000
0000
0000
0000
0001
0010
0000
0000
0100
0000
0000
0010
0000
0000
0000
0000
0001
0100
0000
0001
0100
0000
0001
,  // measure 22
1000
0000
0000
0000
0000
1000
0010
0000
0000
0000
0000
0010
0100
0000
0000
0000
0000
0100
0001
0000
0000
0010
0000
0000
,  // measure 23
0100
0000
0000
0000
0000
0010
0001
0000
0000
0000
0000
0001
1000
0000
0000
0000
0000
1000
0010
0000
0000
0100
0000
0000
,  // measure 24
0001
0000
0000
0000
0000
1000
0001
0000
0000
0000
0000
0001
0010
0000
0000
0000
0000
0010
0100
0000
0000
1000
0000
0000
,  // measure 25
0010
0000
0000
0000
0000
0100
0001
0000
0000
0000
0000
0001
1000
0000
0100
1000
0000
0100
1000
0000
0100
1000
0000
0010
,  // measure 26
0100
0000
0000
0000
0000
0001
1000
0000
0000
0010
0000
0000
1000
0000
0000
0000
0000
0010
1000
0000
0000
0001
0000
0000
,  // measure 27
0001
0000
0000
0000
0000
1000
0001
0000
0000
0100
0000
0000
0001
0000
0000
0000
0000
0100
0001
0000
0000
1000
0000
0000
,  // measure 28
1000
0001
0010
0100
0010
0001
1000
0010
,  // measure 29
0100
0000
0001
1000
0000
0000
0100
0000
1000
0001
0000
0000
1000
0000
0001
1000
0000
0001
1000
0000
0001
1000
0000
0001
,  // measure 30
1000
0000
0100
0000
0000
1000
0001
0000
0000
0000
0000
0000
0100
0000
0000
0010
0000
2000
0000
0000
0000
3001
0000
0000
,  // measure 31
1000
0000
0010
0000
0000
1000
0001
0000
0000
0000
0000
0000
0010
0000
0000
0100
0000
2000
0000
0000
0000
3001
0000
0000
,  // measure 32
0010
0000
0001
0000
0000
0100
0010
0000
0000
0000
0000
0000
1000
0000
0000
0010
0000
0200
0000
0000
0000
0310
0000
0000
,  // measure 33
0000
0000
1001
0000
0000
0000
1001
0000
0000
0000
0000
0000
0001
0000
0100
0001
0000
0100
0001
0000
1000
0100
0000
0000
,  // measure 34
1000
0000
0001
0000
0000
0010
0001
0000
0000
1000
0000
0000
0010
0000
0000
1000
0000
0002
0000
0000
0000
0013
0000
0000
,  // measure 35
0100
0000
1000
0000
0000
0001
0100
0000
0000
0010
0000
0000
1000
0000
0000
0100
0000
0020
0000
0000
0000
0130
0000
0000
,  // measure 36
1000
0000
0001
0000
0000
0100
0001
0000
0000
1000
0000
0000
0100
0000
0000
1000
0000
0020
0000
0000
0000
0130
0000
0000
,  // measure 37
0000
0000
1001
0000
0000
0000
1001
0000
0000
0000
0000
0000
0001
0000
0100
0001
0000
0100
0001
0000
1000
0100
0000
1000
,  // measure 38
0100
0000
0010
0000
0000
0001
0100
0000
0000
0000
0000
0000
0010
0000
0000
1000
0000
0100
0010
0000
0100
0010
0000
0000
,  // measure 39
0001
0000
0100
0000
0000
0010
0100
0000
0000
0000
0000
0000
0001
0000
0000
1000
0000
0010
0100
0000
0010
0100
0000
0000
,  // measure 40
0001
0000
1000
0000
0000
0100
1000
0000
0000
0000
0000
0000
0100
0000
0000
0010
0000
0001
0100
0000
0001
0100
0000
0000
,  // measure 41
0010
0000
1000
0000
0000
0001
0010
0000
0000
0000
0000
0000
0100
0000
1000
0100
0000
1000
0100
0000
0010
0001
0000
0010
,  // measure 42
0001
0000
0100
0000
0000
0010
0100
0000
0000
0001
0000
0000
1000
0000
0000
0010
0000
0100
0001
0000
0100
0001
0000
0000
,  // measure 43
0010
0000
0100
0000
0000
1000
0001
0000
0000
0100
0000
0000
0001
0000
0000
1000
0000
0100
1000
0000
0100
1000
0000
0000
,  // measure 44
0010
0000
0100
0000
0000
0001
0100
0000
0000
0010
0000
0000
1000
0000
0000
0001
0000
0010
0001
0000
0010
0001
0000
0000
,  // measure 45
1000
0000
0001
0000
0000
0010
0001
0000
0000
0100
0000
0000
0010
0000
1000
0100
0000
1000
0100
0000
1000
0100
0000
0000
,  // measure 46
1001
0000
0000
0000
0000
0001
0100
0000
0000
0010
0000
0000
0100
0000
0000
0000
0000
0010
1000
0000
0000
1000
0000
0000
,  // measure 47
0001
0000
0000
0000
0000
1000
0100
0000
0000
0010
0000
0000
0100
0000
0000
0000
0000
1000
0001
0000
0000
0001
0000
0000
,  // measure 48
0000
0000
0101
0000
0000
0000
0101
0000
0000
0000
0000
0000
0001
0000
0010
0001
0000
0100
0010
0000
1000
0100
0000
0000
,  // measure 49
1001
0000
0000
0000
;
