#TITLE:healing 2000;
#SUBTITLE:;
#ARTIST:TiY;
#TITLETRANSLIT:;
#SUBTITLETRANSLIT:;
#ARTISTTRANSLIT:;
#CREDIT:DigiMindAxel;
#BANNER:healing 2000.png;
#BACKGROUND:healing 2000-bg.png;
#LYRICSPATH:;
#CDTITLE:BEMANI game remix.png;
#MUSIC:healing 2000.ogg;
#METERTYPE:DDR X;
#OFFSET:-6.580;
#SAMPLESTART:80.910;
#SAMPLELENGTH:12.000;
#SELECTABLE:YES;
#BPMS:0.000=77.500,8.000=155.000,136.000=77.500,160.000=155.000;
#STOPS:;
#BGCHANGES:;

//---------------dance-single - ----------------
#NOTES:
     dance-single:
     :
     Easy:
     5:
     0.228,0.261,0.008,0.025,0.000:
0000
0000
0000
0000
,
0000
0000
0000
0000
,
0001
0010
0100
1000
,
0010
0100
0010
1000
,
0000
0001
1000
0001
,
0100
0010
0100
0010
,
1000
0100
0010
0001
,
0100
0010
0100
0001
,
0000
1000
0001
1000
,
0000
0000
0000
0000
,
0001
0000
0001
0000
,
0010
0000
0010
0000
,
0100
0000
0100
0000
,
1000
0000
1000
0000
,
0001
0000
1000
0000
,
0010
0000
1000
0000
,
0001
0000
0100
0000
,
0001
0000
0100
0000
,
0010
0100
0010
0100
,
0010
1000
0001
1000
,
0001
0010
0001
0010
,
0100
1000
0100
1000
,
0001
1000
0001
1000
,
0010
1000
0010
1000
,
0001
0100
0001
0100
,
0001
1000
0001
1000
,
0001
0010
0100
1000
,
0001
1000
0001
1000
,
0100
0010
0001
1000
,
0001
0100
0001
0100
,
0001
0010
0100
1000
,
0010
1000
0100
1000
,
0100
0010
0001
0010
,
0001
0100
0010
1000
,
1001
0000
0000
0000
,
0020
0000
0000
0000
,
0230
0000
0000
0000
,
0000
0000
0000
0000
,
0320
0000
0000
0000
,
0000
0000
0000
0030
,
1000
0100
1000
0100
,
1000
0100
0010
0001
,
0100
0001
0100
0001
,
0100
0001
0100
0010
,
1000
0010
1000
0010
,
1000
0010
1000
0100
,
0010
0001
0010
0001
,
0010
0001
0010
0100
,
1000
0010
0100
0010
,
1000
0010
0100
0001
,
0010
0001
0100
0001
,
0010
0001
1000
0010
,
1000
0100
1000
0010
,
0100
0010
1000
0100
,
1000
0100
0010
0001
,
0010
0001
0100
0010
,
0100
0100
0000
0100
,
0000
0100
0000
0100
,
0000
0001
0000
0001
,
0000
0001
0000
0001
,
0000
1000
0000
1000
,
0000
1000
0000
1000
,
0000
1000
0000
0010
,
0000
0010
0000
0010
;

//---------------dance-single - ----------------
#NOTES:
     dance-single:
     :
     Hard:
     11:
     0.503,0.522,0.155,0.155,0.327:
1000
0010
1000
0001
0010
0001
1000
0010
1000
0001
0000
0010
0000
0100
0000
0000
,
2000
0000
0000
3010
0000
0000
0200
0000
0000
0301
0000
0000
0000
0000
0000
0000
,
0001
0010
0100
1000
0001
0100
0001
1000
,
0100
0010
0000
0100
0000
2000
0000
0000
,
3000
0000
1010
0000
0000
0110
0000
0000
,
0101
0000
0001
0100
1000
0100
0001
0000
,
1000
0100
0010
0001
1000
0100
1000
0001
,
0100
0010
0000
0100
0000
0002
0000
0000
,
0003
0000
0000
1001
0000
0000
1000
0000
,
0000
0000
1010
0000
0000
0000
0000
0000
0010
0100
0000
0010
0100
0010
0100
0000
,
0001
0000
0000
0001
0000
0000
1000
0000
0100
0000
0000
0100
0000
0000
0010
0000
,
0001
0000
0000
0001
0000
0000
1000
0000
0010
0000
0000
0010
0000
0000
0100
0000
,
0001
0000
0000
0001
0000
0000
0010
0000
0100
0000
0000
0100
0000
0000
1000
0000
,
0010
0000
0000
0010
0000
0000
0100
0000
0001
0000
0000
0001
0000
0000
0100
0000
,
1000
0000
0000
0100
0000
0000
0001
0000
0010
0000
0000
1000
0000
0000
0010
0000
,
0001
0000
0000
0100
0000
0000
1000
0000
0100
0000
0000
0001
0000
0000
0010
0000
,
1000
0000
0000
0010
0000
0000
0001
0000
0100
0000
0000
1000
0000
0000
0001
0000
,
0010
0000
0000
1000
0000
0000
0001
0000
1000
0000
0000
0100
0000
0000
1000
0000
,
0001
0000
0000
0100
0001
0000
0000
0000
1000
0000
0000
0100
1000
0000
0000
0000
,
0010
0000
0000
0100
0010
0000
0000
0000
0100
0000
0000
0001
0100
0000
0000
0000
,
0001
0000
0000
1000
0100
0000
0000
0000
0010
0000
0000
0001
1000
0000
0000
0000
,
0010
0000
0000
0100
0001
0000
0000
0000
0010
0000
0000
0100
1000
0000
0000
0000
,
0001
0000
0000
0100
0001
0000
1000
0000
0100
0000
0000
0010
0100
0000
1000
0000
,
0010
0000
0000
0100
0001
0000
0010
0000
0100
0000
0000
0010
0001
0000
1000
0000
,
0010
0000
0000
0100
0001
0000
0010
0000
0100
0000
0000
1000
0001
0000
0010
0000
,
0100
0000
0000
1000
0010
0000
0100
0000
0001
0000
0000
1000
0010
0000
0100
0000
,
0020
0000
0000
0100
0000
0000
0130
0000
0001
0000
1000
0100
1000
0000
0010
0000
,
0200
0000
0000
0010
0000
0000
0310
0000
1000
0000
0001
1000
0001
0000
0010
0000
,
0200
0000
0000
1000
0000
0000
1300
0000
0001
0000
0100
0010
0100
0000
0001
0000
,
2000
0000
0000
0100
0000
0000
3100
0000
0010
0000
0001
1000
0001
0000
0100
0000
,
0020
0000
0000
1000
0000
0000
1030
0000
0001
0000
0010
0100
0010
0000
0001
0000
,
0200
0000
0000
0010
0000
0000
0310
0000
1000
0000
0100
0010
0100
0000
1000
0000
,
0002
0000
0000
0100
0000
0000
0103
0000
0001
0000
1000
0100
1000
0000
0001
0000
,
0020
0000
0000
0001
0000
0000
0031
0000
1000
0000
0010
0100
0010
0000
1000
0000
,
2002
0000
0000
0000
0000
0000
0000
0003
,
3200
0000
0000
0000
,
1300
0000
1000
0000
0000
0100
0000
0001
0000
0100
0100
0000
0000
1000
0000
1000
,
0001
0000
0001
0000
0000
0010
0000
1000
0000
0010
0010
0000
0000
0001
0000
0001
,
1000
0000
1000
0000
0000
0010
0000
0001
0000
0010
0010
0000
0000
1000
0000
1000
,
0001
0000
0001
0000
0000
0100
0000
1000
0000
0100
0100
0000
0000
0001
0000
0001
,
1000
0010
1000
0000
0000
0001
0100
1000
,
0001
0010
1000
0000
0000
0001
0100
0001
,
1000
0100
1000
0000
0000
0001
0100
1000
,
0001
0010
1000
0000
0000
0001
1000
0100
,
0010
0001
1000
0000
0000
0001
0100
1000
,
0001
0010
1000
0000
0000
0001
1000
0010
,
0100
0001
1000
0000
0000
0001
0100
1000
,
0001
0010
1000
0000
0000
0001
1000
0100
,
1100
0000
1001
0000
0001
1000
0100
0010
,
0100
1000
1000
0000
0001
0100
1000
0100
,
0101
0000
1001
0000
1000
0001
0010
0100
,
0010
0001
0001
0000
1000
0010
0001
0010
,
1010
0000
1001
0000
0001
0010
0001
0100
,
0010
1000
1000
0000
0001
0010
1000
0010
,
0011
0000
1001
0000
1000
0010
0100
0001
,
0010
0001
0001
0000
1000
0100
0001
0100
,
1100
0000
1002
0000
0000
0010
0000
0010
,
0000
0010
0013
0000
0000
0100
0000
1000
,
0001
0000
2001
0000
0000
0010
0000
0010
,
0000
0010
3010
0000
0000
0100
0000
0001
,
1000
0000
1002
0000
0000
0100
0000
0100
,
0000
0100
0103
0000
0000
0010
1000
0100
,
0010
0000
2001
0000
0000
0100
0000
0100
,
0000
0100
3100
0000
0000
0010
0001
0100
;

//---------------dance-single - ----------------
#NOTES:
     dance-single:
     :
     Medium:
     8:
     0.363,0.392,0.253,0.016,0.000:
0000
0000
0000
0000
,
0000
0000
0000
0000
,
1000
0100
1000
0100
,
0010
0001
0010
0001
,
0100
0010
0100
0010
,
0100
0001
0010
0100
,
1000
0001
1000
0001
,
1000
0001
1000
0010
,
0100
0010
0100
0010
,
1000
0000
1001
1001
,
0001
0000
0100
0000
0010
0100
0010
0000
,
0100
0000
0001
0000
1000
0100
1000
0000
,
0001
0000
1000
0000
0010
1000
0010
0000
,
1000
0000
0001
0000
0010
0001
0010
0000
,
0100
0000
1000
0000
0001
0100
0001
0000
,
0100
0000
0010
0000
1000
0001
1000
0000
,
0100
0000
0010
0000
0001
0100
0001
0000
,
0010
0000
0100
0000
1000
0001
1000
0000
,
0100
1100
1000
1100
,
0100
1100
1000
1100
,
0010
0011
0001
0011
,
0010
0011
0001
0011
,
0010
0110
0100
0110
,
0010
0110
0100
0110
,
0010
1010
1000
1010
,
0010
1010
1000
1010
,
0100
0001
0100
0000
0001
1000
0001
0000
,
0100
0010
0100
0000
0001
0010
0100
0000
,
1000
0010
1000
0000
0010
0100
0010
0000
,
1000
0001
1000
0000
0001
0010
0100
0000
,
1000
0100
1000
0000
0001
0100
0001
0000
,
0100
0010
0100
0000
0001
0010
0100
0000
,
1000
0001
1000
0000
0010
1000
0010
0000
,
0100
0001
0010
0000
0001
0100
0010
0100
,
0002
0000
0000
0000
,
2003
0000
0000
0000
,
3001
0001
0000
0000
0000
0000
0000
0000
,
0010
0010
0000
0000
0000
0000
0000
0000
,
0100
0100
0000
0000
0000
0000
0000
0000
,
1000
1000
0000
0000
0000
0000
0000
0000
,
1001
0000
1001
0000
0000
0001
0000
0010
,
0000
0001
0100
0000
0000
0010
0000
0100
,
0001
0000
1001
0000
0000
1000
0000
0001
,
0000
0010
0100
0000
0000
1000
0000
0010
,
0100
0000
0110
0000
0000
0001
0000
0001
,
0000
0100
0010
0000
0000
1000
0000
0100
,
1000
0000
1001
0000
0000
0001
0000
0001
,
0000
0100
0010
0000
0000
0100
0000
0001
,
1000
0000
1001
0000
0001
0100
0001
0100
,
0001
0010
0100
0000
1000
0001
1000
0001
,
1000
0000
1001
0000
0001
0010
0001
0010
,
0001
0100
0010
0000
1000
0001
1000
0001
,
1000
0000
1001
0000
0001
0100
0001
0100
,
0001
0010
0100
0000
1000
0001
1000
0001
,
1000
0000
1001
0000
0001
1000
0001
1000
,
0010
0100
0001
0000
0010
0100
0010
0100
,
0010
0000
0110
0000
0000
0001
0000
0001
,
0000
0001
0001
0000
0000
0010
0000
0100
,
1000
0000
1001
0000
0000
1000
0000
1000
,
0000
1000
1000
0000
0000
0010
0000
0100
,
0001
0000
1001
0000
0000
0001
0000
0001
,
0000
0001
0001
0000
0000
0100
0000
0010
,
1000
0000
1001
0000
0000
1000
0000
1000
,
0000
1000
1000
0000
0000
0100
0000
0010
;

//---------------dance-single - ----------------
#NOTES:
     dance-single:
     :
     Beginner:
     2:
     0.082,0.127,0.008,0.000,0.000:
0000
0000
0000
0000
,
0000
0000
0000
0000
,
1000
0000
0001
0000
,
1000
0000
0000
0000
,
0100
0000
1000
0000
,
0100
0000
0000
0000
,
0010
0000
0001
0000
,
0010
0000
0000
0000
,
0001
0000
1000
0000
,
0001
0000
0000
0000
,
1000
0000
0000
0000
,
1000
0000
0000
0000
,
0010
0000
0000
0000
,
0010
0000
0000
0000
,
1000
0000
0000
0000
,
1000
0000
0000
0000
,
0001
0000
0000
0000
,
0001
0000
0000
0000
,
0100
0000
0000
0000
,
0100
0000
0000
0000
,
0001
0000
0000
0000
,
0001
0000
0000
0000
,
1000
0000
0000
0000
,
1000
0000
0000
0000
,
0001
0000
0000
0000
,
0001
0000
0000
0000
,
0010
0000
0100
0000
,
0010
0000
0000
0000
,
0001
0000
1000
0000
,
0001
0000
0000
0000
,
1000
0000
0100
0000
,
1000
0000
0000
0000
,
0001
0000
1000
0000
,
0001
0000
0000
0000
,
1001
0000
0000
0000
,
0000
0000
0000
0000
,
0000
0000
0000
0000
,
0000
0000
0000
0000
,
0000
0000
0000
0000
,
0000
0000
0000
0000
,
0001
0000
1000
0000
,
0001
0000
0000
0000
,
0010
0000
0001
0000
,
0010
0000
0000
0000
,
0100
0000
1000
0000
,
0100
0000
0000
0000
,
1000
0000
0001
0000
,
1000
0000
0000
0000
,
0001
0000
0100
0000
,
0001
0000
0000
0000
,
1000
0000
0010
0000
,
1000
0000
0000
0000
,
0010
0000
0100
0000
,
0010
0000
0000
0000
,
0100
0000
0001
0000
,
0100
0000
0000
0000
,
0010
0000
0000
0000
,
0000
0000
0000
0000
,
0010
0000
0000
0000
,
0000
0000
0000
0000
,
0100
0000
0000
0000
,
0000
0000
0000
0000
,
0100
0000
0000
0000
;

//---------------dance-double - ----------------
#NOTES:
     dance-double:
     :
     Easy:
     5:
     0.224,0.261,0.008,0.057,0.000: // measure 1
00000000
00000000
00000000
00000000
,  // measure 2
00000000
00000000
00000000
00000000
,  // measure 3
10000000
00100000
10000000
00100000
,  // measure 4
10000000
01000000
00100000
00001000
,  // measure 5
01000000
00001000
00100000
00001000
,  // measure 6
01000000
00001000
00010000
00000010
,  // measure 7
00010000
00000001
00000100
00000001
,  // measure 8
00000010
00000001
00001000
00000001
,  // measure 9
00000010
00000100
00001000
00010000
,  // measure 10
00100000
00000000
00000000
00000000
,  // measure 11
00010000
00000000
00010000
00000000
,  // measure 12
00100000
00000000
00100000
00000000
,  // measure 13
01000000
00000000
01000000
00000000
,  // measure 14
10000000
00000000
10000000
00000000
,  // measure 15
00001000
00000000
00010000
00000000
,  // measure 16
00010000
00000000
00000100
00000000
,  // measure 17
00000100
00000000
00000010
00000000
,  // measure 18
00000010
00000000
00000001
00000000
,  // measure 19
00000001
00000010
00000001
00000010
,  // measure 20
00000001
00010000
00000001
00010000
,  // measure 21
00000010
00010000
00000010
00010000
,  // measure 22
00001000
10000000
00001000
10000000
,  // measure 23
00100000
10000000
00100000
10000000
,  // measure 24
00100000
01000000
00100000
01000000
,  // measure 25
00010000
01000000
00010000
01000000
,  // measure 26
00010000
00001000
00010000
00001000
,  // measure 27
00000100
00000010
00000100
00000010
,  // measure 28
00000001
00001000
00000001
00001000
,  // measure 29
00000001
00000010
00000001
00000010
,  // measure 30
00000100
00010000
00000100
00010000
,  // measure 31
00001000
00010000
00001000
00010000
,  // measure 32
00001000
01000000
00001000
01000000
,  // measure 33
00100000
01000000
00100000
01000000
,  // measure 34
00010000
00100000
01000000
10000000
,  // measure 35
20002000
00000000
00000000
30003000
,  // measure 36
00002000
00000000
00000000
00000000
,  // measure 37
00013000
00000000
00000000
00000000
,  // measure 38
00000100
00000000
00000000
00000000
,  // measure 39
00000010
00000000
00000000
00000000
,  // measure 40
00000001
00000000
00000000
00000000
,  // measure 41
00000100
00000001
00000100
00000001
,  // measure 42
00000100
00000001
00000010
00000100
,  // measure 43
00010000
00001000
00010000
00001000
,  // measure 44
00010000
00001000
01000000
00100000
,  // measure 45
01000000
00001000
01000000
00001000
,  // measure 46
01000000
00001000
00010000
00000100
,  // measure 47
00000010
00000001
00000010
00000001
,  // measure 48
00000100
00000010
00010000
00001000
,  // measure 49
00010000
00001000
00100000
01000000
,  // measure 50
10000000
00010000
10000000
00010000
,  // measure 51
00100000
00010000
01000000
00001000
,  // measure 52
00100000
00001000
10000000
00100000
,  // measure 53
01000000
00001000
00010000
00001000
,  // measure 54
00010000
00000100
00001000
00000010
,  // measure 55
00001000
00000001
00000010
00000100
,  // measure 56
00001000
00000010
00010000
00001000
,  // measure 57
00010000
00002000
00000000
00000000
,  // measure 58
00000000
00000000
00000000
00000000
,  // measure 59
02003000
00000000
00000000
00000000
,  // measure 60
00000000
00000000
00000000
00000000
,  // measure 61
03020000
00000000
00000000
00000000
,  // measure 62
00000000
00000000
00000000
00000000
,  // measure 63
20030000
00000000
00000000
00000000
,  // measure 64
00000000
00000000
00000000
00000000
00000000
00000000
00000000
30000000
;

//---------------dance-double - ----------------
#NOTES:
     dance-double:
     :
     Medium:
     8:
     0.368,0.392,0.114,0.041,0.000: // measure 1
00020000
00000000
00000000
00000000
,  // measure 2
20030000
00000000
00000000
00000000
,  // measure 3
30100000
01000000
00100000
01000000
,  // measure 4
00001000
01000000
00001000
10000000
,  // measure 5
00100000
10000000
01000000
00100000
,  // measure 6
00001000
01000000
00001000
00010000
,  // measure 7
00000100
00010000
00000100
00001000
,  // measure 8
00000001
00001000
00000001
00000010
,  // measure 9
00000100
00000010
00000100
00010000
,  // measure 10
00001000
00000000
00000000
00000000
01000000
00000000
00001000
00001000
,  // measure 11
01000000
00100000
00100000
01000000
,  // measure 12
01000000
00100000
00100000
10000000
,  // measure 13
10000000
01000000
01000000
00100000
,  // measure 14
00100000
00001000
00001000
00010000
,  // measure 15
00010000
00000010
00000010
00000100
,  // measure 16
00000100
00000001
00000010
00000001
,  // measure 17
00001000
00000001
00000100
00000010
,  // measure 18
00010000
00001000
00010000
00001000
,  // measure 19
01000000
00001000
01000000
00000000
00100000
01000000
00100000
00000000
,  // measure 20
10000000
00100000
10000000
00000000
00100000
01000000
00001000
00000000
,  // measure 21
00010000
00001000
00010000
00000000
00000100
00000010
00000001
00000000
,  // measure 22
00000100
00000010
00000100
00000000
00000001
00000100
00000001
00000000
,  // measure 23
00000100
00000010
00010000
00000000
00001000
00010000
00001000
00000000
,  // measure 24
00100000
00001000
00100000
00000000
01000000
10000000
01000000
00000000
,  // measure 25
00100000
00001000
00100000
00000000
00001000
00010000
00000010
00000000
,  // measure 26
00000100
00000010
00000100
00000000
00000001
00001000
00000001
00000000
,  // measure 27
00000010
00000100
00000010
00000100
00000010
00000100
00001000
00000000
,  // measure 28
00010000
00100000
01000000
00100000
01000000
00100000
01000000
00000000
,  // measure 29
10000000
00100000
01000000
00100000
01000000
00100000
01000000
00000000
,  // measure 30
00001000
00010000
00000010
00010000
00000010
00010000
00000010
00000000
,  // measure 31
00000100
00000000
00000001
00000100
00000000
00000001
00010000
00000000
,  // measure 32
00001000
00000000
00100000
01000000
00000000
10000000
00100000
00000000
,  // measure 33
10000000
00000000
00100000
01000000
00000000
00001000
00010000
00000000
,  // measure 34
00000100
00000000
00000010
00000001
00000000
00001000
00000010
00000000
,  // measure 35
00000220
00000000
00000000
00000330
,  // measure 36
00000200
00000000
00000000
00000000
,  // measure 37
00000301
00000001
00000001
00000010
,  // measure 38
00000010
00000010
00010000
00010000
,  // measure 39
00001000
00001000
00001000
01000000
,  // measure 40
01000000
01000000
00001000
00001000
,  // measure 41
00010000
00000000
00100000
00000000
01000000
10000000
00000000
00100000
,  // measure 42
00000000
10000000
01000000
00000000
00000000
10000000
00000000
01000000
,  // measure 43
00100000
00000000
00011000
00000000
00000000
00010000
00000000
00000001
,  // measure 44
00000000
00000100
00000010
00000000
00000000
00010000
00000000
00000010
,  // measure 45
00000100
00000000
00001001
00000000
00000000
00000001
00000000
00000100
,  // measure 46
00000000
00000001
00001000
00000000
00000000
00000010
00000000
00010000
,  // measure 47
00001000
00011000
00100000
01000000
,  // measure 48
10000000
00100000
10000000
00000000
01000000
00000000
00100000
00001000
,  // measure 49
00100000
00000000
00101000
00000000
00001000
00010000
00001000
00000000
,  // measure 50
00010000
00000001
00010000
00000000
00000100
00000010
00000001
00000010
,  // measure 51
00000001
00000000
00000110
00000000
00001000
00000010
00000100
00000010
,  // measure 52
00010000
00011000
00001000
01000000
,  // measure 53
00100000
01000000
00100000
10000000
00000000
01000000
00100000
00010000
,  // measure 54
00100000
01000000
10000000
00000000
00010000
01000000
00010000
01000000
,  // measure 55
00001000
00000000
00011000
00000000
00010000
00000000
00000100
00000010
,  // measure 56
00000001
00000010
00000100
00000000
00010000
00001000
01000000
00100000
,  // measure 57
10000000
10010000
01000000
00100000
,  // measure 58
00010000
00100000
10000000
00100000
,  // measure 59
00011000
00000100
00000001
00000100
,  // measure 60
00011000
00010000
00000010
00000100
,  // measure 61
00001001
00000010
00000100
00010000
,  // measure 62
00001000
00100000
01000000
10000000
,  // measure 63
01100000
00011000
00000010
00000100
,  // measure 64
00000001
00000000
00000100
00000000
00000010
00000000
00010000
00001000
;
