#TITLE:citrus;
#SUBTITLE:;
#ARTIST:kamome sano;
#TITLETRANSLIT:;
#SUBTITLETRANSLIT:;
#ARTISTTRANSLIT:;
#CREDIT:DigiMindAxel;
#BANNER:citrus.png;
#BACKGROUND:citrus-bg.png;
#LYRICSPATH:;
#CDTITLE:jubeat.png;
#MUSIC:citrus.ogg;
#METERTYPE:DDR X;
#OFFSET:-12.657;
#SAMPLESTART:61.443;
#SAMPLELENGTH:12.000;
#SELECTABLE:YES;
#BPMS:0.000=174.000,200.000=87.000,216.000=174.000;
#STOPS:;
#BGCHANGES:;

//---------------dance-single - ----------------
#NOTES:
     dance-single:
     :
     Easy:
     5:
     0.166,0.294,0.097,0.194,0.000: // measure 1
1001
0000
0000
0000
,  // measure 2
0001
0000
0000
1000
,  // measure 3
0000
0000
0000
0000
,  // measure 4
0100
0000
0000
0010
,  // measure 5
0000
0000
0000
0000
,  // measure 6
0001
0000
0000
0100
,  // measure 7
0000
0000
0000
0000
,  // measure 8
0001
0000
0000
0000
,  // measure 9
1000
0000
0000
0000
,  // measure 10
0100
0000
0000
0010
,  // measure 11
0000
0000
0000
0000
,  // measure 12
0001
0000
0000
0100
,  // measure 13
0020
0000
0000
0230
,  // measure 14
0000
0310
0000
0000
0000
0000
0000
0000
,  // measure 15
1000
0000
0100
0000
,  // measure 16
0010
0000
0100
0000
,  // measure 17
1000
0000
0100
0000
,  // measure 18
0010
0000
0100
0000
,  // measure 19
1000
0000
0001
0000
,  // measure 20
0100
0000
0001
0000
,  // measure 21
1000
0000
0001
0000
,  // measure 22
0200
0000
0000
0300
,  // measure 23
0010
0000
0100
0000
,  // measure 24
0001
0000
0100
0000
,  // measure 25
0010
0000
0100
0000
,  // measure 26
0001
0000
0010
0000
,  // measure 27
0100
0000
1000
0000
,  // measure 28
0100
0000
1000
0000
,  // measure 29
0020
0000
0000
0000
,  // measure 30
0000
0000
0000
0000
,  // measure 31
0230
0000
0000
0000
,  // measure 32
0000
0000
0300
0000
,  // measure 33
1001
0000
0000
1001
,  // measure 34
0000
0000
0000
0000
,  // measure 35
0110
0000
0000
0110
,  // measure 36
0000
0000
0000
0000
,  // measure 37
0010
0000
1000
0000
,  // measure 38
0010
0000
0100
0000
,  // measure 39
0010
0000
0100
0000
,  // measure 40
0001
0000
0010
0000
,  // measure 41
0200
0000
1300
0000
,  // measure 42
0020
0000
0130
0000
,  // measure 43
0001
0000
0010
0000
,  // measure 44
0100
0000
0000
0000
,  // measure 45
1000
0000
0010
0000
,  // measure 46
1000
0000
0001
0000
,  // measure 47
1000
0000
0000
0000
0000
0000
0000
1001
,  // measure 48
0000
0000
0000
0000
,  // measure 49
0100
0000
0001
0000
,  // measure 50
0000
0110
0000
0000
,  // measure 51
2001
0000
3002
0000
,  // measure 52
2003
0000
3002
0000
,  // measure 53
1003
0000
0100
0000
,  // measure 54
0010
0000
0001
0000
,  // measure 55
0000
1001
0000
1000
,  // measure 56
0000
0001
0000
0010
,  // measure 57
0000
0000
0001
0000
0000
0000
0000
1001
,  // measure 58
0000
0000
0000
0000
,  // measure 59
0001
0000
0100
0000
,  // measure 60
0020
0000
1030
0000
,  // measure 61
0001
0000
0100
0000
,  // measure 62
0000
0110
0000
0000
,  // measure 63
0020
0000
0000
0000
,  // measure 64
0230
0000
0000
0000
,  // measure 65
0302
0000
0000
0000
,  // measure 66
2003
0000
0000
0000
,  // measure 67
3200
0000
0320
0000
,  // measure 68
0032
0000
0023
0000
,  // measure 69
0230
0000
2300
0000
,  // measure 70
3001
0000
1000
0000
0001
0000
0000
2002
,  // measure 71
0000
0000
0000
0000
,  // measure 72
0000
0000
0000
0000
,  // measure 73
0000
0000
0000
3003
;

//---------------dance-single - ----------------
#NOTES:
     dance-single:
     :
     Medium:
     8:
     0.346,0.382,0.097,0.355,0.008:
2002
0000
0000
3003
,
0020
0000
0000
0230
0000
0000
0002
0000
,
0000
0000
0303
0000
,
0002
0000
0000
0023
0000
0000
0200
0000
,
0000
0000
0330
0000
,
0200
0000
0000
2300
0000
0000
0002
0000
,
0000
0000
3003
0000
,
0020
0000
0000
0032
0000
0000
0100
0000
,
0203
0000
0310
0000
,
2000
0000
0000
3002
0000
0000
0203
0000
,
0000
0000
0301
0000
,
2000
0000
0000
3200
0000
0000
0310
0000
,
0002
0000
0000
0203
0000
0000
0320
0000
,
0000
2000
0000
0000
0000
3030
0000
0000
,
0010
0000
0100
0000
1000
0001
1000
0000
,
0010
0000
0100
0000
0001
0100
0001
0000
,
0010
0000
0100
0000
1000
0001
1000
0000
,
0010
0000
0100
0000
0001
1000
0001
0000
,
0100
0000
0000
0010
0000
0000
1000
0000
,
0001
0000
0000
0010
0000
0000
0100
0000
,
1000
0000
0010
0100
0000
0000
0001
0000
,
0100
0000
0001
1000
0000
0000
0100
1000
,
0010
0000
0100
0000
0001
1000
0001
0000
,
1000
0200
0010
0310
,
0001
0000
0100
0000
0010
0100
0010
0000
,
0100
0001
1000
0100
,
0010
0000
0000
0001
0000
0000
1000
0000
,
0010
0000
0000
0100
0001
0000
1000
0010
,
2000
0000
0000
0000
,
0000
0000
3001
0010
,
0200
0000
0000
0000
0000
0000
0000
2300
,
0000
0000
3001
0000
,
1100
0000
0000
0100
0000
0000
2002
0000
,
0000
0000
3003
0000
,
0110
0000
0000
0100
0000
0000
2002
0000
,
0000
0000
3003
0000
,
1000
0000
0001
0010
0100
0000
1000
0000
,
0001
0000
1000
0100
0010
0000
0001
0000
,
1000
0000
0010
0100
0001
0000
0010
0100
,
0010
0001
1000
0100
,
0010
0002
0100
0103
,
0010
2000
0100
3100
,
0010
0000
0001
1000
0000
0100
0000
0010
,
0000
0000
0000
0001
0100
0000
0010
0000
,
0100
0000
0001
0010
0100
0000
0010
0000
,
0001
0000
1000
0010
0100
0000
0010
0000
,
1000
0000
0001
0100
0000
0010
0000
0220
,
0000
0000
0330
0000
,
0100
0000
0001
0100
0000
0001
1000
0001
,
0000
2002
0000
3003
,
1001
0000
0001
0010
0100
0000
0010
0100
,
1000
0000
0000
0001
0000
0000
0000
0000
0100
0000
0000
0000
0000
0000
0000
0000
,
0020
0000
0230
0000
,
0310
0000
0000
0000
0100
0000
0000
0202
0000
0000
0000
0000
0303
0000
0000
0000
,
0000
0000
1001
0000
0001
0100
0010
0000
,
0100
0000
0001
0000
0010
0100
1000
0000
,
0001
0000
0100
0001
0000
0100
0000
0220
,
0000
0000
0330
0000
,
1010
0000
1000
0100
0010
0000
0001
0000
,
0100
0000
0001
0010
0100
0000
1000
0000
,
0010
0000
1000
0100
0010
0000
0001
1000
,
0000
0001
0001
0000
0000
0000
0000
0000
,
1000
0010
0100
0010
,
1000
0100
0010
0001
,
0100
0001
0010
0001
,
0100
0001
0010
0100
,
1000
0001
1000
0000
0001
0100
0001
0000
,
0100
0010
0100
0000
0001
1000
0001
0000
,
0010
0001
0010
0000
0100
0010
0100
0000
,
1000
0100
1000
0000
0100
0010
0001
0200
,
0000
0000
0000
0000
,
0000
0000
0000
0000
,
0000
0000
0000
0300
;

//---------------dance-single - ----------------
#NOTES:
     dance-single:
     :
     Hard:
     12:
     0.534,0.851,0.299,0.299,0.157:
2002
0000
0000
3003
,
1100
0000
0000
0110
0000
0000
0202
0000
,
0000
0000
0303
0000
,
0110
0000
0000
0101
0000
0000
2002
0000
,
0000
0000
3003
0000
,
0101
0000
0000
1100
0000
0000
0220
0000
,
0000
0000
0330
0000
,
1001
0000
0001
0100
0000
0001
0100
0010
,
2000
0100
3100
0000
,
1001
0000
0000
0101
0000
0000
0120
0000
,
0000
0100
0130
0000
,
0011
0000
0001
0100
0000
0010
1000
0000
,
2100
0000
0000
3200
0000
0000
0320
0000
,
0000
0032
0000
0000
0000
0010
0013
0000
,
0001
1000
0100
1000
0100
0010
0001
1000
,
0010
0000
0100
0000
0001
1000
0100
0010
,
0000
0001
0100
0001
0100
0010
1000
0100
,
0000
1000
0100
0010
0001
0010
0100
0000
,
1100
0000
1000
0020
0000
0000
0130
0000
,
0011
0000
0001
0200
0000
0000
0310
1000
,
0100
0000
0010
0200
0000
0000
1300
0001
,
0100
0001
0010
0200
0000
1300
0001
0100
,
0001
1000
0100
1000
0100
0010
0001
0100
,
0000
0001
1000
0100
0001
0100
1000
0001
,
0000
0100
0001
0100
0001
1000
0100
0010
,
0001
0000
0100
0000
0010
1000
0001
0010
,
0100
0000
1000
0020
0000
0000
0130
0001
,
0001
0001
0010
0100
1000
0001
0100
0010
,
0200
0000
0000
0000
,
0000
0000
0000
0301
0010
0100
1000
0002
,
0000
0000
0000
0000
0000
0000
0103
0020
,
0000
0000
0000
0000
0000
0000
0130
0001
0100
0000
0001
0000
0010
0000
0100
0000
,
1001
0000
0001
0100
0000
0020
0200
0000
,
0000
0000
0330
0000
,
1001
0000
0100
1000
0000
0010
0200
0000
,
0000
0010
0310
0000
0000
0000
0110
0000
,
1001
0000
0001
1000
0100
0001
0100
1000
,
0001
0000
1000
0001
0100
1000
0100
0001
,
0000
0010
0100
1000
0001
1000
0100
0010
,
0001
0000
0100
0000
0010
1000
0001
0020
,
0000
0100
0100
0130
0000
1000
0100
0020
,
0000
0001
0001
0031
0000
0100
0001
0010
,
0100
1000
0010
0110
0000
0101
0000
1001
,
0000
0000
0000
1000
0010
0001
0010
1000
,
0001
0000
1000
0001
0010
1000
0010
0001
,
1000
0000
0100
1000
0010
0100
0001
0010
,
0000
0100
1000
0010
0000
0110
0000
1001
,
0000
0001
1000
0100
0010
0001
1000
0010
,
1000
0100
0010
0001
0000
0001
0100
0010
,
0000
2000
0002
0000
0000
0000
3003
0000
,
0110
0000
0000
0010
0100
1000
0100
0010
0000
0000
0000
0100
0010
0001
0010
0100
,
0000
1000
0010
2000
0000
3001
0010
0002
0000
0000
0000
0000
0000
0000
0003
0000
,
1000
0001
0000
0100
0000
0001
0000
0010
0100
0010
0100
1000
0100
1000
0010
0100
0010
0100
0001
0010
0100
1000
0100
0010
,
0001
0000
0000
0000
0000
0000
1000
0000
0001
0000
0000
0100
0000
0000
0220
0000
0000
0000
0000
0000
0000
0000
0000
0000
0330
0000
0000
0000
0000
0000
0000
0000
,
0000
0000
0110
0000
0100
0001
0010
1000
,
0010
0000
0001
0100
0010
1000
0100
0001
,
0100
1000
0001
0010
0000
0011
0000
1001
,
0000
1000
0100
0010
0001
0100
0001
1000
,
0100
0001
0100
1000
0000
0010
0010
0010
,
1000
0100
0001
0100
0000
1000
1000
1000
,
0001
0010
1000
0010
0001
1000
0010
0100
,
0000
0002
2000
0000
0000
0000
3003
0000
,
0110
0000
0000
0000
0100
0000
0000
0100
0001
0000
0010
0000
0100
0000
0000
0000
,
1001
0000
0000
0000
0001
0000
0000
0001
1000
0000
0010
0000
0100
0000
0000
0000
,
0110
0000
0000
0000
0010
0000
0000
0010
1000
0000
0001
0000
0010
0000
0000
0000
,
1100
0000
0000
0000
1000
0000
0000
0000
0010
0000
0100
0000
0001
0100
0001
0000
,
1000
0100
0010
0100
1000
0100
0010
0100
,
1000
0000
0001
0000
0100
0000
0001
0000
1000
0000
0001
0000
0100
0000
0001
1000
,
0001
0000
1000
0010
0000
0000
0100
0000
0001
0010
0000
0000
0001
0000
0100
0010
,
0000
0000
1000
0000
0001
0100
0001
0000
1000
0001
1000
0001
1000
0000
2020
0000
,
0000
0000
0000
0000
,
0000
0000
0000
0000
,
0000
0000
0000
3030
;

//---------------dance-double - ----------------
#NOTES:
     dance-double:
     :
     Easy:
     5:
     0.179,0.294,0.097,0.250,0.000:
20020000
00000000
00000000
30030000
,
00020000
00000000
00000000
20030000
,
00000000
00000000
30000000
00000000
,
02000000
00000000
00000000
03200000
,
00000000
00000000
00300000
00000000
,
00002000
00000000
00000000
00023000
,
00000000
00000000
00030000
00000000
,
00000200
00000000
00000000
00000000
,
00000320
00000000
00000030
00000000
,
00000002
00000000
00000000
00002003
,
00000000
00000000
00003000
00000000
,
00000020
00000000
00000000
00010030
,
00002000
00000000
00000000
02003000
,
00000000
03100000
00000000
00000000
00000000
00000000
00000000
00000000
,
10000000
00000000
01000000
00000000
,
10000000
00000000
00010000
00000000
,
01000000
00000000
00010000
00000000
,
10000000
00000000
01000000
00000000
,
00100000
00000000
00001000
00000000
,
00010000
00000000
00000100
00000000
,
00000010
00000000
00000001
00000000
,
00002000
00000000
00000000
00003000
,
00000001
00000000
00000100
00000000
,
00000010
00000000
00000100
00000000
,
00000001
00000000
00000010
00000000
,
00000100
00000000
00001000
00000000
,
00010000
00000000
01000000
00000000
,
00100000
00000000
01000000
00000000
,
00020000
00000000
00000000
00000000
,
00000000
00000000
00000000
00030000
,
20000000
00000000
00000000
00000000
,
00000000
00000000
30000000
00000000
,
20020000
00000000
30030000
10010000
,
00000000
00000000
00000000
00000000
,
02200000
00000000
03300000
01100000
,
00000000
00000000
00000000
00000000
,
10000000
00000000
01000000
00000000
,
10000000
00000000
00010000
00000000
,
01000000
00000000
00010000
00000000
,
00001000
00000000
00000100
00000000
,
00000020
00000000
00000031
00000000
,
00000200
00000000
00000310
00000000
,
00010000
00000000
00001000
00000000
,
00010000
00000000
00000000
00000000
,
00001000
00000000
01000000
00000000
,
00001000
00000000
01000000
00000000
,
00100000
00000000
00000000
00000000
00000000
00000000
00000000
01100000
,
00000000
00000000
00000000
00000000
,
10000000
00000000
00010000
00000000
,
00000000
10010000
00000000
00000000
,
02100000
00000000
03200000
00000000
,
02300000
00000000
03200000
00000000
,
01300000
00000000
00010000
00000000
,
10000000
00000000
00001000
00000000
,
00000000
00011000
00000000
00010000
,
00000000
00000100
00000000
00000010
,
00000000
00000000
00000100
00000000
00000000
00000000
00000000
00000110
,
00000000
00000000
00000000
00000000
,
00000100
00000000
00000001
00000000
,
00000020
00000000
00000130
00000000
,
00010000
00000000
00001000
00000000
,
00000000
00011000
00000000
00000000
,
00100000
00000000
01000000
00000000
,
10000000
00000000
01000000
00000000
,
00100000
00000000
00001000
00000000
,
00010000
00000000
00000010
00000000
,
00000100
00000000
00000001
00000000
,
00000010
00000000
00000100
00000000
,
00010000
00000000
00001000
00000000
,
00100000
00000000
01000000
00000000
00100000
00000000
00000000
02200000
,
00000000
00000000
00000000
00000000
,
00000000
00000000
00000000
00000000
,
00000000
00000000
00000000
03300000
;

//---------------dance-double - ----------------
#NOTES:
     dance-double:
     :
     Medium:
     8:
     0.369,0.411,0.121,0.412,0.012:
20020000
00000000
00000000
30030000
,
20000000
00000000
00000000
30020000
00000000
00000000
00200000
00000000
,
00000000
00000000
00330000
00000000
,
00002000
00000000
00000000
00023000
00000000
00000000
00000200
00000000
,
00000000
00000000
00030300
00000000
,
00000020
00000000
00000000
00000032
00000000
00000000
00000200
00000000
,
00000000
00000000
00000303
00000000
,
00000020
00000000
00000000
00002030
00000000
00000000
00010000
00000000
,
00023000
00000000
01030000
00000000
,
00200000
00000000
00000000
20300000
00000000
00000000
30002000
00000000
,
00000000
00000000
00013000
00000000
,
00000200
00000000
00000000
00000320
00000000
00000000
00000031
00000000
,
00000200
00000000
00000000
00000320
00000000
00000000
00002030
00000000
,
00000000
00020000
00000000
00000000
00000000
00033000
00000000
00000000
,
00001000
01000000
00001000
00000000
01000000
00100000
01000000
00000000
,
00010000
00000000
00100000
00000000
01000000
00100000
01000000
00000000
,
10000000
00100000
10000000
00000000
00001000
00010000
00001000
00000000
,
00010000
00000000
00000010
00000000
00000100
00000010
00000100
00000000
,
00000002
00000000
00000000
00001003
00000000
00000000
00000010
00000000
,
00020000
00000000
00000000
00031000
00000000
00000000
00100000
00000000
,
01000000
00000000
10000000
00020000
00000000
00000000
10030000
00000000
,
00010000
00000000
01000000
00002000
00000000
00000000
00013000
00001000
,
00010000
00000010
00010000
00000000
00000010
00000100
00000010
00000000
,
00000100
00000002
00000010
00000013
,
00000100
00010000
00000100
00000000
00010000
00001000
00010000
00000000
,
00002000
01000000
01003000
00100000
,
20000000
00000000
00000000
30010000
00000000
00000000
01000000
00000000
,
00002000
00000000
00000000
00013000
00000010
00000100
00000010
00000200
,
00000000
00000000
00000000
00000000
,
00000000
00000000
00000000
00000000
00000301
00000000
00000010
00000200
,
00000000
00000000
00000000
00000000
00000000
00000000
00000000
00020300
,
00000000
00000000
00031000
00000000
,
01100000
00000000
00000000
01100000
00000000
00000000
20020000
00000000
,
00000000
00000000
30030000
00000000
,
10010000
00000000
00000000
10010000
00000000
00000000
02200000
00000000
,
00000000
00000000
03300000
00000000
,
00100000
00000000
01000000
10000000
00100000
01000000
00010000
00000000
,
00100000
00000000
00001000
00010000
00000010
00000100
00000001
00000000
,
00000010
00000000
00000100
00010000
00000100
00000000
00010000
00001000
,
00010000
00001000
01000000
00010000
,
10000000
02000000
00100000
03100000
,
00010000
00002000
00000010
00003010
,
00000100
00000000
00000001
00001000
00000000
00000001
00000000
00010000
,
00000000
00000000
00010000
00011000
,
00001000
00000000
00100000
01000000
10000000
00010000
01000000
00000000
,
00010000
00000000
00001000
00000100
00000010
00000001
00000100
00000000
,
00000001
00000000
00001000
00000010
00000000
00010000
00000000
00022000
,
00000000
00000000
00033000
00000000
,
00001000
00000000
01000000
00100000
00000000
01000000
00100000
01000000
,
00000000
20020000
00000000
30030000
,
10010000
00000000
01000000
00100000
00010000
00000000
00001000
00000010
,
00000100
00000000
00000000
00000001
00000000
00000000
00000000
00000100
00000000
00000000
00000000
00000000
00000000
00000000
00000000
00000000
,
00000002
00000000
00000023
00000000
,
00000130
00000000
00000000
00000000
00010000
00000000
00000000
00022000
00000000
00000000
00000000
00000000
00033000
00000000
00000000
00000000
,
00000000
00000000
00011000
00000000
00001000
00100000
01000000
00000000
,
10000000
00000000
00100000
01000000
00010000
00001000
00000010
00000000
,
00000100
00000000
00000001
00001000
00000000
00000010
00000000
00022000
,
00000000
00000000
00033000
00000000
,
01100000
00000000
01000000
00010000
01000000
00010000
10000000
00000000
,
01000000
00000000
00100000
00001000
00100000
00001000
00000100
00000000
,
00000010
00000000
00000001
00000100
00000001
00000000
00001000
00000100
,
00000000
00010000
00010000
00000000
00000000
00000000
00000000
00000000
,
00001000
01000000
00100000
01000000
,
00001000
00100000
10000000
00100000
,
00001000
00010000
00000100
00000010
,
00000100
00010000
00000010
00000100
,
00000001
00001000
00000001
00000000
00010000
00000100
00010000
00000000
,
00001000
00010000
00001000
00000000
00100000
01000000
00100000
00000000
,
00010000
10000000
00010000
00000000
10000000
00100000
10000000
00000000
,
00001000
00010000
00001000
00000000
00010000
00000010
00000100
00000002
,
00000000
00000000
00000000
00000000
,
00000000
00000000
00000000
00000000
,
00000000
00000000
00000000
00000003
;

//---------------dance-double - ----------------
#NOTES:
     dance-double:
     :
     Hard:
     12:
     0.533,0.851,0.307,0.282,0.157:
20020000
00000000
00000000
30030000
,
11000000
00000000
00000000
01100000
00000000
00000000
00202000
00000000
,
00000000
00000000
00303000
00000000
,
00011000
00000000
00000000
00010010
00000000
00000000
00000220
00000000
,
00000000
00000000
00000330
00000000
,
00000011
00000000
00000000
00010010
00000000
00000000
00022000
00000000
,
00000000
00000000
00033000
00000000
,
01100000
00000000
00100000
10000000
00000000
00100000
10000000
01000000
,
00200000
00001000
00301000
00000000
,
00011000
00000000
00000000
00010100
00000000
00000000
00000120
00000000
,
00000000
00000100
00000130
00000000
,
00001001
00000000
00000001
00000100
00000000
00000001
00010000
00000000
,
00012000
00000000
00000000
00203000
00000000
00000000
02300000
00000000
,
00000000
03200000
00000000
00000000
00000000
00001000
00301000
00000000
,
10000000
00100000
01000000
00100000
01000000
00010000
00001000
00000010
,
00000100
00000000
00000001
00000000
00000100
00000001
00000010
00000100
,
00000000
00010000
00001000
00010000
00001000
00100000
01000000
10000000
,
00000000
00010000
10000000
00100000
10000000
00010000
00100000
00000000
,
00110000
00000000
00001000
00020000
00000000
00000000
00031000
00000000
,
00011000
00000000
00000100
00000020
00000000
00000000
00000130
00000001
,
00000010
00000000
00000001
00002000
00000000
00000000
00003001
00000100
,
00000010
00010000
00001000
01000000
00000000
00100000
10000000
01000000
,
00100000
01000000
10000000
01000000
10000000
00100000
01000000
00010000
,
00000000
00001000
00000100
00000010
00000001
00000010
00000100
00001000
,
00000000
00000010
00000100
00000010
00000100
00000001
00010000
00000100
,
00010000
00000000
00001000
00000000
00100000
01000000
10000000
00010000
,
01000000
00000000
00010000
20000000
00000000
00000000
30010000
00100000
,
00100000
00100000
00001000
00010000
00000100
00000010
00000001
00000100
,
00000002
00000000
00000000
00000000
,
00000000
00000000
00000000
00000013
00000100
00001000
00010000
00200000
,
00000000
00000000
00000000
00000000
00000000
00000000
01300000
20000000
,
00000000
00000000
00000000
00000000
00000000
00000000
30010000
00100000
00010000
00000000
10000000
00000000
01000000
00000000
00100000
00000000
,
01100000
00000000
00001000
00011000
00000000
00000020
00000200
00000000
,
00000000
00000000
00000330
00000000
,
00001001
00000000
00000010
00000011
00000000
00000100
00000020
00000000
,
00000000
00000100
00000130
00000000
00000000
00000000
00010000
00000000
,
00011000
00000000
00001000
10000000
00100000
01000000
00100000
10000000
,
00001000
00000000
00100000
01000000
10000000
00100000
10000000
01000000
,
00000000
00100000
00001000
00010000
00000100
00000010
00000100
00010000
,
00001000
00000000
00010000
00000000
00000100
00000010
00000001
00000200
,
00000000
00000010
00000010
00000310
00000000
00001000
00010000
02000000
,
00000000
00100000
00100000
03100000
00000000
00010000
01000000
10000000
,
01000000
00010000
10000000
10010000
00000000
01001000
00000000
00011000
,
00000000
00000000
00000000
00000001
00000100
00001000
00000100
00000001
,
00001000
00000000
00000001
00001000
00000010
00000001
00000010
00001000
,
00000001
00000000
00000010
00000100
00010000
00001000
00100000
01000000
,
00000000
10000000
00010000
01000000
00000000
01010000
00000000
10010000
,
00000000
01000000
00100000
10000000
01000000
00010000
01000000
10000000
,
00010000
00001000
00000010
00000100
00000000
00000001
00000010
00000100
,
00000000
00020000
00002000
00000000
00000000
00000000
00033000
00000000
,
01100000
00000000
00000000
10000000
01000000
00010000
01000000
10000000
00000000
00000000
00000000
00010000
01000000
10000000
01000000
00010000
,
00000000
00100000
01000000
00100000
00000000
00001000
00010000
00002000
00000000
00000000
00000000
00000000
00000000
00000000
00003000
00000000
,
00010000
00000010
00000000
00000100
00000000
00000001
00000000
00000010
00000001
00000010
00000001
00000100
00000010
00000100
00000010
00010000
00000100
00010000
00000100
00010000
00001000
00100000
01000000
00100000
,
01000000
00000000
00000000
00000000
00000000
00000000
10000000
00000000
00010000
00000000
00000000
01000000
00000000
00000000
02020000
00000000
00000000
00000000
00000000
00000000
00000000
00000000
00000000
00000000
03030000
00000000
00000000
00000000
00000000
00000000
00000000
00000000
,
00000000
00000000
10010000
00000000
00010000
00100000
10000000
00100000
,
00010000
00000000
01000000
00100000
10000000
01000000
00010000
01000000
,
10000000
00001000
00100000
00001000
00000000
00011000
00000000
00010010
,
00000000
00000010
00000100
00000001
00000010
00001000
00000010
00000001
,
00010000
00000100
00010000
00001000
00000000
01000000
01000000
01000000
,
00010000
00100000
01000000
10000000
00000000
01000000
01000000
01000000
,
10000000
00100000
01000000
00001000
00010000
00000100
00000001
00000100
,
00000000
00020000
00002000
00000000
00000000
00000000
00033000
00000000
,
01100000
00000000
00000000
00000000
00100000
00000000
00000000
00100000
10000000
00000000
01000000
00000000
00100000
00000000
00000000
00000000
,
00011000
00000000
00000000
00000000
00010000
00000000
00000000
00010000
00000010
00000000
00000100
00000000
00000010
00000000
00000000
00000000
,
00000101
00000000
00000000
00000000
00000100
00000000
00000000
00000100
00000010
00000000
00010000
00000000
00001000
00000000
00000000
00000000
,
01100000
00000000
00000000
00000000
00100000
00000000
00000000
00000000
00100000
00000000
01000000
00000000
00010000
00100000
00010000
00000000
,
10000000
01000000
00100000
01000000
10000000
01000000
00100000
00001000
,
00010000
00000000
00000010
00000000
00000100
00000000
00000010
00000000
00010000
00000000
00000010
00000000
00000100
00000000
00000001
00000010
,
00000001
00000000
00001000
00000010
00000000
00000000
00010000
00000000
00001000
01000000
00000000
00000000
00100000
00000000
10000000
01000000
,
00000000
00000000
10000000
00000000
00100000
01000000
00100000
00000000
01000000
00001000
01000000
00001000
01000000
00000000
02002000
00000000
,
00000000
00000000
00000000
00000000
,
00000000
00000000
00000000
00000000
,
00000000
00000000
00000000
03003000
;

//---------------dance-single - ----------------
#NOTES:
     dance-single:
     :
     Beginner:
     2:
     0.077,0.113,0.073,0.000,0.000: // measure 1
1001
0000
0000
0000
,  // measure 2
1000
0000
0000
0000
,  // measure 3
0000
0000
0000
0000
,  // measure 4
0001
0000
0000
0000
,  // measure 5
0000
0000
0000
0000
,  // measure 6
1000
0000
0000
0000
,  // measure 7
0000
0000
0000
0000
,  // measure 8
0001
0000
0000
0000
,  // measure 9
1000
0000
0000
0000
,  // measure 10
0100
0000
0000
0000
,  // measure 11
0010
0000
0000
0000
,  // measure 12
0001
0000
0000
0000
,  // measure 13
0010
0000
0000
0000
,  // measure 14
0000
0000
0000
0000
,  // measure 15
0110
0000
0000
0000
,  // measure 16
0010
0000
0000
0000
,  // measure 17
0100
0000
0000
0000
,  // measure 18
0010
0000
0000
0000
,  // measure 19
0100
0000
0000
0000
,  // measure 20
0001
0000
0000
0000
,  // measure 21
0100
0000
0000
0000
,  // measure 22
0001
0000
0000
0000
,  // measure 23
1000
0000
0000
0000
,  // measure 24
0100
0000
0000
0000
,  // measure 25
1000
0000
0000
0000
,  // measure 26
0100
0000
0000
0000
,  // measure 27
0010
0000
0000
0000
,  // measure 28
0100
0000
0000
0000
,  // measure 29
1001
0000
0000
0000
,  // measure 30
0000
0000
0000
0000
,  // measure 31
0000
0000
0000
0000
,  // measure 32
0000
0000
0000
0000
,  // measure 33
1001
0000
0000
0000
,  // measure 34
0000
0000
0000
0000
,  // measure 35
1001
0000
0000
0000
,  // measure 36
0000
0000
0000
0000
,  // measure 37
0001
0000
0000
0000
,  // measure 38
0100
0000
0000
0000
,  // measure 39
0001
0000
0000
0000
,  // measure 40
1000
0000
0000
0000
,  // measure 41
0100
0000
0000
0000
,  // measure 42
0100
0000
0000
0000
,  // measure 43
0010
0000
0000
0000
,  // measure 44
0000
0000
0000
0000
,  // measure 45
0001
0000
0000
0000
,  // measure 46
1000
0000
0000
0000
,  // measure 47
0100
0000
0000
0000
,  // measure 48
0010
0000
0000
0000
,  // measure 49
1001
0000
0000
0000
,  // measure 50
0000
0000
0000
0000
,  // measure 51
0010
0000
0000
0000
,  // measure 52
0000
0000
0000
0000
,  // measure 53
0010
0000
0000
0000
,  // measure 54
0000
0000
0000
0000
,  // measure 55
0000
0110
0000
0000
,  // measure 56
0100
0000
0000
0000
,  // measure 57
0010
0000
0000
0000
,  // measure 58
0100
0000
0000
0000
,  // measure 59
0001
0000
0000
0000
,  // measure 60
0001
0000
0000
0000
,  // measure 61
1000
0000
0000
0000
,  // measure 62
0000
0001
0000
0000
,  // measure 63
1001
0000
0000
0000
,  // measure 64
0100
0000
0000
0000
,  // measure 65
0010
0000
0000
0000
,  // measure 66
0100
0000
0000
0000
,  // measure 67
1000
0000
0000
0000
,  // measure 68
0010
0000
0000
0000
,  // measure 69
0100
0000
0000
0000
,  // measure 70
0001
0000
0000
0000
0000
0000
0000
1001
;
