#TITLE:chrono diver;
#SUBTITLE:-fragment-;
#ARTIST:猫叉Master feat.三澤 秋;
#TITLETRANSLIT:;
#SUBTITLETRANSLIT:;
#ARTISTTRANSLIT:Nekomata Master feat.AKI MISAWA;
#CREDIT:DigiMindAxel;
#BANNER:chrono diver -fragment-.png;
#BACKGROUND:chrono diver -fragment--bg.png;
#LYRICSPATH:chrono diver -fragment-.lrc;
#CDTITLE:beatmania IIDX.png;
#MUSIC:chrono diver -fragment-.ogg;
#METERTYPE:DDR X;
#OFFSET:-0.753;
#SAMPLESTART:68.172;
#SAMPLELENGTH:12.000;
#SELECTABLE:YES;
#BPMS:0.000=185.000;
#STOPS:;
#BGCHANGES:-2.000=chrono diver -fragment-.avi=1.000=1=1=0,
99999=-nosongbg-=1.000=0=0=0 // don't automatically add -songbackground-
;

//---------------dance-single - ----------------
#NOTES:
     dance-single:
     :
     Easy:
     3:
     0.137,0.219,0.032,0.122,0.000:
0000
0000
0000
0000
,
0000
0000
0000
0000
,
0000
0000
0000
0000
,
0000
0000
0000
0000
,
2000
0000
0000
0000
,
0000
0000
0000
0000
,
3000
0000
0000
0000
,
0000
0000
0000
0000
,
0002
0000
0000
0000
,
0000
0000
0000
0000
,
0003
0000
0000
0000
,
0000
0000
0000
0000
,
1000
0000
0000
0000
,
0001
0000
0000
0000
,
1000
0000
0000
0000
,
0001
0000
0000
0000
,
0010
0000
0100
0000
,
0010
0000
0100
0000
,
1000
0000
0010
0000
,
0110
0000
0000
0000
,
0100
0000
0001
0000
,
0100
0000
0000
0000
,
0001
0000
1000
0000
,
0001
0000
0000
0000
,
1000
0000
0100
0000
,
1000
0000
0000
0000
,
0010
0000
0100
0000
,
0010
0000
0000
0000
,
1000
0000
0100
0000
,
1000
0000
0000
0000
,
0001
0000
1000
0000
,
0001
0000
0000
0000
,
0020
0000
0000
0000
,
0030
0000
0000
0000
,
0200
0000
0000
0000
,
0300
0000
0000
0000
,
1001
0000
0001
0000
,
1000
0000
0001
0000
,
1000
0000
0001
0000
,
1000
0000
0000
0000
,
0002
0000
0000
0000
,
0003
0000
0000
0000
,
2000
0000
0000
0000
,
3000
0000
0000
0000
,
0020
0000
0000
0000
,
0030
0000
0000
0000
,
0100
0000
0010
0000
,
0100
0000
0000
0000
,
0001
0000
1000
0000
,
0001
0000
0000
0000
,
1000
0000
0001
0000
,
1001
0000
0000
0000
,
0200
0000
0000
0000
,
1300
0000
0010
0000
,
0100
0000
0100
0000
,
0100
0000
0000
0000
,
0001
0000
1000
0000
,
0001
0000
0000
0000
,
0010
0000
0010
0000
,
0010
0000
0000
0000
,
0200
0000
0000
0000
,
1300
0000
0001
0000
,
0010
0000
0010
0000
,
0010
0000
0000
0000
,
0100
0000
1000
0000
,
0010
0000
0000
0000
,
2000
0000
0000
0000
,
3001
0000
0100
0000
,
0010
0000
0010
0000
,
0010
0000
0000
0000
,
1000
0000
0001
0000
,
1000
0000
0000
0000
,
0010
0000
0010
0000
,
0010
0000
0000
0000
,
0200
0000
0000
0000
,
0301
0000
1000
0000
,
0100
0000
0100
0000
,
0100
0000
0000
0000
,
1000
0000
0000
0000
,
0010
0000
0000
0000
,
0100
0000
0000
0000
,
1001
0000
0000
0000
,
0002
0000
0000
0000
,
0000
0000
0000
0000
,
2003
0000
0000
0000
,
0000
0000
0000
0000
,
3002
0000
0000
0000
,
0000
0000
0000
0000
,
2003
0000
0000
0000
,
0000
0000
0000
0000
,
3000
0000
0000
0000
;

//---------------dance-single - ----------------
#NOTES:
     dance-single:
     :
     Medium:
     7:
     0.356,0.511,0.178,0.130,0.000:
0000
0000
0000
0000
,
0000
0000
0000
0000
,
0000
0000
0000
0000
,
0000
0000
0000
0000
,
1000
0000
0000
1000
0000
0000
1000
0000
,
0000
2000
0000
0000
0000
0000
0000
0000
,
3000
0000
0000
0000
,
0001
0000
0000
0000
,
0010
0000
0000
0010
0000
0000
0010
0000
,
0000
0020
0000
0000
0000
0000
0000
0000
,
0030
0000
0000
0000
,
0100
0000
0000
0000
,
1001
0000
0001
0000
,
0001
0000
0001
0000
,
1000
0000
1000
0000
,
1000
0000
1000
0000
,
0001
1000
0001
1000
,
0010
0100
0010
0100
,
0001
0010
0100
1000
,
1001
0000
0000
1000
,
1001
0001
0100
0010
,
0100
0001
0010
0100
,
1000
0000
0000
1000
0000
0000
1000
0000
,
0001
0000
1000
0000
0010
0100
0010
0000
,
0000
1000
0100
0010
,
0001
0010
0100
1000
,
0001
0000
0000
0001
0000
0000
0001
0000
,
0100
0000
0010
0100
0010
0000
0000
0000
,
1000
0001
0010
0001
,
1000
0010
0100
0001
,
1000
0000
0000
1000
0000
0000
1000
0000
,
0001
0000
0010
0001
0010
0000
0000
0000
,
0001
1000
0100
0010
,
0000
0001
1000
0001
,
0100
0010
0100
0001
,
0010
0000
0100
0000
1000
0010
1000
0000
,
1001
0001
0001
0001
,
1000
1000
1000
1000
,
0001
0000
0100
0001
0000
1000
0100
0000
,
0010
0001
0100
0000
0110
0000
0110
0000
,
1020
0000
0000
1030
,
0001
0000
1000
0001
,
0020
0000
0000
0031
,
1000
0000
0100
0010
,
0002
0000
0000
0103
,
0010
1000
0100
0010
,
0001
0000
0000
1000
,
0010
1000
0001
0010
,
0100
1000
0100
1000
,
0010
0100
0010
0100
,
0001
0000
1000
0000
0001
1000
0001
0000
,
1001
0000
0000
1000
,
1020
0000
0000
0130
,
0001
0010
0100
1000
,
0001
0000
0000
1000
0001
0000
0000
1000
,
0001
0010
0100
0010
,
0011
0001
0100
0110
,
0000
0010
1000
0100
,
0011
0000
0000
0001
1000
0000
0000
0001
,
1000
0100
0010
0100
,
2100
0000
0000
3001
,
1000
0100
0010
0001
,
1001
0000
0000
1000
0001
0000
0000
1000
,
0001
0010
0100
0010
,
0001
1000
0001
0000
1000
0000
0000
0000
,
1001
0001
0010
0100
,
2001
0000
0000
3001
,
0100
0010
0100
0001
,
1000
0000
0000
0001
1000
0000
0000
0001
,
1000
0010
0100
0000
,
0010
0100
1100
1001
,
0000
0010
0100
0001
,
0101
0000
0000
0100
0010
0000
0000
0100
,
0010
1000
0100
0010
,
0102
0000
0000
1003
,
0100
0010
0001
0010
,
1100
0000
0000
1000
0010
0000
1000
0010
,
1000
0100
0010
0001
,
0200
0010
0310
0000
,
2000
0100
3100
0000
,
0020
0100
0130
0001
,
1001
0000
0000
0000
,
0200
0000
1000
0000
,
1000
0000
1000
0000
,
0320
0000
0001
0000
,
0001
0000
0001
0000
,
0230
0000
1000
0000
,
1000
0000
1000
0000
,
0320
0000
0001
0000
,
0001
0000
0001
0000
,
0030
0000
0000
0000
;

//---------------dance-single - ----------------
#NOTES:
     dance-single:
     :
     Hard:
     11:
     0.561,0.619,0.357,0.162,0.000:
0000
0000
0000
0000
,
0000
0000
0000
0000
,
0000
0000
0000
0000
,
0000
0000
0000
0000
,
0100
0000
0000
0100
0000
0000
0000
0000
,
0010
0000
0000
0010
0000
0000
0000
0000
,
0001
0000
0000
0001
0000
0000
0000
0000
,
1000
0000
0000
1000
0000
0000
0000
0000
,
0010
0000
0000
0010
0000
0000
0000
0000
,
1000
0000
0000
1000
0000
0000
0000
0000
,
0001
0000
0000
0001
0000
0000
0000
0000
,
0010
0000
0000
0010
0000
0000
0000
0000
,
1001
1000
0001
0000
,
0010
0100
1000
0000
,
0100
1000
0010
0000
,
0100
0001
1000
0100
,
0010
0001
0010
0000
0100
0010
0100
0000
,
1000
0010
1000
0000
0001
1000
0001
0000
,
0010
0100
1000
0001
0100
0001
1000
0010
,
0200
0000
0000
0310
,
1001
1200
0320
0032
,
0103
0000
0010
1000
0100
0000
0010
0000
,
0001
0000
0100
0001
0000
1000
0100
0000
,
0010
0000
0010
0100
1000
0001
0100
0000
,
0001
0200
0302
2003
,
3200
0000
0310
0000
0001
0100
0010
0000
,
0100
0000
0001
1000
0000
0100
1000
0000
,
0010
0000
0010
1000
0001
0010
0100
0000
,
1001
0002
0203
0302
,
2003
0000
3100
0010
0001
0010
0100
0000
,
2000
0000
0010
0010
0000
0001
3001
0000
,
1000
0000
1000
0010
0100
0001
0010
0000
,
0200
0000
1000
1000
0000
0010
0310
0000
,
1000
0010
0100
0010
1000
0000
0001
0000
,
0200
0000
0001
0001
0000
0010
0310
0000
,
1000
0100
1000
0001
0100
1000
0100
0001
,
1000
0010
1000
0010
1000
0010
1000
0010
,
0100
0001
0100
0001
0100
0001
0100
0001
,
1000
0100
0010
0001
1000
0100
0001
1000
,
0010
0001
1000
0000
1001
0000
1001
0000
,
0101
0000
0100
0000
0110
0000
0000
0010
,
1000
0100
0010
0000
0101
0000
0000
0000
,
0110
0000
0100
0000
1100
0000
0000
1000
,
0001
0010
0100
0000
0110
0000
0000
0000
,
0011
0000
0010
0000
0110
0000
0000
0010
,
1000
0100
0010
0000
0101
0000
0000
0000
,
1001
0000
1000
0000
0001
0000
1000
0100
,
1000
0000
0010
0100
0010
0000
1000
0000
,
0001
0000
0100
0000
0010
0000
0100
0001
,
0100
0000
0001
1000
0001
0000
0010
0000
,
0100
1000
0100
1000
0001
0100
0010
0000
,
0120
0000
0000
0000
0000
0100
0130
0000
,
1002
0010
1003
1001
,
1100
0000
0100
1000
0001
0100
0001
1000
,
0100
0000
0100
0010
0001
0000
0001
0010
,
0100
0001
1000
0010
1000
0001
1000
0000
,
1100
0110
0011
1001
,
0000
0000
0010
0100
0001
1000
0100
0000
,
1001
0000
0001
0010
0100
0000
0100
1000
,
0001
0100
0010
0100
0001
1000
0100
0000
,
2001
0000
0100
0000
3001
0000
1000
0100
,
0010
0101
0110
1010
,
1001
0000
0001
0100
0010
0000
0010
1000
,
0100
0010
0001
0100
0001
1000
0001
0000
,
0100
0010
1000
0000
0010
1000
0100
0000
,
1000
0100
0010
0001
1000
0100
0010
0000
,
1002
0100
1003
1001
,
0011
0000
0100
1000
0010
0100
0010
1000
,
0001
0000
0001
0010
0100
0000
0100
0010
,
0001
1000
0010
1000
0001
1000
0010
0000
,
1001
0011
1100
0110
,
0000
0000
0100
0001
1000
0100
0010
0000
,
1001
0000
0001
0100
0010
0000
0010
0100
,
0001
1000
0100
1000
0001
1000
0100
0000
,
1002
0000
0100
0000
1003
0000
0001
0100
,
0010
1010
1001
0011
,
1001
0000
1000
0010
0100
0000
0100
0001
,
1000
0100
1000
0001
1000
0100
0010
0001
,
0100
0010
0100
0001
1000
0000
1000
0000
,
0100
0010
0001
0010
0100
0000
0100
0000
,
1000
0001
0100
0001
1000
0000
1000
0000
,
1001
0000
0000
0000
,
0100
0001
0100
0001
,
0100
0001
0100
0001
,
0100
1000
0100
1000
,
0100
1000
0100
1000
,
0010
0100
0010
0100
,
0010
0100
0010
0100
,
0001
0010
0001
0010
,
1000
0010
0001
0010
;

//---------------dance-double - ----------------
#NOTES:
     dance-double:
     :
     Easy:
     3:
     0.151,0.219,0.089,0.122,0.000:
00000000
00000000
00000000
00000000
,
00000000
00000000
00000000
00000000
,
00000000
00000000
00000000
00000000
,
00000000
00000000
00000000
00000000
,
20000000
00000000
00000000
00000000
,
00000000
00000000
00000000
00000000
,
30000000
00000000
00000000
00000000
,
00000000
00000000
00000000
00000000
,
00020000
00000000
00000000
00000000
,
00000000
00000000
00000000
00000000
,
00030000
00000000
00000000
00000000
,
00000000
00000000
00000000
00000000
,
01000000
00000000
00000000
00000000
,
00100000
00000000
00000000
00000000
,
01000000
00000000
00000000
00000000
,
00100000
00000000
00000000
00000000
,
10000000
00000000
00010000
00000000
,
10000000
00000000
00010000
00000000
,
00100000
00000000
00001000
00000000
,
00011000
00000000
00000000
00000000
,
00010000
00000000
00000010
00000000
,
00010000
00000000
00000000
00000000
,
00000010
00000000
00000100
00000000
,
00000010
00000000
00000000
00000000
,
00001000
00000000
00000001
00000000
,
00001000
00000000
00000000
00000000
,
00000001
00000000
00000010
00000000
,
00000001
00000000
00000010
00000000
,
00000100
00000000
00010000
00000000
,
00000100
00000000
00000000
00000000
,
00010000
00000000
00001000
00000000
,
00010000
00000000
00001000
00000000
,
02000000
00000000
00000000
00000000
,
03000000
00000000
00000000
00000000
,
00200000
00000000
00000000
00000000
,
00300000
00000000
00000000
00000000
,
10010000
00000000
00010000
00000000
,
10000000
00000000
00010000
00000000
,
10000000
00000000
00010000
00000000
,
10000000
00000000
10010000
00000000
,
00020000
00000000
00000000
00000000
,
00030000
00000000
00000000
00000000
,
02000000
00000000
00000000
00000000
,
03000000
00000000
00000000
00000000
,
00002000
00000000
00000000
00000000
,
00003000
00000000
00000000
00000000
,
00010000
00000000
00010000
00000000
,
00010000
00000000
00000000
00000000
,
00000010
00000000
00000010
00000000
,
00000010
00000000
00000000
00000000
,
00000100
00000000
00000100
00000000
,
00000110
00000000
00000000
00000000
,
00000002
00000000
00000000
00000000
,
00001003
00000000
00000100
00000000
,
00010000
00000000
00010000
00000000
,
00011000
00000000
00000000
00000000
,
00100000
00000000
01000000
00000000
,
10000000
00000000
00000000
00000000
,
00100000
00000000
00100000
00000000
,
01100000
00000000
00000000
00000000
,
00200000
00000000
00000000
00000000
,
01300000
00000000
00010000
00000000
,
10000000
00000000
10000000
00000000
,
10010000
00000000
00000000
00000000
,
01000000
00000000
00010000
00000000
,
00001000
00000000
00000000
00000000
,
00000020
00000000
00000000
00000000
,
00000130
00000000
00001000
00000000
,
00000001
00000000
00000001
00000000
,
00001001
00000000
00000000
00000000
,
00000100
00000000
00000010
00000000
,
00000100
00000000
00000000
00000000
,
00000001
00000000
00000001
00000000
,
00001001
00000000
00000000
00000000
,
00000200
00000000
00000000
00000000
,
00000310
00000000
00001000
00000000
,
00010000
00000000
00010000
00000000
,
00011000
00000000
00000000
00000000
,
01000000
00000000
01000000
00000000
,
01000000
00000000
00000000
00000000
,
00100000
00000000
00100000
00000000
,
01100000
00000000
00000000
00000000
,
20000000
00000000
00000000
00000000
,
00000000
00000000
00000000
00000000
,
32000000
00000000
00000000
00000000
,
00000000
00000000
00000000
00000000
,
03200000
00000000
00000000
00000000
,
00000000
00000000
00000000
00000000
,
00302000
00000000
00000000
00000000
,
00000000
00000000
00000000
00000000
,
00003000
00000000
00000000
00000000
;

//---------------dance-double - ----------------
#NOTES:
     dance-double:
     :
     Medium:
     7:
     0.375,0.474,0.211,0.114,0.000:
00000000
00000000
00000000
00000000
,
00000000
00000000
00000000
00000000
,
00000000
00000000
00000000
00000000
,
00000000
00000000
00000000
00000000
,
10000000
00000000
00000000
10000000
00000000
00000000
00000000
00000000
,
00010000
00000000
00000000
00010000
00000000
00000000
00000000
00000000
,
10000000
00000000
00000000
10000000
00000000
00000000
00000000
00000000
,
01100000
00000000
00000000
00000000
,
00001000
00000000
00000000
00001000
00000000
00000000
00000000
00000000
,
00000010
00000000
00000000
00000010
00000000
00000000
00000000
00000000
,
00001000
00000000
00000000
00001000
00000000
00000000
00000000
00000000
,
00000110
00000000
00000000
00000000
,
00001001
00000000
00000001
00000000
,
00001000
00000000
00001000
00000000
,
00000010
00000000
00000010
00000000
,
00010000
00000000
00010000
00000000
,
00001000
01000000
00001000
01000000
,
00010000
10000000
00010000
10000000
,
01000000
00100000
01000000
00100000
,
00011000
00000000
00000000
00010000
,
00010001
00000100
00000010
00000001
,
00000010
00000100
00010000
00001000
,
00100000
00000000
00000000
00100000
00000000
00000000
00100000
00000000
,
01000000
00000000
10000000
00000000
00010000
10000000
00010000
00000000
,
00000000
00100000
01000000
10000000
,
01000000
00100000
00010000
00001000
,
00000010
00000000
00000000
00000010
00000000
00000000
00000010
00000000
,
00000100
00000000
00000001
00001000
00000001
00001000
00000001
00000000
,
00000010
00000100
00010000
00001000
,
00100000
00010000
10000000
01000000
,
00100000
00000000
00000000
00100000
00000000
00000000
00100000
00000000
,
00010000
00000000
00001000
00000010
00001000
00000000
00000000
00000000
,
00000100
00000000
00000010
00000001
00000000
00000010
00000001
00000000
,
00000000
00010000
00000010
00010000
,
00001000
00000000
00100000
01000000
00000000
00100000
01000000
00000000
,
10000000
00000000
01000000
00000000
00100000
00010000
00100000
00000000
,
01100000
01000000
01000000
01000000
,
00100000
00100000
00100000
00100000
,
10000000
01000000
00100000
00001000
,
00010000
00000100
00000011
00000011
,
00000210
00000000
00000000
00000000
00000000
00000000
00000310
00000100
,
00000010
00000000
00001000
00010000
,
00200000
00000000
00000000
00000000
00000000
00000000
01300000
00100000
,
01000000
00000000
10000000
00001000
,
00200000
00000000
00000000
00000000
00000000
00000000
00301000
00010000
,
00001000
00010000
00000010
00010000
,
00000110
00000000
00000000
00000100
,
00000010
00000100
00000010
00010000
,
00001000
00100000
10000000
00100000
,
00001000
00010000
00000100
00000001
,
00000100
00000000
00010000
00000000
00001000
00010000
00001000
00010000
,
00001000
00000000
00000000
00100000
,
02100000
00000000
00000000
03100000
,
10000000
01000000
00100000
00010000
,
00001000
00000000
00000000
00000010
00000100
00000000
00000000
00000010
,
00000100
00000001
00000010
00000100
,
00010100
00011000
00001000
01100000
,
00000000
00100000
01000000
00100000
,
10010000
00000000
00000000
00010000
00100000
00000000
00000000
00010000
,
00100000
00000000
00001000
00000000
00010000
00000010
00010000
00000000
,
00000120
00000000
00000000
00000130
,
00000001
00000010
00000100
00010000
,
01001000
00000000
00000000
00100000
01000000
00000000
00000000
00100000
,
01000000
00010000
10000000
01000000
,
00100000
00001000
00100000
00000000
00001000
00000000
00010000
00000000
,
00000010
00000100
00000010
00000000
00001000
00000001
00001000
00000000
,
00000120
00000000
00000000
00000130
,
00000001
00000100
00000010
00001000
,
00011000
00000000
00000000
01000000
00100000
00000000
00000000
01000000
,
00100000
10000000
01000000
10000000
,
00100000
01001000
01001000
00011000
,
00000000
00010000
00000010
00010000
,
00000110
00000000
00000000
00000100
00000001
00000000
00000000
00000100
,
00000001
00000010
00000100
00010000
,
00012000
00000000
00000000
00103000
,
01000000
10000000
01000000
00100000
,
00011000
00000000
00000000
00001000
00010000
00000000
00001000
00010000
,
00000010
00000100
00000010
00001000
,
00000002
00000010
00000013
00000000
,
00000200
00010000
00010300
00000000
,
00002000
00010000
00013000
01000000
,
01100000
00000000
00000000
00000000
,
20000000
00000000
00100000
00000000
,
00100000
00000000
00100000
00000000
,
30002000
00000000
01000000
00000000
,
01000000
00000000
01000000
00000000
,
00023000
00000000
00000010
00000000
,
00000010
00000000
00000010
00000000
,
00030200
00000000
00000010
00000000
,
00000010
00000000
00000010
00000000
,
00000300
00000000
00000000
00000000
;

//---------------dance-double - ----------------
#NOTES:
     dance-double:
     :
     Hard:
     11:
     0.556,0.619,0.324,0.260,0.000:
00000000
00000000
00000000
00000000
,
00000000
00000000
00000000
00000000
,
00000000
00000000
00000000
00000000
,
00000000
00000000
00000000
00000000
,
20000000
00000000
00000000
31000000
00000000
00000000
00000000
00000000
,
20000000
00000000
00000000
31000000
00000000
00000000
00000000
00000000
,
00200000
00000000
00000000
01300000
00000000
00000000
00000000
00000000
,
00200000
00000000
00000000
01300000
00000000
00000000
00000000
00000000
,
00002000
00000000
00000000
00103000
00000000
00000000
00000000
00000000
,
00002000
00000000
00000000
00103000
00000000
00000000
00000000
00000000
,
00000200
00000000
00000000
00000310
00000000
00000000
00000000
00000000
,
00000200
00000000
00000000
00000310
00000000
00000000
00000000
00000000
,
00001001
00000001
00001000
00000000
,
00000100
00000010
00000001
00000000
,
00000010
00000100
00010000
00000000
,
00001000
01000000
00100000
10000000
,
00010000
10000000
00010000
00000000
10000000
00100000
10000000
00000000
,
00001000
00100000
00001000
00000000
00010000
00001000
00010000
00000000
,
00000100
00000010
00000001
00001000
00000010
00001000
00000001
00000010
,
00000200
00000000
00000000
00000310
,
00001001
00000021
00000230
00020300
,
00031000
00000000
00100000
01000000
10000000
00000000
00100000
00000000
,
01000000
00000000
00010000
10000000
00000000
01000000
00100000
00000000
,
00001000
00000000
00001000
00010000
00000100
00000010
00000001
00000000
,
00001000
00000020
00000230
00000302
,
00002003
00000000
00013000
00000000
01000000
00100000
10000000
00000000
,
01000000
00000000
00100000
00001000
00000000
00100000
01000000
00000000
,
10000000
00000000
10000000
01000000
00100000
00001000
00010000
00000000
,
00000110
00000020
00000032
00000203
,
00000320
00000000
00001030
00000001
00000010
00000100
00000010
00000000
,
00000002
00000000
00001000
00000000
00000000
00000010
00000000
00000000
,
00001003
00000000
00000010
00010000
00001000
00100000
01000000
00000000
,
20000000
00000000
00100000
00000000
00000000
01000000
00000000
00000000
,
30010000
00100000
01000000
00000000
10000000
00100000
10000000
00000000
,
00002000
00000000
01000000
00000000
00000000
00100000
00000000
00000000
,
01003000
00100000
10000000
01000000
00100000
00001000
00010000
00000100
,
00000010
00000001
00000010
00000001
00000010
00000001
00000010
00000001
,
00010000
00000100
00010000
00000100
00010000
00000100
00010000
00000100
,
00010000
00001000
00100000
01000000
10000000
01000000
00010000
10000000
,
00100000
00010000
10000000
00000000
10010000
00000000
10010000
00000000
,
01100000
00000000
00100000
00000000
00101000
00000000
00000000
00001000
,
00010000
00000100
00000010
00000000
00000011
00000000
00000000
00000000
,
00000110
00000000
00000100
00000000
00010100
00000000
00000000
00010000
,
00001000
00100000
01000000
00000000
01100000
00000000
00000000
00000000
,
10001000
00000000
00001000
00000000
00101000
00000000
00000000
00001000
,
00010000
00000010
00000100
00000000
00000110
00000000
00000000
00000000
,
00000001
00000000
00000100
00000000
00000010
00000000
00010000
00000010
,
00010000
00000000
00001000
00010000
00001000
00000000
00100000
00000000
,
01000000
00000000
10000000
00000000
00100000
00000000
01000000
00010000
,
01000000
00000000
00001000
00010000
00001000
00000000
00010000
00000000
,
00000100
00000010
00000100
00000010
00000001
00000100
00000010
00001000
,
00000200
00000000
00000000
00000000
00000000
00010000
00010300
00000000
,
02002000
00000000
03003000
01100000
,
10100000
00000000
10000000
00100000
00010000
00100000
10000000
01000000
,
00100000
00000000
00100000
01000000
10000000
00000000
10000000
00100000
,
01000000
00001000
00010000
00000100
00000010
00000100
00000010
00000000
,
00000101
00000110
00010010
00011000
,
00000000
00000000
00001000
01000000
00001000
10000000
01000000
00000000
,
10010000
00000000
00010000
00100000
01000000
00000000
01000000
10000000
,
00001000
01000000
00100000
01000000
00001000
00010000
00000100
00000000
,
00000220
00000000
00000000
00000000
00000330
00000000
00000100
00000010
,
00000001
00000101
00000110
00010010
,
00011000
00000000
00001000
01000000
00100000
00000000
00100000
10000000
,
01000000
00100000
00001000
01000000
00001000
00010000
00000100
00000000
,
00000010
00000001
00000100
00000000
00000010
00000100
00000010
00000000
,
00001000
00000100
00000010
00000001
00000010
00000100
00001000
00000000
,
00022000
00000000
00000000
00000000
00033000
00000000
00001000
01000000
,
00100000
00000000
10000000
01000000
00100000
01000000
10000000
00010000
,
01000000
00000000
00010000
00100000
01000000
00000000
01000000
00100000
,
00010000
10000000
00100000
10000000
00001000
00010000
00000100
00000000
,
00000110
00000011
00000110
00011000
,
00000000
00000000
00001000
01000000
10000000
01000000
00001000
00000000
,
00011000
00000000
00001000
01000000
00100000
00000000
00100000
01000000
,
00001000
00100000
01000000
10000000
01000000
00100000
00001000
00000000
,
00022000
00000000
00000000
00000000
00033000
00000000
00010000
00000010
,
00000100
00000101
00000110
00010010
,
00011000
00000000
00010000
00100000
01000000
00000000
01000000
00100000
,
00010000
01000000
00001000
00010000
00001000
10000000
01000000
00100000
,
00010000
00000010
00010000
00001000
00010000
00000000
00000001
00000000
,
00000100
00000010
00000100
00000001
00010000
00000000
00001000
00000000
,
00100000
01000000
10000000
01000000
00100000
00000000
00001000
00000000
,
00011000
00000000
00000000
00000000
,
00001000
00010000
00001000
00010000
,
01000000
00100000
01000000
00100000
,
00001000
00010000
00001000
00010000
,
00000010
00000100
00000010
00000100
,
00000001
00000010
00000001
00000010
,
00000100
00010000
00000100
00010000
,
00001000
00100000
00001000
00100000
,
01000000
10000000
01000000
10000000
;

//---------------dance-single - ----------------
#NOTES:
     dance-single:
     :
     Beginner:
     2:
     0.087,0.143,0.081,0.000,0.000: // measure 1
0000
0000
0000
0000
,  // measure 2
0000
0000
0000
0000
,  // measure 3
0000
0000
0000
0000
,  // measure 4
0000
0000
0000
0000
,  // measure 5
0000
0000
0000
0000
,  // measure 6
0000
0000
0000
0000
,  // measure 7
0000
0000
0000
0000
,  // measure 8
0000
0000
0000
0000
,  // measure 9
0000
0000
0000
0000
,  // measure 10
0000
0000
0000
0000
,  // measure 11
0000
0000
0000
0000
,  // measure 12
0000
0000
0000
0000
,  // measure 13
1000
0000
0000
0000
,  // measure 14
0000
0000
0000
0000
,  // measure 15
0100
0000
0000
0000
,  // measure 16
0000
0000
0000
0000
,  // measure 17
0010
0000
0000
0000
,  // measure 18
0001
0000
0000
0000
,  // measure 19
0010
0000
0000
0000
,  // measure 20
0010
0000
0000
0000
,  // measure 21
0110
0000
0000
0000
,  // measure 22
0100
0000
0000
0000
,  // measure 23
1000
0000
0000
0000
,  // measure 24
0100
0000
0000
0000
,  // measure 25
1000
0000
0000
0000
,  // measure 26
0010
0000
0000
0000
,  // measure 27
0100
0000
0000
0000
,  // measure 28
0010
0000
0000
0000
,  // measure 29
1001
0000
0000
0000
,  // measure 30
0001
0000
0000
0000
,  // measure 31
1000
0000
0000
0000
,  // measure 32
0001
0000
0000
0000
,  // measure 33
0010
0000
0000
0000
,  // measure 34
0001
0000
0000
0000
,  // measure 35
0010
0000
0000
0000
,  // measure 36
0001
0000
0000
0000
,  // measure 37
0100
0000
0000
0000
,  // measure 38
0000
0000
0000
0000
,  // measure 39
0100
0000
0000
0000
,  // measure 40
0000
0000
0000
0000
,  // measure 41
0110
0000
0000
0000
,  // measure 42
0000
0000
0000
0000
,  // measure 43
0010
0000
0000
0000
,  // measure 44
0000
0000
0000
0000
,  // measure 45
1001
0000
0000
0000
,  // measure 46
0000
0000
0000
0000
,  // measure 47
1000
0000
0000
0000
,  // measure 48
0000
0000
0000
0000
,  // measure 49
0001
0000
0000
0000
,  // measure 50
0010
0000
0000
0000
,  // measure 51
0001
0000
0000
0000
,  // measure 52
1001
0000
0000
0000
,  // measure 53
0100
0000
0000
0000
,  // measure 54
1000
0000
0000
0000
,  // measure 55
0100
0000
0000
0000
,  // measure 56
1000
0000
0000
0000
,  // measure 57
0010
0000
0000
0000
,  // measure 58
0010
0000
0000
0000
,  // measure 59
0100
0000
0000
0000
,  // measure 60
0100
0000
0000
0000
,  // measure 61
1001
0000
0000
0000
,  // measure 62
0001
0000
0000
0000
,  // measure 63
0100
0000
0000
0000
,  // measure 64
0001
0000
0000
0000
,  // measure 65
1000
0000
0000
0000
,  // measure 66
1000
0000
0000
0000
,  // measure 67
1001
0000
0000
0000
,  // measure 68
0010
0000
0000
0000
,  // measure 69
0100
0000
0000
0000
,  // measure 70
0010
0000
0000
0000
,  // measure 71
0110
0000
0000
0000
,  // measure 72
0000
0000
0000
0000
,  // measure 73
0010
0000
0000
0000
,  // measure 74
0001
0000
0000
0000
,  // measure 75
1001
0000
0000
0000
,  // measure 76
1000
0000
0000
0000
,  // measure 77
0100
0000
0000
0000
,  // measure 78
1000
0000
0000
0000
,  // measure 79
0010
0000
0000
0000
,  // measure 80
0010
0000
0000
0000
,  // measure 81
0010
0000
0000
0000
,  // measure 82
0110
0000
0000
0000
,  // measure 83
0100
0000
0000
0000
,  // measure 84
0000
0000
0000
0000
,  // measure 85
0100
0000
0000
0000
,  // measure 86
0000
0000
0000
0000
,  // measure 87
0100
0000
0000
0000
,  // measure 88
0000
0000
0000
0000
,  // measure 89
0100
0000
0000
0000
;
