#TITLE:chilblain;
#SUBTITLE:;
#ARTIST:Glaring Radiokids;
#TITLETRANSLIT:;
#SUBTITLETRANSLIT:;
#ARTISTTRANSLIT:;
#CREDIT:DigiMindAxel;
#BANNER:chilblain.png;
#BACKGROUND:chilblain-bg.png;
#LYRICSPATH:chilblain.lrc;
#CDTITLE:pop'n music.png;
#MUSIC:chilblain.ogg;
#METERTYPE:DDR X;
#OFFSET:-0.531;
#SAMPLESTART:39.712;
#SAMPLELENGTH:12.000;
#SELECTABLE:YES;
#BPMS:0.000=196.000;
#STOPS:;
#BGCHANGES:0.000=chilblain.avi=1.000=1=1=0,
99999=-nosongbg-=1.000=0=0=0 // don't automatically add -songbackground-
;

//---------------dance-single - ----------------
#NOTES:
     dance-single:
     :
     Easy:
     4:
     0.172,0.325,0.138,0.077,0.000:
0000
0000
0000
0000
,
0000
0000
0000
0000
,
0000
0000
0000
0000
,
0000
0000
0000
0000
,
0000
0000
0000
0000
,
0000
0000
0000
0000
,
0000
0000
0000
0000
,
0000
0000
0000
0000
,
2000
0000
0000
0000
,
0000
0000
0000
0000
,
3200
0000
0000
0000
,
0000
0000
0000
0000
,
2300
0000
0000
0000
,
0000
0000
0000
0000
,
3002
0000
0000
0000
,
0000
0000
0003
0000
,
1000
0000
1000
0000
,
1000
0000
1000
0000
,
0001
0000
0001
0000
,
0001
0000
0001
0000
,
1000
0000
1000
0000
,
1000
0000
1000
0000
,
0001
0000
0001
0000
,
0001
0000
0000
0000
,
1001
0000
0000
1001
,
0000
0000
0000
0000
,
0110
0000
0000
0110
,
0000
0000
0000
0000
,
1001
0000
0000
1001
,
0000
0000
0000
0000
,
0110
0000
0000
0110
,
0000
0000
0000
0000
,
0010
0000
0100
0000
,
0001
0000
0100
0000
,
0010
0000
0010
0000
,
1000
0000
1000
0000
,
0100
0000
0010
0000
,
0001
0000
0010
0000
,
0100
0000
1000
0000
,
0001
0000
0100
0000
,
0001
0000
1000
0000
,
0100
0000
1000
0000
,
0001
0000
1000
0000
,
0100
0000
1000
0000
,
0010
0000
0010
0000
,
0100
0000
0100
0000
,
0001
0000
0010
0000
,
0100
0000
1000
0000
,
1001
0000
0000
0000
,
1001
0000
0000
0000
,
1001
0000
0000
0000
,
1001
0000
0000
0000
,
0001
0000
0001
0000
,
0001
0000
0000
0000
,
1001
0000
0000
0000
,
0000
0000
0000
0000
,
0100
0000
0000
0000
,
0000
0000
0000
0000
,
0010
0000
0000
0000
,
0000
0000
0000
0000
,
0001
0000
0000
0000
,
1000
0000
0000
0000
,
0100
0000
1000
0000
,
0100
0000
1000
0000
,
0010
0000
0100
0000
,
0010
0000
0100
0000
,
0001
0000
0010
0000
,
0001
0000
0010
0000
,
0100
0000
1000
0000
,
0001
0000
0100
0000
,
0001
0100
0001
0000
,
1000
0001
1000
0000
,
0100
1000
0100
0000
,
0010
0100
0010
0000
,
0001
0100
0001
0000
,
0100
0010
0100
0000
,
0001
1000
0001
0000
,
1000
0001
1000
0001
,
1001
0000
0000
1000
,
0000
0000
0000
0000
,
1001
0000
0000
0001
,
0000
0000
0000
0000
,
0110
0000
0000
0100
,
0000
0000
0000
0000
,
1010
0000
0000
0010
,
0000
0000
0010
0100
,
0120
0000
0000
0000
,
0000
0000
0000
0000
,
2030
0000
0000
0000
,
0000
0000
0000
0000
,
3002
0000
0000
0000
,
0023
0000
0000
0000
,
0230
0000
0000
0000
,
2300
0000
0000
0000
,
3001
0000
0000
0000
;

//---------------dance-single - ----------------
#NOTES:
     dance-single:
     :
     Medium:
     10:
     0.428,0.577,0.061,0.115,0.000:
0000
0000
0000
0000
,
0000
0000
0000
0000
,
0000
0000
0000
0000
,
0000
0000
0000
0000
,
0000
0000
0000
0000
,
0000
0000
0000
0000
,
0000
0000
0000
0000
,
0000
0000
0000
0000
,
1000
0000
0001
0000
,
1000
0000
0000
0000
,
0100
0000
1000
0000
,
0100
0000
0000
0000
,
1000
0000
0010
0000
,
1000
0000
0000
0000
,
0001
0000
1000
0000
,
0001
0000
0000
0000
,
0010
0001
0010
0001
,
0010
0001
0010
0001
,
0100
0010
0100
0010
,
0100
0010
0100
0010
,
1000
0010
1000
0010
,
1000
0010
1000
0010
,
0100
0001
0010
0100
,
1000
0001
1000
0001
1000
0000
0000
0000
,
0001
1000
0000
0001
1000
0000
0001
1000
,
0000
0001
1000
0000
0010
0000
0010
0000
,
0100
0010
0000
0100
0010
0000
0100
0010
,
0000
0100
0010
0000
1000
0000
1000
0000
,
0001
0100
0000
0001
0100
0000
0001
0100
,
0000
0001
0100
0000
0001
0000
0001
0000
,
1000
0100
0000
1000
0100
0000
1000
0100
,
0000
1000
0100
0000
0010
0000
0010
0000
,
0001
0100
0001
0000
0100
0010
0100
0000
,
0001
0010
0100
0010
,
0001
1000
0001
0000
1000
0010
1000
0000
,
0100
0010
0100
1000
,
0020
1000
1030
0001
,
0020
0001
0031
0100
,
2000
0001
3001
0100
,
0020
0000
0100
0000
0130
0010
0100
0010
,
1000
0100
1000
0000
0100
0001
0100
0000
,
1000
0100
0010
0001
,
1000
0001
1000
0000
0010
0001
0010
0000
,
1000
0100
0010
0001
,
0200
0001
0301
1000
,
0200
1000
1300
0010
,
0002
0100
0103
0010
,
2000
0000
0001
0000
3001
1000
0001
0000
,
0101
0101
0000
0000
,
1100
1100
0000
0000
,
0010
0100
0000
0010
0100
0000
0001
0000
,
1000
0100
1000
0100
,
0010
0001
0100
0001
,
1000
0000
0001
1000
0001
1000
0001
1000
,
0010
0100
0010
0100
,
0010
0100
0010
0100
,
0001
0010
0001
0010
,
0001
0010
0001
0010
,
0100
1000
0100
1000
,
0100
1000
0100
1000
,
0001
0000
0100
0000
0001
0100
0000
0000
,
0002
1000
1000
1003
,
0001
1000
0001
0000
1000
0100
0010
0000
,
0001
0000
0100
0000
0001
0010
0100
0000
,
1000
0001
1000
0000
0100
0010
0001
0000
,
0100
0000
0001
0000
1000
0100
1000
0000
,
0001
0100
0010
0000
0100
0010
0100
0000
,
0001
0000
1000
0000
0100
0010
0100
0000
,
1000
0010
0100
0000
0001
1000
0001
0000
,
0100
0010
0100
0010
1000
0100
0010
0000
,
0101
0000
0101
0000
0100
0010
0100
0000
,
1001
0000
1001
0000
0100
0010
0100
0000
,
1000
0010
1000
0010
1000
0100
0010
0000
,
0001
0100
0001
0100
0001
0010
0100
0000
,
1000
0001
1000
0001
0100
0010
1000
0000
,
0100
0010
0100
0010
0001
0100
0010
0000
,
0100
0001
0100
0001
0010
0100
1000
0000
,
0001
0100
0001
0100
0001
1000
0100
0010
,
0001
0100
0000
0001
0100
0000
0001
0100
,
0000
0001
0100
0000
0010
0100
0010
0000
,
1000
0100
0000
1000
0100
0000
1000
0100
,
0000
1000
0100
0000
1000
0001
1000
0000
,
0010
0100
0000
0010
0100
0000
0010
0100
,
0000
0010
0100
0000
0001
0100
0001
0000
,
0010
0100
0000
0010
0100
0000
0010
0100
,
0000
0010
0100
0000
1000
0001
1000
0001
,
0200
0000
0000
0000
,
0000
0000
0000
0000
,
0302
0000
0000
0000
,
0000
0000
0000
0000
,
2003
0000
0000
0000
,
3002
0000
0000
0000
,
0203
0000
0000
0000
,
0320
0000
0000
0000
,
0130
0000
0000
0000
;

//---------------dance-single - ----------------
#NOTES:
     dance-single:
     :
     Hard:
     13:
     0.558,0.685,0.223,0.207,0.138:
0000
0000
0000
0000
,
0000
0000
0000
0000
,
0000
0000
0000
0000
,
0000
0000
0000
0000
,
0000
0000
0000
0000
,
0000
0000
0000
0000
,
0000
0000
0000
0000
,
0000
0000
0000
0000
,
2000
0000
0000
0000
3010
0000
0100
0001
,
0000
0001
0000
0000
0000
0000
0000
0000
,
0020
0000
0000
0000
0130
0000
1000
0001
,
0000
0001
0000
0000
0010
0000
0100
0000
,
1000
0002
0000
1003
,
0000
0000
0000
0000
,
0020
0000
0000
0100
,
0130
0000
0000
0000
,
0001
0100
0010
0100
,
0001
0000
0100
0000
0010
0100
0010
0100
,
0001
1000
0100
1000
,
0001
0000
1000
0000
0100
1000
0100
1000
,
0002
0100
0100
0103
,
0020
0000
0100
0000
0100
0000
0130
0001
,
2000
0001
0001
3001
,
1000
0100
0010
0100
1000
0001
0100
0001
,
1000
0100
0000
0001
0100
0000
1000
0100
,
0000
0001
0100
0000
1000
0001
1000
0000
,
0001
0010
0000
1000
0010
0000
0001
0010
,
0000
1000
0010
0000
0001
1000
0010
0100
,
0001
0100
0000
1000
0100
0000
0001
0100
,
0000
1000
0100
0000
0010
0100
0010
0000
,
0001
0100
0000
1000
0100
0000
0001
0100
,
0000
1000
0100
0000
0010
0001
0100
0010
,
1000
0100
0010
0100
1000
0001
0100
0001
,
0000
1000
0100
0000
0010
0000
0001
0000
,
0010
0001
0100
0001
0010
0001
0100
0010
,
0000
1000
0100
0000
1000
0100
0010
0001
,
2000
0001
3010
0110
,
0002
1000
0013
0110
,
2000
0100
3001
0110
,
0002
0000
0010
0000
1003
0001
0010
0100
,
1000
0010
0100
0010
1000
0001
0010
0001
,
0000
0100
0010
0000
1000
0000
0001
0000
,
0010
0100
1000
0001
0100
0001
1000
0100
,
0010
0100
1000
0000
0001
0000
0100
0000
,
0020
1000
0130
1001
,
0200
0010
0301
1001
,
0200
1000
0310
1001
,
0020
0000
0001
0000
1030
0010
0100
0001
,
1001
0000
1001
0000
0010
0100
1000
0001
,
0011
0000
0011
0000
0100
1000
0010
0100
,
0001
0010
0000
0100
0010
0000
0001
1000
,
0000
0100
0010
0001
1000
0010
1000
0000
,
1001
0001
0110
0100
,
1010
0000
0010
0001
0100
0010
1000
0100
,
0020
0001
0100
0031
,
0200
1000
0010
1300
,
0020
0001
0100
0031
,
0200
1000
0010
1300
,
0020
0001
0100
0031
,
0200
1000
0010
1300
,
0010
0000
0001
0010
0100
1000
0000
0001
,
0100
0000
0001
0000
1000
0000
1000
0000
0001
0000
0001
0000
1000
0100
1000
0000
,
0001
0100
0010
0100
0001
0100
1000
0100
,
0001
0100
1000
0010
0100
0001
1000
0000
,
0100
0001
0100
1000
0010
0100
0001
0010
,
0001
1000
0100
0010
0100
1000
0001
0000
,
0100
1000
0100
0001
0010
0100
0010
0001
,
1000
0010
1000
0001
0100
0010
1000
0000
,
0100
0001
0100
1000
0001
0100
0010
0100
,
0001
0000
0001
0000
1000
0000
1000
0000
0010
0100
0010
0000
0100
0010
0100
0000
,
0001
0000
0000
0001
1000
0000
0000
1000
0100
0000
0000
0100
0001
0000
0000
0001
,
0100
0000
0000
0100
1000
0000
0000
1000
0010
0000
0000
0010
0001
0000
0000
0001
,
0010
0000
0000
0010
1000
0000
0000
1000
0001
0000
0000
0001
0100
0000
0000
0100
,
1000
0000
0000
1000
0100
0000
0000
0100
0001
0000
0000
0001
0010
0000
0000
0010
,
0100
0000
0000
0100
1000
0000
0000
1000
0001
0000
0000
0001
0100
0000
0000
0100
,
0010
0000
0000
0010
1000
0000
0000
1000
0001
0000
0000
0001
0010
0000
0000
0010
,
1000
0000
0000
1000
0100
0000
0000
0100
0010
0000
0000
0010
0100
0000
0000
0100
,
1000
0000
1000
0000
0001
0000
0001
0000
0010
0000
0100
0000
1000
0001
1000
0000
,
0100
0110
0000
1000
1100
0000
0010
0110
,
0000
0001
0011
0000
0100
1000
0010
0100
,
0001
1001
0000
0100
1100
0000
0010
0110
,
0000
0000
0001
0000
0011
0000
0000
0000
0100
1000
0100
0000
1000
0100
1000
0000
,
0001
1001
0000
0100
0101
0000
1000
1100
,
0000
0010
0110
0000
0001
0010
0100
1000
,
0001
0101
0000
0010
0110
0000
1000
1100
,
0000
0000
0010
0000
0110
0000
0000
0000
0100
0000
0010
0000
0001
0100
0001
0100
,
0002
0000
0000
0000
,
0000
0000
0000
0000
,
2003
0000
0000
0000
,
0000
0000
0000
0000
,
3200
0000
0000
0000
,
0320
0000
0000
0000
,
0032
0000
0000
0000
,
2003
0000
0000
0000
,
3001
0000
0000
0000
;

//---------------dance-double - ----------------
#NOTES:
     dance-double:
     :
     Easy:
     6:
     0.235,0.361,0.169,0.284,0.000:
00000000
00000000
00000000
00000000
,
00000000
00000000
00000000
00000000
,
00000000
00000000
00000000
00000000
,
00000000
00000000
00000000
00000000
,
00000000
00000000
00000000
00000000
,
00000000
00000000
00000000
00000000
,
00000000
00000000
00000000
00000000
,
00000000
00000000
00000000
00000000
,
20000000
00000000
00000000
00000000
,
30000000
00000000
00000000
00000000
,
00020000
00000000
00000000
00000000
,
00030000
00000000
00000000
00000000
,
02000000
00000000
00000000
00000000
,
03000000
00000000
00000000
00000000
,
00200000
00000000
00000000
00000000
,
00300000
00000000
00000000
00000000
,
10000000
00000000
00100000
00000000
,
10000000
00000000
00100000
00000000
,
01000000
00000000
00001000
00000000
,
01000000
00000000
00001000
00000000
,
00010000
00000000
00001000
00000000
,
00010000
00000000
00001000
00000000
,
00000100
00000000
00000010
00000000
,
00000100
00000000
00000000
00000000
,
00002002
00000000
00003003
00001001
,
00000000
00000000
00000000
00000000
,
00000220
00000000
00000330
00000110
,
00000000
00000000
00000000
00000000
,
00022000
00000000
00033000
00011000
,
00000000
00000000
00000000
00000000
,
02200000
00000000
03300000
01100000
,
00000000
00000000
00100000
01000000
,
00010000
00000000
00100000
00000000
,
01000000
00000000
10000000
00000000
,
00010000
10000000
00010000
00000000
,
01000000
00001000
01000000
00000000
,
00002000
00000000
00023000
00000000
,
00030020
00000000
00000230
00000000
,
00000302
00000000
00002003
00000000
,
00003002
00000000
00001003
00000100
,
00010000
00000000
00001000
00000000
,
00100000
00000000
01000000
00000000
,
00100000
00000000
00001000
00000000
,
01000000
00000000
00100000
00000000
,
20000000
00000000
32000000
00000000
,
23000000
00000000
30020000
00000000
,
02030000
00000000
03002000
00000000
,
00023000
00000000
00030010
00000100
,
00000110
00000000
00000000
00000000
,
00000110
00000000
00000000
00000000
,
00001001
00000000
00000000
00000000
,
00001001
00000000
00000000
00000000
,
00000001
00001000
00000001
00001000
,
00000001
00000010
00000100
00001000
,
00020000
00000000
00000000
00000000
,
00000000
00000000
00000000
00000000
,
00230000
00000000
00000000
00000000
,
00000000
00000000
00000000
00000000
,
02300000
00000000
00000000
00000000
,
00000000
00000000
00000000
00000000
,
23000000
00000000
00000000
00000000
,
30020000
00000000
00000000
00000000
,
10030000
01000000
10000000
00000000
,
00100000
01000000
00001000
00000000
,
00010000
00001000
00010000
00000000
,
00000100
00000010
00000001
00000000
,
00010000
00000010
00010000
00000000
,
00001000
01000000
00100000
00000000
,
10000000
00010000
10000000
00010000
,
10000000
00000000
10010000
00000000
,
00100000
01000000
00100000
01000000
,
00001000
00010000
00001000
00010000
,
00000010
00000100
00000010
00000100
,
00000001
00000010
00000001
00000010
,
00000100
00010000
00000100
00010000
,
00001000
00100000
00001000
00100000
,
01000000
10000000
01000000
10000000
,
01000000
00100000
00001000
00010000
,
00011000
00000000
00000000
00010001
,
00000000
00000000
00000000
00000000
,
00000110
00000000
00000000
00010001
,
00000000
00000000
00000000
00000000
,
00011000
00000000
00000000
10001000
,
00000000
00000000
00000000
00000000
,
01100000
00000000
00000000
10010000
,
00000000
00000000
10000000
00010000
,
20010000
00000000
00000000
00000000
,
00000000
00000000
00000000
00000000
,
32000000
00000000
00000000
00000000
,
00000000
00000000
00000000
00000000
,
03200000
00000000
00000000
00000000
,
00302000
00000000
00000000
00000000
,
00023000
00000000
00000000
00000000
,
00030020
00000000
00000000
00000000
,
00000130
00000000
00000000
00000000
;

//---------------dance-double - ----------------
#NOTES:
     dance-double:
     :
     Medium:
     10:
     0.434,0.577,0.061,0.130,0.000:
00000000
00000000
00000000
00000000
,
00000000
00000000
00000000
00000000
,
00000000
00000000
00000000
00000000
,
00000000
00000000
00000000
00000000
,
00000000
00000000
00000000
00000000
,
00000000
00000000
00000000
00000000
,
00000000
00000000
00000000
00000000
,
00000000
00000000
00000000
00000000
,
10000000
00000000
01000000
00000000
,
10000000
00000000
00000000
00000000
,
00100000
00000000
01000000
00000000
,
00100000
00000000
00000000
00000000
,
01000000
00000000
00001000
00000000
,
01000000
00000000
00000000
00000000
,
00001000
00000000
00010000
00000000
,
00001000
00000000
00000000
00000000
,
00010000
00000010
00010000
00000010
,
00010000
00000010
00010000
00000010
,
00000100
00000001
00000100
00000001
,
00000100
00000001
00000100
00000001
,
00000010
00000100
00000010
00000100
,
00000010
00000100
00000010
00000100
,
00001000
00010000
00100000
01000000
,
10000000
00010000
10000000
00010000
10000000
00000000
00000000
00000000
,
00100000
01000000
00000000
00100000
01000000
00000000
00100000
01000000
,
00000000
00100000
01000000
00000000
00001000
00000000
00001000
00000000
,
00010000
00000010
00000000
00010000
00000010
00000000
00010000
00000010
,
00000000
00010000
00000010
00000000
00000100
00000000
00000100
00000000
,
00000001
00000010
00000000
00000001
00000010
00000000
00000001
00000010
,
00000000
00000001
00000010
00000000
00000100
00000000
00000100
00000000
,
00010000
00001000
00000000
00010000
00001000
00000000
00010000
00001000
,
00000000
00010000
00001000
00000000
01000000
00000000
01000000
00000000
,
00100000
01000000
00100000
00000000
10000000
00100000
10000000
00000000
,
01000000
00100000
00010000
00001000
,
00000010
00000100
00000010
00000000
00000100
00000001
00000100
00000000
,
00000001
00000010
00000100
00010000
,
00002000
01000000
01003000
00100000
,
20000000
01000000
31000000
00100000
,
00002000
00010000
00013000
00000100
,
00000020
00000000
00000001
00000000
00000031
00001000
00000001
00001000
,
00000010
00010000
00000010
00000000
00010000
00001000
00010000
00000000
,
00001000
00100000
01000000
00100000
,
00001000
10000000
00001000
00000000
10000000
00100000
10000000
00000000
,
01000000
00100000
00001000
00010000
,
00000200
00000010
00000310
00000001
,
00000020
00000100
00000130
00010000
,
00002000
00100000
00103000
10000000
,
02000000
00000000
10000000
00000000
13000000
00100000
01000000
00000000
,
01100000
01100000
00000000
00000000
,
00011000
00011000
00000000
00000000
,
00000100
00000010
00000000
00000100
00000010
00000000
00000001
00000000
,
00000100
00000010
00010000
00001000
,
01000000
00100000
00010000
00100000
,
01000000
00000000
10000000
00010000
10000000
00010000
10000000
00010000
,
20000000
01000000
01000000
01000000
,
01000000
01000000
01000000
31000000
,
00200000
00001000
00001000
00001000
,
00001000
00001000
00001000
00301000
,
00020000
00000100
00000100
00000100
,
00000100
00000100
00000100
00030100
,
00000010
00000000
00000001
00000000
00000010
00000010
00000000
00000000
,
00001001
00001001
00001001
00001001
,
00000001
00000010
00000001
00000000
00000010
00000100
00010000
00000000
,
00001000
00000000
01000000
00000000
00100000
10000000
00010000
00000000
,
00100000
00010000
00100000
00000000
01000000
10000000
00100000
00000000
,
01000000
00000000
00001000
00000000
00010000
00001000
00010000
00000000
,
00000100
00000010
00000001
00000000
00000100
00000010
00000100
00000000
,
00000001
00000000
00000010
00000000
00000100
00010000
00000100
00000000
,
00010000
00001000
00100000
00000000
01000000
10000000
01000000
00000000
,
10000000
00010000
10000000
01000000
00100000
00010000
01000000
00000000
,
00100000
01000000
00100000
01000000
00001000
00100000
00001000
00000000
,
00010000
00000100
00010000
00000100
00000010
00000001
00000010
00000000
,
00000100
00010000
00000100
00010000
00001000
00100000
01000000
00000000
,
00100000
00010000
00100000
00010000
10000000
00100000
01000000
00000000
,
00001000
01000000
00001000
01000000
00010000
00001000
00000010
00000000
,
00000100
00000001
00000100
00000001
00000010
00000100
00010000
00000000
,
00001000
00100000
00001000
00100000
01000000
10000000
00100000
00000000
,
01000000
00010000
01000000
00010000
10000000
01000000
00100000
00001000
,
00010000
00000100
00000000
00010000
00000100
00000000
00010000
00000100
,
00000000
00010000
00000100
00000000
00000010
00000001
00000010
00000000
,
00000100
00010000
00000000
00000100
00010000
00000000
00000100
00010000
,
00000000
00000100
00010000
00000000
00001000
00010000
00001000
00000000
,
00100000
01000000
00000000
00100000
01000000
00000000
00100000
01000000
,
00000000
00100000
01000000
00000000
10000000
00010000
10000000
00000000
,
00001000
00100000
00000000
00001000
00100000
00000000
00001000
00100000
,
00000000
00001000
00100000
00000000
00001000
00010000
00001000
00010000
,
00000020
00000000
00000000
00000000
,
00000000
00000000
00000000
00000000
,
00000230
00000000
00000000
00000000
,
00000000
00000000
00000000
00000000
,
00000302
00000000
00000000
00000000
,
00000023
00000000
00000000
00000000
,
00000230
00000000
00000000
00000000
,
00002300
00000000
00000000
00000000
,
00013000
00000000
00000000
00000000
;

//---------------dance-double - ----------------
#NOTES:
     dance-double:
     :
     Hard:
     13:
     0.565,0.757,0.253,0.207,0.138:
00000000
00000000
00000000
00000000
,
00000000
00000000
00000000
00000000
,
00000000
00000000
00000000
00000000
,
00000000
00000000
00000000
00000000
,
00000000
00000000
00000000
00000000
,
00000000
00000000
00000000
00000000
,
00000000
00000000
00000000
00000000
,
00000000
00000000
00000000
00000000
,
20000000
00000000
00000000
00000000
30010000
00000000
01000000
00100000
,
00000000
00100000
00000000
00000000
00000000
00000000
00000000
00000000
,
02000000
00000000
00000000
00000000
03001000
00000000
00010000
00001000
,
00000000
00001000
00000000
00000000
00010000
00000000
00000010
00000000
,
00000200
00000000
00000000
00000000
00000301
00000000
00001000
00000010
,
00000000
00000010
00000000
00000000
00000000
00000000
00000000
00000000
,
00020000
00000000
00031000
01000000
,
00100000
00000000
00000000
00000000
,
10000000
01000000
10000000
01000000
,
00100000
00000000
00001000
00000000
00100000
00001000
00010000
00000010
,
00010000
00000010
00010000
00000010
,
00010000
00000000
00000010
00000000
00000100
00000001
00000100
00000001
,
00002000
00000100
00000100
00003100
,
00020000
00000000
00001000
00000000
00001000
00000000
00031000
00100000
,
02000000
10000000
10000000
13000000
,
00010000
10000000
00010000
10000000
01000000
00100000
00001000
00010000
,
00000100
00010000
00000000
00000100
00000010
00000000
00000100
00010000
,
00000000
00000100
00000010
00000000
01000001
00100000
01000001
00000000
,
00100010
10000001
00000000
01000010
10000100
00000000
00100010
10000001
,
00000000
01000010
10000100
00000000
00001000
00000010
00010000
00001000
,
00100000
00010000
00000000
01000000
00001000
00000000
00100000
00010000
,
00000000
01000000
00001000
00000000
01000000
00100000
01000000
00000000
,
00001000
10000000
00000000
01000000
00100000
00000000
00001000
10000000
,
00000000
01000000
00100000
00000000
00001000
01000000
00001000
00010000
,
00000010
00000100
00000010
00000100
00000001
00000010
00000100
00010000
,
00000000
00001000
00010000
00000000
00001000
00000000
00100000
00000000
,
01000000
10000000
01000000
10000000
00100000
01000000
00001000
00010000
,
00000000
00001000
00010000
00000000
00000100
00000010
00000100
00001000
,
00000002
00000010
00000013
00000100
,
00020000
00001000
00031000
00100000
,
02000000
10000000
13000000
00100000
,
02000000
00000000
00010000
00000000
03010000
00100000
01000000
10000000
,
00001000
01000000
00001000
01000000
00010000
00001000
00000010
00000100
,
00000000
00000001
00000100
00000000
00000001
00000000
00000010
00000000
,
00000100
00010000
00000100
00010000
00001000
00100000
01000000
10000000
,
00010000
01000000
00010000
00000000
00100000
00000000
01000000
00000000
,
20000000
01000000
31000000
00100000
,
00002000
00010000
00013000
00000100
,
00000020
00000001
00000031
00000100
,
00020000
00000000
00001000
00000000
00031000
01000000
00100000
10000000
,
11000000
00000000
11000000
00000000
00100000
00010000
00001000
00000010
,
00000110
00000000
00000110
00000000
00000100
00000001
00000010
00000100
,
00010000
00001000
00000000
00010000
00001000
00000000
00100000
01000000
,
00000000
10000000
00010000
00100000
01000000
10000000
00100000
00000000
,
01100000
00001000
00011000
00000100
,
00000110
00000000
00000010
00000001
00000010
00000100
00001000
00010000
,
02000000
00001000
00100000
03001000
,
20000000
00100000
01000000
30100000
,
02000000
00001000
00100000
03001000
,
00020000
00000010
00000100
00030010
,
00000200
00000001
00000010
00000301
,
00020000
00000100
00000010
00030100
,
00010000
00000000
00001000
01000000
00100000
01000000
00000000
00100000
,
10000000
00000000
00100000
00000000
01000000
00000000
01000000
00000000
00100000
00000000
00100000
00000000
10000000
00010000
10000000
00000000
,
01000000
00100000
00001000
00100000
01000000
00100000
00001000
00010000
,
00000100
00000010
00000100
00001000
00000001
00000100
00000010
00000000
,
00000100
00000001
00000010
00000001
00000100
00000010
00000000
00000100
,
00000010
00000100
00010000
00001000
00100000
01000000
00100000
00000000
,
00010000
01000000
00010000
10000000
00010000
01000000
00001000
00100000
,
01000000
10000000
01000000
00100000
00001000
00010000
00000010
00000000
,
00000100
00000001
00001000
00000001
00000100
00000001
00000010
00000100
,
00010000
00000000
00010000
00000000
00001000
00000000
00001000
00000000
01000000
00010000
01000000
00000000
00100000
01000000
00100000
00000000
,
10000000
00000000
00000000
10000000
01000000
00000000
00000000
01000000
00100000
00000000
00000000
00100000
00001000
00000000
00000000
00001000
,
00010000
00000000
00000000
00010000
00000010
00000000
00000000
00000010
00000100
00000000
00000000
00000100
00000001
00000000
00000000
00000001
,
00000100
00000000
00000000
00000100
00010000
00000000
00000000
00010000
01000000
00000000
00000000
01000000
10000000
00000000
00000000
10000000
,
01000000
00000000
00000000
01000000
00001000
00000000
00000000
00001000
00000100
00000000
00000000
00000100
00000001
00000000
00000000
00000001
,
00000010
00000000
00000000
00000010
00010000
00000000
00000000
00010000
01000000
00000000
00000000
01000000
10000000
00000000
00000000
10000000
,
00100000
00000000
00000000
00100000
00001000
00000000
00000000
00001000
00000010
00000000
00000000
00000010
00000001
00000000
00000000
00000001
,
00001000
00000000
00000000
00001000
00000010
00000000
00000000
00000010
00010000
00000000
00000000
00010000
00001000
00000000
00000000
00001000
,
01000000
00000000
01000000
00000000
00100000
00000000
00100000
00000000
10000000
00000000
01000000
00000000
00100000
00001000
00100000
00000000
,
00001000
00011000
00000000
00000010
00010010
00000000
00000100
00000110
,
00000000
00000001
00000011
00000000
00000100
00010000
00001000
00100000
,
01000000
01100000
00000000
10000000
11000000
00000000
00100000
01100000
,
00000000
00000000
00001000
00000000
00101000
00000000
00000000
00000000
00010000
00001000
00010000
00000000
00000010
00010000
00000010
00000000
,
00000100
00000110
00000000
00000001
00000011
00000000
00000100
00000110
,
00000000
00010000
00011000
00000000
00100000
01000000
10000000
00010000
,
00100000
00110000
00000000
00001000
00011000
00000000
00000100
00000110
,
00000000
00000000
00000001
00000000
00000011
00000000
00000000
00000000
00000010
00000000
00000100
00000000
00010000
00001000
00010000
00001000
,
00020000
00000000
00000000
00000000
,
00000000
00000000
00000000
00000000
,
00032000
00000000
00000000
00000000
,
00000000
00000000
00000000
00000000
,
00203000
00000000
00000000
00000000
,
02300000
00000000
00000000
00000000
,
23000000
00000000
00000000
00000000
,
30002000
00000000
00000000
00000000
,
00103000
00000000
00000000
00000000
;

//---------------dance-single - ----------------
#NOTES:
     dance-single:
     :
     Beginner:
     2:
     0.101,0.198,0.115,0.000,0.000: // measure 1
0000
0000
0000
0000
,  // measure 2
0000
0000
0000
0000
,  // measure 3
0000
0000
0000
0000
,  // measure 4
0000
0000
0000
0000
,  // measure 5
0000
0000
0000
0000
,  // measure 6
0000
0000
0000
0000
,  // measure 7
0000
0000
0000
0000
,  // measure 8
0000
0000
0000
0000
,  // measure 9
1000
0000
0000
0000
,  // measure 10
0000
0000
0000
0000
,  // measure 11
1000
0000
0000
0000
,  // measure 12
0000
0000
0000
0000
,  // measure 13
0001
0000
0000
0000
,  // measure 14
0000
0000
0000
0000
,  // measure 15
0001
0000
0000
0000
,  // measure 16
0000
0000
0000
0000
,  // measure 17
0100
0000
0000
0000
,  // measure 18
0000
0000
0000
0000
,  // measure 19
0010
0000
0000
0000
,  // measure 20
0000
0000
0000
0000
,  // measure 21
0100
0000
0000
0000
,  // measure 22
0000
0000
0000
0000
,  // measure 23
0010
0000
0000
0000
,  // measure 24
0000
0000
0000
0000
,  // measure 25
1001
0000
0000
0000
,  // measure 26
1001
0000
0000
0000
,  // measure 27
1001
0000
0000
0000
,  // measure 28
1001
0000
0000
0000
,  // measure 29
1001
0000
0000
0000
,  // measure 30
1001
0000
0000
0000
,  // measure 31
1001
0000
0000
0000
,  // measure 32
1001
0000
0000
0000
,  // measure 33
0010
0000
0100
0000
,  // measure 34
0010
0000
0000
0000
,  // measure 35
1000
0000
0001
0000
,  // measure 36
1000
0000
0000
0000
,  // measure 37
0100
0000
0000
0000
,  // measure 38
0010
0000
0000
0000
,  // measure 39
0001
0000
0000
0000
,  // measure 40
1000
0000
0000
0000
,  // measure 41
0001
0000
0100
0000
,  // measure 42
0001
0000
0000
0000
,  // measure 43
1000
0000
0001
0000
,  // measure 44
1000
0000
0000
0000
,  // measure 45
0100
0000
0000
0000
,  // measure 46
0010
0000
0000
0000
,  // measure 47
0001
0000
0000
0000
,  // measure 48
0100
0000
0000
0000
,  // measure 49
1001
0000
0000
0000
,  // measure 50
1001
0000
0000
0000
,  // measure 51
0001
0000
0000
0000
,  // measure 52
0000
0000
0000
0000
,  // measure 53
1000
0000
0000
0000
,  // measure 54
0000
0000
0000
0000
,  // measure 55
0010
0000
0000
0000
,  // measure 56
0000
0000
0000
0000
,  // measure 57
0010
0000
0000
0000
,  // measure 58
0000
0000
0000
0000
,  // measure 59
0010
0000
0000
0000
,  // measure 60
0000
0000
0000
0000
,  // measure 61
0010
0000
0000
0000
,  // measure 62
0000
0000
0000
0000
,  // measure 63
0100
0000
0001
0000
,  // measure 64
0100
0000
0000
0000
,  // measure 65
0001
0000
1000
0000
,  // measure 66
0001
0000
0000
0000
,  // measure 67
1000
0000
0010
0000
,  // measure 68
1000
0000
0000
0000
,  // measure 69
0001
0000
1000
0000
,  // measure 70
0001
0000
0000
0000
,  // measure 71
1000
0000
1000
0000
,  // measure 72
1000
0000
1000
0000
,  // measure 73
1000
0000
1000
0000
,  // measure 74
1000
0000
1000
0000
,  // measure 75
0001
0000
0001
0000
,  // measure 76
0001
0000
0001
0000
,  // measure 77
0001
0000
0001
0000
,  // measure 78
0001
0000
0001
0000
,  // measure 79
1001
0000
0000
0000
,  // measure 80
0000
0000
0000
0000
,  // measure 81
0110
0000
0000
0000
,  // measure 82
0000
0000
0000
0000
,  // measure 83
1001
0000
0000
0000
,  // measure 84
0000
0000
0000
0000
,  // measure 85
0110
0000
0000
0000
,  // measure 86
0000
0000
0000
0000
,  // measure 87
1001
0000
0000
0000
;
