#TITLE:anqad;
#SUBTITLE:;
#ARTIST:onoken feat.b;
#TITLETRANSLIT:;
#SUBTITLETRANSLIT:;
#ARTISTTRANSLIT:;
#CREDIT:DigiMindAxel;
#BANNER:anqad.png;
#BACKGROUND:anqad-bg.png;
#LYRICSPATH:anqad.lrc;
#CDTITLE:REFLEC BEAT.png;
#MUSIC:anqad.ogg;
#METERTYPE:DDR X;
#OFFSET:-8.965;
#SAMPLESTART:40.354;
#SAMPLELENGTH:12.000;
#SELECTABLE:YES;
#BPMS:0.000=168.000,224.000=84.000,236.000=168.000;
#STOPS:;
#BGCHANGES:;

//---------------dance-single - ----------------
#NOTES:
     dance-single:
     :
     Easy:
     5:
     0.217,0.263,0.164,0.238,0.000:
1000
0000
1001
0000
0000
0000
0000
0001
,
0000
0000
0000
1000
0000
0000
0000
0000
,
0100
0000
0010
0000
,
0001
0000
1000
0000
,
0002
0000
0000
0000
,
0000
0000
0000
0000
,
1003
0000
0100
0000
,
1000
0000
0000
0000
,
0001
0000
0100
0000
,
0001
0010
0100
1000
,
0001
0000
1000
0000
,
0001
0000
0000
0000
,
1000
0000
0001
0000
,
1000
0100
0010
0001
,
2000
0000
0000
3001
,
0000
0000
0000
0000
,
0200
0000
0000
0310
,
0000
0000
0000
0000
,
1000
0000
0100
0000
,
1000
0000
0010
0000
,
0200
0000
0000
0000
,
0310
0000
0000
0000
,
1001
0000
1001
0000
,
0001
0000
1000
0000
,
1001
0000
1001
0000
,
1000
0000
0001
0000
,
0010
0000
0100
0000
,
2000
0000
3020
0000
,
0230
0000
0000
0310
,
0000
0000
0110
0000
,
1001
0000
1001
0000
,
1001
0000
0001
0000
,
0110
0000
0110
0000
,
0110
0000
1000
0000
,
0001
0000
0100
0000
,
0020
0000
0000
0000
,
0130
0000
0000
1001
,
0000
0000
0001
1000
,
0200
0000
2300
0000
,
3020
0000
0230
0000
,
0302
0000
2003
0000
,
3100
1000
0100
0010
,
0001
0100
0000
0010
,
0000
0000
0100
0000
,
0001
0010
0100
1000
,
0100
0010
0001
1000
,
0200
0000
2300
0000
,
3020
0000
0230
0000
,
0302
0000
0000
1003
,
0000
0000
0000
0000
,
0020
0000
0000
0130
,
0000
0000
0000
0000
,
0001
0000
0100
0000
,
0001
0000
1000
0000
,
0100
0010
0001
0010
,
0100
0000
0000
0000
,
2000
0000
0000
0000
,
3002
0000
0000
0000
,
2003
0000
0000
0000
,
3001
0000
0000
1001
,
0000
0000
1000
1000
,
1001
0000
1001
0000
,
1001
0000
0001
0000
,
0110
0000
0110
0000
,
0110
0000
1000
0000
,
0010
0000
0100
0000
,
0010
0100
0001
0010
,
0200
0000
0000
2300
,
0000
0000
3001
0100
,
0020
0000
0230
0000
,
0320
0000
0230
0000
,
0301
0000
0000
0000
;

//---------------dance-single - ----------------
#NOTES:
     dance-single:
     :
     Medium:
     8:
     0.351,0.390,0.214,0.181,0.000:
1000
0000
1001
0000
0000
0001
0000
0001
,
0000
0100
0000
0010
0000
0000
0000
0000
,
1000
0000
0000
0100
0000
0000
0010
0000
,
0000
0001
0000
0000
0100
0000
0010
0000
,
2000
0000
3200
0000
,
0320
0000
0032
0000
,
1003
0000
0001
0000
0000
1000
0000
0000
,
0000
0100
0000
0010
,
0001
0000
1000
0000
0000
0100
0000
0000
,
1000
0001
0010
0100
,
1000
0000
0001
0000
0000
0010
0000
0000
,
0000
0001
0000
1000
,
0000
0000
0100
0000
0000
0010
0000
0000
,
0100
1000
0010
0100
,
0001
0000
0000
0101
0000
0000
2002
0000
,
0000
3003
1000
0100
,
0010
0000
0000
0011
0000
0000
2002
0000
,
0000
3003
0001
1000
,
0010
0000
0100
0001
0000
1000
0000
0100
,
0000
0000
0000
0010
0000
0100
0000
0000
,
2000
0000
0000
0001
0000
0000
3001
0000
,
0000
0000
0000
0000
,
1010
0000
0100
0000
1010
0000
0100
0001
,
0000
0001
0000
0000
0010
0000
0100
0000
,
1100
0000
0010
0000
1100
0000
0010
0001
,
0000
0001
0000
0000
0010
0000
0100
0000
,
1000
0000
0001
0000
0100
0001
1000
0000
,
1200
0000
0320
0000
,
0032
0000
0000
1000
0000
0000
1000
0000
,
0000
1000
0000
0000
1003
0000
1001
0000
,
0101
0000
0010
0000
0101
0000
0010
1000
,
0000
1000
0000
0000
0100
0000
0010
0000
,
0011
0000
0100
0000
0011
0000
0100
1000
,
0000
1000
0000
0000
0100
0000
0010
0000
,
0002
0000
0000
1000
0000
0000
1003
0000
,
1200
0000
0320
0000
,
0032
0000
0000
1000
0000
0000
1000
0000
,
0000
1000
0000
0000
1003
0000
0001
0000
,
0100
0001
0100
0000
0010
1000
0010
0000
,
1000
0001
1000
0000
0001
1000
0001
0000
,
0010
0000
0100
0000
1000
0010
0100
0000
,
0010
0000
0100
0000
0001
0010
0100
0000
,
0010
0001
1000
0000
0010
0000
0100
0001
,
0000
0001
0000
1001
0000
0000
1000
0000
,
0100
0000
0010
0001
0000
0010
0001
0000
,
0010
0001
0000
0010
0001
0000
0100
0000
,
0010
1000
0100
0010
,
0100
1000
0001
0100
,
0020
0000
0000
0100
0000
0000
0130
0000
,
0000
0001
1000
0100
,
0020
0000
0000
0001
0000
0000
0031
0000
,
0000
1000
0010
0100
,
0001
0000
1000
0010
0000
1000
0000
0001
,
0000
0000
0000
0010
0000
0100
0000
0000
,
1000
0010
0000
1000
0010
0000
1000
0001
,
0000
0000
0000
0000
,
0020
0000
0100
0000
0100
0000
0000
0030
,
0200
0000
1000
0000
1000
0000
0000
0300
,
0020
0000
0001
0000
0001
0000
0000
0030
,
1001
0000
0000
0001
0000
0000
0101
0000
,
0000
0100
0000
0000
0010
0000
1000
0000
,
1010
0000
0100
0000
1010
0000
0100
0001
,
0000
0001
0000
0000
0010
0100
0010
0000
,
0011
0000
0100
0000
0011
0000
0100
1000
,
0000
1000
0000
0000
0100
0010
0100
0000
,
1000
0010
1000
0000
0001
1000
0001
0000
,
0011
0100
1000
0001
,
0011
0000
0000
0010
0000
0000
0110
0000
,
0000
0100
0000
0000
0100
0000
1000
0000
,
0010
0100
0010
0000
0100
0001
0100
0000
,
0010
0100
0010
0000
1000
0010
1000
0000
,
0002
0000
0000
0000
,
0000
0000
0000
0000
,
0003
0000
0000
0000
;

//---------------dance-single - ----------------
#NOTES:
     dance-single:
     :
     Hard:
     12:
     0.598,0.690,0.312,0.321,0.148: // measure 1
1000
0001
1000
0001
1000
0000
0000
0000
0000
0000
1010
0000
0000
0000
1010
0000
,  // measure 2
0000
1001
0000
1002
0000
0000
0013
0000
,  // measure 3
0100
1000
0001
1000
0100
1000
0001
0010
,  // measure 4
0100
0010
0001
0000
0001
0010
0100
1000
,  // measure 5
0001
0001
0001
0000
0100
0100
0100
0000
,  // measure 6
0010
0010
0010
0000
0100
0100
0100
0000
,  // measure 7
0001
0010
0100
1000
0000
0001
1000
0001
,  // measure 8
0000
0000
0100
0000
0100
0010
0100
0001
,  // measure 9
0000
0010
0100
0010
0000
0001
1000
0100
,  // measure 10
0010
0001
0100
0001
1000
0100
0010
0000
,  // measure 11
0001
1000
0010
0100
0000
0001
1000
0001
,  // measure 12
0000
0000
0010
0000
0010
0100
1000
0001
,  // measure 13
0000
1000
0001
0100
0000
0001
1000
0100
,  // measure 14
0010
0001
0010
0001
0100
0010
0100
0010
,  // measure 15
2020
0000
0030
0002
0000
3003
0220
0000
,  // measure 16
0000
0000
0330
0100
0010
0001
0010
0000
,  // measure 17
1200
0000
0000
0020
0000
0330
2002
0000
,  // measure 18
0000
0000
3003
0001
0010
0001
1000
0000
,  // measure 19
0100
0010
0001
1000
0000
1100
0000
0102
,  // measure 20
0000
1000
1000
1003
0000
1001
0000
0000
,  // measure 21
0001
0000
0100
0001
0100
0000
0010
1000
0010
0000
1000
0000
0001
0000
1000
0000
,  // measure 22
0000
0000
0000
0000
,  // measure 23
0001
0100
1000
0000
1000
0100
0001
1000
,  // measure 24
0000
1001
0000
0001
1000
0100
0010
0000
,  // measure 25
0001
0100
1000
0000
1000
0100
0001
1000
,  // measure 26
0000
1001
0000
0001
1000
0010
0100
0001
,  // measure 27
1000
0000
1000
0000
0001
0010
0100
1000
,  // measure 28
0001
0000
0100
0000
1000
0000
0100
0000
0001
0000
0010
0000
,  // measure 29
0200
0000
1000
2300
0000
0001
3002
0000
,  // measure 30
0100
0103
0000
0000
1001
0000
1001
0000
,  // measure 31
1000
0100
0001
0000
0001
0100
1000
0001
,  // measure 32
0000
1001
0000
1000
0010
0100
0001
0000
,  // measure 33
1000
0100
0001
0000
0001
0100
1000
0001
,  // measure 34
0000
1001
0000
1000
0001
0010
0100
1000
,  // measure 35
0001
0000
0100
0001
0100
0000
0001
1000
0001
0000
0010
0000
0100
0000
1000
0000
,  // measure 36
0001
0000
0010
0000
1000
0000
0010
0000
0001
0000
0100
0000
,  // measure 37
0020
0000
0100
0230
0000
0001
0302
0000
,  // measure 38
1000
2003
0000
0000
0100
3100
0010
0001
,  // measure 39
1000
0010
0001
0010
0100
0001
1000
0010
,  // measure 40
0001
0010
0100
0001
1000
0100
0010
0001
,  // measure 41
1000
0100
0001
0100
0010
0001
1000
0100
,  // measure 42
0001
0100
0010
0001
1000
0010
0100
0001
,  // measure 43
1000
0100
1000
0100
1000
0000
0000
0000
0100
0000
0010
0000
0001
0000
0101
0000
,  // measure 44
0000
1010
0010
0200
0000
0000
0310
0000
,  // measure 45
1000
0001
0001
0010
1000
1000
0010
0001
,  // measure 46
0001
0010
0100
1000
0001
0000
0101
0000
,  // measure 47
0120
1000
0100
1000
,  // measure 48
0230
0001
0010
0301
,  // measure 49
2001
0000
0100
3200
0000
0010
0320
0000
,  // measure 50
0000
0030
0001
1000
0100
0001
0100
1000
,  // measure 51
0002
0000
0100
0203
0000
0010
0320
0000
,  // measure 52
0000
1030
0100
0001
0100
1000
0001
0000
,  // measure 53
0201
0000
0010
0310
0000
1100
0000
0011
,  // measure 54
0000
0001
1000
1010
0000
0101
0000
0000
,  // measure 55
0001
0000
1000
0100
1000
0000
0010
0100
0010
0000
0100
0000
0001
0000
1001
0000
,  // measure 56
0000
0000
0000
0000
,  // measure 57
1000
0100
0001
0000
0001
0100
1000
0001
0000
1001
0000
0000
1000
0000
1000
0000
,  // measure 58
0001
0100
1000
0000
1000
0100
0001
1000
0000
1001
0000
0000
0001
0000
0100
0000
,  // measure 59
0002
0000
0000
2003
0000
0000
3001
0010
1000
0010
0001
0100
,  // measure 60
0201
0000
0010
0320
0000
1000
2030
0000
,  // measure 61
0001
3002
0000
0000
1003
0000
1100
0000
,  // measure 62
1000
0100
0001
0000
0001
0100
1000
0001
,  // measure 63
0000
1001
0000
1000
0010
0100
0001
0000
,  // measure 64
1000
0100
0001
0000
0001
0100
1000
0001
,  // measure 65
0000
1001
0000
1000
0001
0010
0100
1000
,  // measure 66
0001
0000
1000
0010
1000
0000
0001
1000
0001
0000
0010
0000
0100
0000
0010
0000
,  // measure 67
0011
0000
0010
0000
0110
0000
0100
0000
1100
0000
1000
0000
,  // measure 68
1002
0000
0100
0203
0000
0010
0320
0000
,  // measure 69
1000
2030
0000
0000
3001
1000
0100
0010
,  // measure 70
0001
0100
1000
0100
0010
1000
0001
0000
,  // measure 71
1000
0010
0001
0010
0100
0001
1000
0000
,  // measure 72
0020
0000
0000
0000
,  // measure 73
0000
0000
0000
0000
,  // measure 74
0030
0000
0000
0000
;

//---------------dance-single - ----------------
#NOTES:
     dance-single:
     :
     Beginner:
     2:
     0.096,0.146,0.082,0.000,0.000:
1000
0000
0000
0000
,
0000
0000
0000
0000
,
0001
0000
0000
0000
,
0000
0000
0000
0000
,
0100
0000
0000
0000
,
0000
0000
0000
0000
,
0001
0000
0000
0000
,
0010
0000
0000
0000
,
0100
0000
0000
0000
,
0010
0000
0000
0000
,
0001
0000
0000
0000
,
1000
0000
0000
0000
,
0010
0000
0000
0000
,
0100
0000
0000
0000
,
0110
0000
0000
0000
,
0000
0000
0000
0000
,
1001
0000
0000
0000
,
0000
0000
0000
0000
,
1000
0000
0000
0000
,
0100
0000
0000
0000
,
0010
0000
0000
0000
,
0000
0000
0000
0000
,
0110
0000
0100
0000
,
0100
0000
0000
0000
,
0010
0000
0010
0000
,
0010
0000
0000
0000
,
1000
0000
0000
0000
,
1001
0000
0000
0000
,
0001
0000
0000
0100
,
0000
0000
0000
0000
,
0001
0000
0001
0000
,
1001
0000
0000
0000
,
1000
0000
1000
0000
,
1001
0000
0000
0000
,
0001
0000
0000
0000
,
0100
0000
0000
0000
,
0010
0000
0000
0100
,
0000
0000
0000
0000
,
0001
0000
0000
0000
,
0001
0000
0000
0000
,
0010
0000
0000
0000
,
0010
0000
0000
0000
,
0100
0000
0000
0000
,
0100
0000
0000
0000
,
1000
0000
0000
0000
,
1000
0000
0000
0000
,
1001
0000
0000
0000
,
0000
0000
0000
0000
,
0001
0000
0000
0100
,
0000
0000
0000
0000
,
0010
0000
0000
1000
,
0000
0000
0000
0000
,
0001
0000
0000
0010
,
0000
0000
0000
0000
,
0100
0000
0000
1000
,
0000
0000
0000
0000
,
0001
0000
0000
0000
,
1000
0000
0000
0000
,
0001
0000
0000
0000
,
1001
0000
0000
1001
,
0000
0000
0000
0000
,
0001
0000
0000
0000
,
0100
0000
0000
0000
,
0010
0000
0000
0000
,
0100
0000
0000
0000
,
0001
0000
1000
0000
,
0001
0000
1000
0000
,
0001
0000
0000
0010
,
0000
0000
0100
0000
,
1000
0000
0000
0000
,
0010
0000
0000
0000
,
0110
0000
0000
0000
;
