#TITLE:absoRyu☆te;
#SUBTITLE:;
#ARTIST:れい;
#TITLETRANSLIT:;
#SUBTITLETRANSLIT:;
#ARTISTTRANSLIT:REI;
#CREDIT:DigiMindAxel;
#BANNER:absoRyute.png;
#BACKGROUND:absoRyute-bg.png;
#LYRICSPATH:;
#CDTITLE:BEMANI game remix.png;
#MUSIC:absoRyute.ogg;
#METERTYPE:DDR X;
#OFFSET:-6.971;
#SAMPLESTART:8.214;
#SAMPLELENGTH:12.000;
#SELECTABLE:YES;
#BPMS:0.000=189.000,196.000=94.500,208.000=189.000;
#STOPS:;
#BGCHANGES:;

//---------------dance-single - ----------------
#NOTES:
     dance-single:
     :
     Easy:
     7:
     0.332,0.379,0.151,0.118,0.000:
2002
0000
0000
3003
,
1000
0010
0100
0010
,
1000
0000
0000
0000
,
0100
0010
0001
0010
,
0100
0000
0000
0000
,
1000
1000
0001
0100
,
0010
0000
0000
0000
,
0100
0100
0001
0010
,
0100
1000
1001
1001
,
0001
0010
0001
0010
,
0100
0000
0000
0000
,
0010
0001
0010
0001
,
0100
0000
0000
0000
,
0001
1000
0001
1000
,
0010
0000
0000
0000
,
1000
0001
1000
0001
,
0100
0100
0100
0100
,
1001
0000
1000
0000
,
0001
0100
0010
0100
,
0001
0000
1000
0000
,
0010
1000
0100
1000
,
0010
0000
1000
0000
,
0001
0100
0010
0100
,
0001
0000
0010
0000
,
0100
1000
0100
1000
,
1001
0000
0010
0000
,
0001
0000
0010
0000
,
0100
0000
1000
0000
,
0010
0000
1000
1000
,
1001
0000
0010
0000
,
0001
0000
0100
0000
,
0010
0000
1000
0000
,
0001
0000
0010
0010
,
1001
0000
0000
0100
,
1000
0100
1000
0010
,
0200
0000
0000
0301
,
0010
0001
0010
0100
,
2000
0000
0000
0000
,
0000
3010
0100
0001
,
0020
0000
0000
0031
,
0001
0000
0010
0100
,
1001
0000
0000
0100
,
0100
1000
0010
0100
,
0020
0000
0000
1030
,
0001
0010
0100
1000
,
0020
0000
0000
0000
,
0000
0130
0001
0010
,
0002
0000
0000
0000
,
1003
1000
1000
1000
,
1002
0000
0023
0000
,
0230
0000
2300
0000
,
3002
0000
2003
0000
,
3010
0010
0010
0010
,
0110
0000
0000
1001
,
0001
1000
0100
1000
,
0010
0000
0000
0000
,
1000
0001
0010
0001
,
1000
0000
0010
0010
,
1001
0001
1000
0010
,
1000
0000
0000
0000
,
0100
0010
0001
1000
,
0001
0000
0010
0010
,
1001
0001
0010
0100
,
1000
0001
0100
0001
,
1000
0100
0010
0001
,
1001
0000
0000
0000
,
1000
0010
0100
0010
,
1000
1000
1000
1000
,
0100
0010
0001
0010
,
0100
0100
0100
0100
,
1000
0010
0100
0010
,
1000
1000
1000
1000
,
0100
0010
0100
1000
,
0001
0001
1001
1001
,
1000
0001
0100
0001
,
1000
1000
1000
1000
,
0100
0010
0001
0100
,
0001
0001
0001
0001
,
0010
0100
1000
0010
,
0100
0010
0100
0010
,
1000
0100
0010
0001
,
0100
0100
0100
0110
,
1001
0000
0000
0000
;

//---------------dance-single - ----------------
#NOTES:
     dance-single:
     :
     Hard:
     13:
     0.686,0.585,0.596,0.092,0.063:
1001
1001
1001
1001
,
0001
1000
0100
1000
0001
0000
0001
0100
,
0010
1000
0000
1000
0000
1000
0000
1000
,
0001
0010
0100
1000
0001
0000
0001
1000
,
0010
1000
0001
0000
0101
0000
1001
0000
,
1000
0100
0010
0001
1000
0000
1000
0001
,
0100
0001
0000
0001
0000
0001
0000
0001
,
1000
0010
0100
0001
1000
0000
1000
0100
,
0010
0100
1000
0000
1100
0000
1001
0000
,
0001
0100
1000
0100
0001
0000
0001
1000
,
0100
0010
0000
0010
0000
0010
0000
0010
,
0001
0100
1000
0100
0001
0000
0010
0100
,
1000
0100
0010
0000
0110
0000
1001
0000
,
1000
0010
0001
0010
1000
0000
1000
0100
,
0010
0001
0000
0001
0000
0001
0000
0001
,
1000
0010
0100
0001
1000
0000
1000
0001
,
0101
0110
1010
1001
,
0001
0001
0001
0000
1000
1000
1000
0000
,
0001
0100
1000
0100
0001
0010
0100
0000
,
1000
1000
1000
0000
0001
0001
0001
0000
,
0100
0010
1000
0000
1010
0000
1001
0000
,
1000
1000
1000
0000
0001
0001
0001
0000
,
1000
0010
0001
0010
1000
0100
0010
0000
,
0001
0001
0001
0000
1000
1000
1000
0000
,
0010
1000
0100
0010
0001
0010
0100
0000
,
1001
0000
0011
0000
0100
1000
0100
0000
,
1001
0000
1100
0000
0010
0001
0010
0000
,
1001
0000
0011
0000
0100
1000
0100
0000
,
1001
1100
0110
0110
,
1001
0000
0101
0000
0010
1000
0010
0000
,
1001
0000
1010
0000
0100
0001
0100
0000
,
0001
1000
0001
1000
0001
1000
0001
1000
,
0100
0010
0100
0010
0100
0010
0001
1000
,
0020
0100
0100
0130
,
0101
1001
1010
0110
,
0201
0001
0301
0110
,
1100
0011
1001
0110
,
2001
0100
0001
0100
,
3001
1010
1001
0101
,
1002
0000
0010
0000
1000
0000
0013
0001
,
2000
0000
0100
0000
3100
0010
0001
1000
,
0020
1000
1030
1001
,
0011
0110
1100
0110
,
1002
1000
1000
1003
,
1001
1010
0110
0101
,
1002
0100
1000
0100
,
1003
0000
0001
1000
0100
0010
0001
0000
,
1000
0100
1000
0100
0010
0001
0010
0001
,
1000
0010
0100
0001
1000
0010
0100
0001
,
1000
0100
0010
0100
0000
0000
0000
0000
1000
0001
0100
0001
0000
0000
0000
0000
,
0010
0100
1000
0010
0000
0000
0000
0000
0100
0001
1000
0100
0000
0000
0000
0000
,
0010
0100
1000
0001
0000
0000
0000
0000
0010
0001
0100
0010
0000
0000
0000
0000
,
1000
0000
0000
0000
1000
0000
0000
0000
1000
0000
0000
0001
1000
0000
1000
0000
,
0001
0010
0100
1000
0100
0010
1001
0000
,
1000
0010
0001
0010
1000
0100
0010
0100
,
2000
0001
0100
3001
,
1000
0010
0001
0010
1000
0001
0100
0010
,
1000
0100
0011
1001
,
0001
0010
1000
0010
0001
1000
0100
0010
,
0002
1000
0010
1003
,
0001
0100
1000
0100
0001
0010
0100
0010
,
0001
0100
1010
1001
,
0001
0010
1000
0010
0001
0100
0010
1000
,
0001
0010
1000
0010
0001
0010
0100
1000
,
0001
0100
1000
0100
0001
0010
0100
1000
,
0002
0000
0000
0000
0000
1000
1003
0000
,
0001
0100
0010
0001
0010
0100
0001
0010
,
1000
0010
0000
0010
0000
0010
0010
0000
,
0001
0010
0100
0001
0100
0010
0001
1000
,
0010
0100
0000
0100
0101
0000
1001
0000
,
1000
0010
0100
1000
0100
0010
1000
0010
,
0001
0010
0000
0010
0000
0010
0000
0010
,
1000
0100
0010
1000
0010
0100
1000
0001
,
0010
0100
0000
0100
1100
0000
1001
0000
,
0001
0010
1000
0010
0001
1000
0010
0001
,
0010
1000
0000
1000
0000
1000
1001
0000
,
0001
0100
1000
0100
0001
0010
1000
0010
,
0001
0010
0000
0010
0110
0000
1001
0000
,
1000
0100
0001
0100
1000
0010
0001
0010
,
1000
0001
0010
0100
0010
0001
1001
0000
,
1000
0000
0000
0001
1000
0000
0100
0000
0010
0000
0000
0001
1000
0000
0100
0000
,
0010
0001
0000
0001
0000
0001
0101
0000
,
1001
0000
0000
0000
;

//---------------dance-single - ----------------
#NOTES:
     dance-single:
     :
     Beginner:
     2:
     0.104,0.172,0.050,0.000,0.000:
0000
0000
0000
0000
,
1000
0000
0000
0000
,
0000
0000
0000
0000
,
0001
0000
0000
0000
,
0000
0000
0000
0000
,
1000
0000
0000
0000
,
0000
0000
0000
0000
,
0010
0000
0000
0000
,
0000
0000
0000
0000
,
0100
0000
0000
0000
,
0000
0000
0000
0000
,
0010
0000
0000
0000
,
0000
0000
0000
0000
,
1000
0000
0000
0000
,
0000
0000
0000
0000
,
0100
0000
0000
0000
,
0000
0000
0000
0000
,
1000
0000
0000
0000
,
0000
0000
0000
0000
,
0001
0000
0000
0000
,
0000
0000
0000
0000
,
0010
0000
0000
0000
,
0000
0000
0000
0000
,
0001
0000
0000
0000
,
0000
0000
0000
0000
,
1001
0000
0000
0000
,
0000
0000
0000
0000
,
0010
0000
0000
0000
,
0000
0000
0000
0000
,
0100
0000
0000
0000
,
0000
0000
0000
0000
,
0010
0000
0000
0000
,
0000
0000
0000
0000
,
1001
0000
0000
0000
,
0000
0000
0000
0000
,
1000
0000
0000
0000
,
0010
0000
1000
0000
,
0010
0000
0000
0000
,
0000
0000
0000
0000
,
0100
0000
0000
0000
,
0001
0000
0000
0000
,
1001
0000
0000
0000
,
0001
0000
0010
0000
,
0001
0000
0000
0000
,
0100
0000
0000
0000
,
0010
0000
0000
0000
,
0000
0000
0000
0000
,
1000
0000
0001
0000
,
1000
0000
0000
0000
,
1001
0000
0000
0000
,
0000
0000
0000
0000
,
0010
0000
0000
0000
,
0001
0000
0001
0000
,
1001
0000
0000
0000
,
1000
0000
0001
0000
,
1000
0000
0000
0000
,
0010
0000
0100
0000
,
0010
0000
0000
0000
,
1000
0000
0010
0000
,
1000
0000
0000
0000
,
0001
0000
0100
0000
,
0001
0000
0000
0000
,
1000
0000
0001
0000
,
1000
0000
0001
0000
,
1000
0000
0001
0000
,
1000
0000
0000
0000
,
0010
0000
0100
0000
,
0010
0000
0000
0000
,
1000
0000
0100
0000
,
1000
0000
0000
0000
,
0001
0000
0010
0000
,
0001
0000
0000
0000
,
1000
0000
0001
0000
,
1000
0000
0000
0000
,
0010
0000
1000
0000
,
0010
0000
0000
0000
,
0100
0000
0001
0000
,
0100
0000
0000
0000
,
0010
0000
0100
0000
,
0010
0000
0000
0000
,
1000
0000
0001
0000
,
1000
0000
0000
0000
,
1001
0000
0000
0000
;

//---------------dance-single - ----------------
#NOTES:
     dance-single:
     :
     Medium:
     10:
     0.559,0.517,0.479,0.042,0.000:
1001
1001
1001
1001
,
0010
0000
0010
0001
0010
0000
0100
1000
,
0100
0010
0000
0010
0000
0010
0000
0010
,
0001
0000
0100
0001
0100
0000
0010
1000
,
0010
0100
0000
0100
0000
0100
0000
0100
,
0001
0000
0010
0001
0010
0000
0100
1000
,
0100
0010
0000
0010
0000
0010
0000
0010
,
0001
0000
0100
0010
0100
0000
0010
1000
,
0010
0000
0110
0110
,
1001
0000
1000
0010
1000
0000
0001
0100
,
0001
1000
0000
1000
0000
1000
0000
1000
,
0001
0000
1000
0010
1000
0000
0001
0100
,
0001
0100
0110
0110
,
1001
0000
0100
0001
0100
0000
0010
1000
,
0010
0100
0000
0100
0000
0100
0000
0100
,
0001
0000
1000
0100
1000
0000
0001
1000
,
0001
1001
1001
1001
,
1000
0100
0010
0000
0001
1000
0001
0000
,
0010
1000
0010
0001
,
1000
0001
1000
0000
0001
0010
0100
0000
,
1000
0001
0110
1001
,
1000
0100
0010
0000
0001
1000
0001
0000
,
1000
0010
0001
0010
,
1000
0001
1000
0000
0100
0010
0001
0000
,
2002
0000
0000
3003
,
1001
0100
1000
0100
,
1000
0100
1000
0100
,
1000
0001
1000
0001
,
1000
0001
0110
0110
,
1001
0100
0001
0100
,
0001
1000
0001
1000
,
0010
1000
0010
1000
,
0010
0000
0100
0000
0001
1000
0010
1000
,
0001
0010
0100
1010
,
1001
1010
1001
1010
,
1001
0100
0010
0001
,
1001
0101
1001
0101
,
1001
0010
0100
1000
,
0010
0110
1010
0110
,
1010
0100
0001
1000
,
1001
0000
0001
0000
0010
0100
0010
0100
,
1000
0100
0010
0001
,
1001
0101
1001
0101
,
1001
0001
1000
0010
,
1000
0000
0001
0000
0010
0000
0100
1000
,
0001
1000
0100
0010
,
0001
0011
1001
0011
,
0001
1000
0001
1000
0001
1000
0001
0000
,
0010
0000
0100
0000
1000
0100
0010
0001
,
0100
0000
0000
0010
0010
1000
1000
0100
,
0020
0000
0000
0001
0031
0100
0010
0100
,
0002
0000
0000
0000
0000
1003
0100
0010
,
0001
0001
0001
0001
,
0110
0110
0110
1001
,
1000
0000
0001
0100
0001
0000
0100
0010
,
0100
0001
0100
1000
,
0100
0000
0001
0100
0001
0000
0100
0010
,
0100
0001
0110
0110
,
1001
0000
1000
0001
1000
0000
0100
0010
,
0001
0010
1000
0010
,
0001
0000
0100
0010
1000
0000
0001
1000
,
0001
1000
0110
0110
,
1000
0001
1000
0000
0001
1000
0001
0000
,
0100
0010
1000
0000
0010
0100
0001
0000
,
1000
0100
0010
0000
0001
0010
0100
0000
,
2000
0000
0000
0000
0000
0001
3001
0000
,
1001
0000
1000
0010
0100
0000
0010
0100
,
0001
1000
0000
1000
0000
1000
0001
0000
,
0010
0000
0100
1000
0001
0000
0010
0100
,
1000
0001
0000
0001
0000
0001
0000
0001
,
1000
0000
0010
1000
0001
0000
0010
0100
,
1000
0001
0000
0001
0000
0001
1000
0000
,
0010
0000
0100
0001
1000
0000
0100
1000
,
0001
1000
1001
1001
,
1000
0000
0001
0010
0100
0000
1000
0100
,
0010
0001
0000
0100
0000
0010
1000
0000
,
0001
0000
0010
0100
1000
0000
0100
0010
,
0001
1000
0000
0010
0000
0100
0000
0001
,
0010
0000
0100
1000
0010
0000
0100
0010
,
1000
0000
0100
0000
0010
0001
0001
0000
,
0100
0000
0010
0010
0010
0000
0100
0100
,
0100
0001
0000
0010
0000
0100
0010
0000
,
1001
0000
0000
0000
;

//---------------dance-double - ----------------
#NOTES:
     dance-double:
     :
     Easy:
     7:
     0.425,0.482,0.395,0.260,0.000:
10010000
10010000
10010000
10010000
,
10010000
10000000
10000000
10000000
,
01000000
00100000
00100000
00100000
,
00010000
10000000
01000000
00100000
,
00010000
00001000
00011000
00010001
,
00000001
00001000
00000100
00001000
,
00000001
00000010
00000010
00000010
,
00000001
00000100
00000001
00000010
,
00000100
00001000
00011000
10001000
,
10000000
00010000
00100000
00010000
,
01000000
00100000
00100000
00100000
,
10000000
01000000
10000000
00100000
,
10000000
00001000
00011000
00010001
,
00000001
00001000
00000001
00001000
,
00000100
00000010
00000010
00000010
,
00000001
00001000
00000001
00010000
,
00011000
00011000
00011000
00011000
,
02001000
00000000
03200000
00000000
,
10300000
10000000
10000000
01000000
,
20000000
00000000
30020000
00000000
,
01030000
01000000
01100000
10001000
,
10002000
00000000
00023000
00000000
,
00030100
00000100
00000100
00000010
,
00000002
00000000
00002003
00000000
,
00003010
00000010
00000110
00010001
,
00020001
00000000
00000000
00000000
,
00032000
00000000
00000000
00000000
,
00203000
00000000
00000000
00000000
,
02300000
00000000
13000000
00100000
,
02100000
00000000
00000000
00000000
,
03002000
00000000
00000000
00000000
,
00023000
00000000
00000000
00000000
,
00030002
00000000
00000013
00000100
,
00001002
00000000
00000000
00000103
,
00000010
00000100
00000010
00001000
,
00000200
00000000
00000000
00001300
,
00010000
00100000
01000000
10000000
,
20010000
00000000
00000000
30100000
,
01000000
00100000
01000000
00010000
,
00200000
00000000
00000000
00310000
,
00002000
00000000
00003010
00000010
,
00001002
00000000
00000000
00000103
,
00000010
00000100
00000010
00001000
,
00000200
00000000
00000000
00001300
,
00010000
00100000
01000000
10000000
,
20010000
00000000
00000000
00000000
,
00000000
31000000
00100000
00010000
,
00001000
00010000
00001000
00010000
,
00001000
00000100
00000010
00000001
,
00002001
00000000
00003200
00000000
,
00000320
00000000
00000032
00000000
,
00002003
00000000
00003002
00000000
,
00000103
00000100
00000100
00000100
,
00000110
00001001
00000110
00001001
,
00001000
00000001
00000010
00000001
,
00000100
00000100
00000100
00000100
,
00000001
00001000
00000100
00001000
,
00000001
00000001
00000110
00011000
,
10001000
10000000
00100000
10000000
,
00010000
00010000
00010000
00010000
,
00100000
01000000
10000000
00010000
,
10000000
01000000
01100000
00011000
,
00010001
00000001
00000100
00000001
,
00000010
00000100
00001000
00010000
,
00100000
01000000
10000000
01000000
,
00200000
00000000
00000000
00310000
,
00011000
00000100
00000010
00000100
,
00000001
00000001
00000001
00000001
,
00000100
00000010
00001000
00000100
,
00001000
00001000
00011000
10001000
,
10000000
00100000
01000000
00100000
,
10000000
10000000
10000000
10000000
,
01000000
10000000
00100000
10000000
,
00001000
00001000
00011000
00010001
,
00000001
00001000
00000010
00001000
,
00000001
00000001
00000001
00000001
,
00000010
00000100
00001000
00000010
,
00010000
00010000
00011000
10001000
,
10000000
01000000
00100000
01000000
,
10000000
00100000
01000000
00100000
,
10000000
01000000
00100000
00010000
,
00001000
00000100
00000010
00001001
,
00001001
00000000
00000000
00000000
;

//---------------dance-double - ----------------
#NOTES:
     dance-double:
     :
     Medium:
     10:
     0.544,0.517,0.344,0.000,0.000:
10010000
10010000
10010000
10010000
,
00100000
00000000
00100000
00010000
00100000
00000000
01000000
10000000
,
01000000
10000000
01000000
00100000
,
00011000
00000000
00000010
00001000
00000010
00000000
00000100
00000001
,
00000100
00000001
00000010
00000100
,
00011000
00000000
00100000
00010000
00100000
00000000
01000000
10000000
,
01000000
10000000
00010000
00100000
,
00011000
00000000
00010000
00000010
00010000
00000000
00000001
00000100
,
00000001
00001000
00000110
00000110
,
00001000
00000000
00000010
00000001
00000010
00000000
00000100
00001000
,
00000100
00000010
00000100
00000001
,
00011000
00000000
00001000
01000000
00001000
00000000
10000000
00100000
,
10000000
00010000
01100000
01100000
,
10000000
00000000
00100000
10000000
00100000
00000000
01000000
00010000
,
01000000
00010000
10000000
01000000
,
00011000
00000000
00010000
00000100
00010000
00000000
00000001
00000100
,
00000010
00000110
00000110
00000110
,
00001000
00000100
00000010
00000000
00000001
00001000
00000001
00000000
,
00000010
00000100
00001000
00000000
00010000
00100000
01000000
00000000
,
10000000
00010000
10000000
00000000
00010000
00100000
01000000
00000000
,
10000000
00010000
01100000
10010000
,
10000000
01000000
00100000
00000000
00010000
10000000
00010000
00000000
,
10000000
01000000
00100000
00000000
00010000
00001000
00000100
00000000
,
00000010
00000001
00000010
00000000
00000001
00000010
00000100
00000000
,
00001001
00000010
00000100
00000010
,
00001001
00000010
00000100
00001000
,
00010000
00100000
01000000
10000000
,
01000000
00100000
00010000
00001000
,
00000100
00000010
00001001
00001001
,
00001001
00000010
00000100
00001000
,
00010000
00100000
01000000
10000000
,
01000000
00100000
00010000
00001000
,
00000100
00000000
00000010
00000000
00000001
00001000
00000001
00001000
,
00000001
00000000
00000100
00000000
00000010
00000000
00000100
00000001
,
00000100
00000000
00000010
00000100
00000010
00000000
00001000
00000010
,
00001000
00000001
00000010
00000100
,
00001000
00000000
00001000
00010000
00001000
00000000
01000000
00100000
,
01000000
00100000
10000000
00100000
,
01000000
00000000
00100000
10000000
00100000
00000000
01000000
00100000
,
01000000
00010000
10000000
01000000
,
00100000
00000000
00010000
00000000
00001000
00010000
00001000
00000000
,
00011000
00000000
00000010
00000000
00001000
00000000
00000010
00000100
,
00000010
00000000
00001000
00000010
00001000
00000000
00000001
00001000
,
00000001
00000010
00000100
00000010
,
00000001
00000000
00000010
00000000
00000100
00000000
00001000
00010000
,
00001000
00100000
01000000
00100000
,
00010000
11000000
10010000
11000000
,
10000000
00010000
10000000
00010000
10000000
00010000
10000000
00000000
,
01000000
00000000
00100000
00000000
00010000
00001000
00000100
00000010
,
00000001
00000000
00000000
00000100
00000001
00000010
00000100
00000010
,
00000001
00000000
00000000
00000010
00000100
00000000
00001000
00000000
,
00010000
00000000
00000000
00000000
00000000
00010000
00100000
01000000
,
10000000
00010000
10000000
00010000
,
01100000
01100000
01100000
10010000
,
10000000
00000000
00010000
01000000
00010000
00000000
01000000
00100000
,
01000000
00010000
00100000
01000000
,
10000000
00000000
00010000
01000000
00010000
00000000
01000000
00100000
,
01000000
00010000
01100000
00011000
,
00001100
00000000
00000100
00000000
00001000
00000000
00000010
00001000
,
00000100
00001000
00000100
00000001
,
00000100
00000000
00000001
00000100
00000010
00000000
00001000
00000001
,
00001000
00000001
00000110
00011000
,
00100000
01000000
10000000
00000000
00010000
10000000
00010000
00000000
,
01000000
00100000
01000000
00000000
00100000
01000000
00100000
00000000
,
10000000
00100000
10000000
00000000
00010000
01000000
00010000
00000000
,
10000000
00000000
00000000
00000000
00000000
00010000
10010000
00000000
,
00100000
10000000
01000000
00100000
,
00010000
00001000
00010000
00001000
00010000
00001000
00010000
00000000
,
00000010
00000100
00000001
00000010
,
00000100
00010000
00000100
00010000
00000100
00010000
00000100
00000000
,
00010000
01000000
00100000
01000000
,
00001000
00100000
00001000
00100000
00001000
00100000
00001000
00000000
,
00010000
00001000
00000100
00000010
,
00000001
00000010
00000001
00000000
00001001
00000000
00001001
00000000
,
00000010
00000000
00000001
00000010
00000100
00000000
00001000
00000000
,
00000010
00000100
00000010
00000100
00000010
00000100
00000010
00000000
,
00011000
00100000
01000000
10000000
,
00100000
10000000
00100000
10000000
00100000
10000000
00100000
00000000
,
10000000
01000000
00100000
00010000
,
00100000
00000000
00010000
00000000
00100000
00001000
00100000
00000000
,
00001000
00000000
00010000
00000100
00010000
00000000
00000010
00000100
,
00000001
00000000
00000010
00000100
00001000
00000100
00001000
00000000
,
00011000
00000000
00000000
00000000
;

//---------------dance-single - ----------------
#NOTES:
     dance-single:
     :
     Challenge:
     16:
     0.866,0.767,0.445,0.168,0.454: // measure 1
1001
1001
1001
1001
,  // measure 2
1000
0000
0000
1000
0001
0000
0100
0000
0010
0000
0000
1000
0001
0000
0100
0000
,  // measure 3
0020
1000
0000
1000
0000
1000
0000
1030
,  // measure 4
0001
0000
0000
0001
1000
0000
0100
0000
0010
0000
0000
0001
1000
0000
0100
0000
,  // measure 5
0020
0001
0000
0031
0110
0000
1010
0000
,  // measure 6
1001
0000
0000
1000
0001
0000
0100
0000
0010
0000
0000
1000
0001
0000
0100
0000
,  // measure 7
0020
1000
0000
1000
0000
1000
0000
1030
,  // measure 8
0001
0000
0000
1000
0001
0000
0010
0000
0100
0000
0000
1000
0001
0000
0010
0000
,  // measure 9
0100
0000
1000
0000
1010
0010
1000
0001
,  // measure 10
0010
0000
0000
0001
1000
0000
0100
0000
0010
0000
0000
0001
1000
0000
0100
0000
,  // measure 11
0020
0001
0000
0001
0000
0001
0000
0031
,  // measure 12
1000
0000
0000
0001
1000
0000
0010
0000
0100
0000
0000
0001
1000
0000
0010
0000
,  // measure 13
0200
0001
0000
0301
1001
0000
1100
0000
,  // measure 14
1000
0000
0000
0001
0100
0000
0010
0000
1000
0000
0000
0001
0100
0000
0010
0000
,  // measure 15
2000
0001
0000
0001
0000
0001
0000
3001
,  // measure 16
1000
0000
0000
0001
1000
0000
0100
0000
0010
0000
0000
0001
1000
0000
0100
0000
,  // measure 17
0011
1100
0011
1001
,  // measure 18
0001
0000
1000
0020
0000
0000
1030
0000
0001
0000
0010
0002
0000
0000
0013
0000
,  // measure 19
0001
1000
0001
0000
0100
0000
1000
0000
0100
0000
0001
0000
0010
0000
0100
0000
,  // measure 20
1000
0000
0010
2000
0000
0000
3010
0000
0100
0000
0001
0020
0000
0000
0031
1000
,  // measure 21
0001
0010
0100
0000
1100
0000
1001
0000
,  // measure 22
0001
0000
0100
0002
0000
0000
1003
0000
0001
0000
1000
0200
0000
0000
0310
0000
,  // measure 23
0001
0100
0001
0000
1000
0000
0010
0000
0001
0000
0010
0000
1000
0000
0100
0000
,  // measure 24
0010
0000
0001
0200
0000
0000
0310
0000
1000
0000
0100
2000
0000
0000
3001
0000
,  // measure 25
1000
0100
0001
0100
1000
0010
0001
0010
,  // measure 26
1010
0000
1010
0000
0110
0100
0001
0000
,  // measure 27
1001
0000
1001
0000
0011
0010
0100
0000
,  // measure 28
1100
0000
1100
0000
0110
0100
0001
0000
,  // measure 29
0101
0000
0101
0000
1001
1000
0001
0100
,  // measure 30
0101
0000
0101
0000
0110
0100
1000
0000
,  // measure 31
1100
0000
0000
0000
1100
0000
0000
0000
0110
0000
0100
0000
0001
0000
0000
0001
,  // measure 32
1000
0000
0000
1000
0010
0000
0000
0010
0100
0000
0000
0100
0010
0000
0000
0010
,  // measure 33
1000
0000
0000
1000
0001
0000
0000
0001
1000
0000
0100
0000
0010
0000
0001
0000
,  // measure 34
1000
0010
1000
0000
0001
0000
0010
0000
0100
0000
0010
0000
0001
0100
0001
0000
,  // measure 35
0100
0010
0100
0000
0001
0100
0001
0000
0100
0010
0100
0000
0001
0100
0001
0000
,  // measure 36
1000
0000
0100
0000
0010
0000
0100
0000
1000
0000
0001
0000
0100
0010
0100
0000
,  // measure 37
0001
1000
0001
0000
1000
0100
1000
0000
0001
0010
0001
0000
1000
0000
0100
0010
,  // measure 38
0001
0100
0010
0100
0001
1000
0100
1000
,  // measure 39
0001
0000
1000
0000
0100
0010
0100
0000
1000
0010
1000
0000
0100
0010
0100
0000
,  // measure 40
1000
0001
1000
0000
0001
0000
0010
0000
0001
0000
1000
0000
0010
0100
0010
0000
,  // measure 41
0100
0001
0100
0000
0001
0000
1000
0000
0010
0000
1000
0000
0100
0000
0010
0000
,  // measure 42
0001
1000
0001
0000
1000
0000
0010
0000
1000
0000
0001
0000
0100
0010
0100
0000
,  // measure 43
0010
0001
0010
0000
0100
0010
0100
0000
1000
0001
1000
0000
0001
0100
0001
0000
,  // measure 44
1000
0000
0100
0000
0010
0000
0100
0000
1000
0000
0001
0000
0100
0001
0100
0000
,  // measure 45
0001
1000
0001
0000
1000
0100
1000
0000
0010
0100
0010
0000
1000
0000
0100
0010
,  // measure 46
0001
1000
0010
1000
0001
1000
0001
0010
,  // measure 47
0100
0000
0010
0000
0001
1000
0001
0000
1000
0010
1000
0000
0010
0100
0010
0000
,  // measure 48
1000
0001
0010
0100
1000
0001
0100
0010
,  // measure 49
1000
1000
0001
0001
0010
0010
0100
0100
,  // measure 50
1001
0000
0000
0000
0000
0000
0000
0000
0000
0000
0000
0001
1000
0000
0000
1000
0010
0000
0000
0010
0100
0000
0000
0100
0001
0000
0000
0001
1000
0000
0000
1000
,  // measure 51
0200
0000
0000
0000
0000
0000
0000
0000
0000
0000
0000
0000
1000
0000
0000
0000
1300
0000
0000
0000
0010
0000
0000
0000
0100
0000
0000
0000
0001
0000
1000
0001
,  // measure 52
2000
0000
0000
0000
0000
3001
0010
0100
,  // measure 53
1000
0000
0000
0000
1000
0000
0000
0000
0001
0000
0000
0100
0001
0000
1000
0000
,  // measure 54
0100
0000
0001
0000
0100
0000
1000
0001
1000
0000
0010
0000
0110
0000
0000
0000
,  // measure 55
0100
0000
0001
0010
0100
0000
1000
0000
0010
0000
0100
0010
1000
0000
0100
0000
,  // measure 56
0020
0001
0100
0031
,  // measure 57
0100
0000
1000
0010
0100
0000
0010
0000
1000
0000
0001
0010
0100
0000
1000
0000
,  // measure 58
0010
0100
1001
1001
,  // measure 59
0001
0000
0100
0010
1000
0000
0100
0000
0010
0000
0100
1000
0001
0000
0100
0000
,  // measure 60
0020
1000
0100
1030
,  // measure 61
0001
0000
1000
0100
0010
0000
0100
0000
1000
0000
0001
0100
0010
0000
0100
0000
,  // measure 62
0001
1000
1001
1001
,  // measure 63
0001
0000
1000
0100
0010
0000
0100
0000
1000
0000
0010
0100
0001
0000
0100
0000
,  // measure 64
0010
0000
1000
0100
0010
0000
0100
0000
1000
0000
0010
0100
0001
0000
0100
0000
,  // measure 65
0010
0000
1000
0100
0010
0000
0100
0000
1000
0000
0010
0100
0001
0000
0100
0000
,  // measure 66
0110
0000
0000
0000
0110
0000
0000
0000
0110
0000
0000
0100
0000
0000
0001
0000
,  // measure 67
1000
0000
0100
0010
0001
0000
0100
0000
0001
0000
1000
0100
0010
0000
0100
0000
,  // measure 68
1000
0010
0010
0100
0100
0001
0101
0000
,  // measure 69
0001
0000
1000
0010
0100
0000
0001
0000
1000
0000
0001
0010
0100
0000
0010
0000
,  // measure 70
0001
0100
0100
0010
1010
1000
1001
0000
,  // measure 71
0001
0000
0100
0010
1000
0000
0100
0000
1000
0000
0001
0010
0100
0000
0010
0000
,  // measure 72
0001
0100
0100
0010
0010
1000
1000
0001
,  // measure 73
0001
0000
0100
0010
0001
0000
0010
0000
0100
0000
0001
1000
0010
0000
0100
0000
,  // measure 74
0010
1000
1000
0001
0011
0010
0110
0000
,  // measure 75
1000
0000
0010
0100
1000
0000
0100
0000
0010
0000
1000
0001
0100
0000
0001
0000
,  // measure 76
1000
0100
0100
0010
0010
0001
0101
0000
,  // measure 77
0100
0000
0010
1000
0100
0000
0010
0000
0100
0000
1000
0001
0100
0000
0001
0000
,  // measure 78
1000
0100
0100
0010
0010
0001
0001
1000
,  // measure 79
1000
0000
0001
0100
0010
0000
0100
0000
0001
0000
1000
0100
0010
0000
0001
0000
,  // measure 80
1000
0000
0100
1000
0100
0000
0010
0000
0001
0000
1000
0010
1000
0000
0001
0000
,  // measure 81
0100
0000
0010
1000
0001
0000
0010
0000
0010
0000
0100
1000
0001
0000
0100
0000
,  // measure 82
0100
1001
0000
1001
0000
1001
1000
0001
,  // measure 83
0022
0000
0000
0000
,  // measure 84
0033
0000
0000
0000
;
