#TITLE:全力バタンキュー;
#SUBTITLE:;
#ARTIST:A応P;
#TITLETRANSLIT:ZENRYOKU BATANKYUU;
#SUBTITLETRANSLIT:;
#ARTISTTRANSLIT:AOP;
#CREDIT:DigiMindAxel;
#BANNER:ZENRYOKU BATANKYUU.png;
#BACKGROUND:ZENRYOKU BATANKYUU-bg.png;
#LYRICSPATH:ZENRYOKU BATANKYUU.lrc;
#CDTITLE:DigiMindAxel original simfile.png;
#MUSIC:ZENRYOKU BATANKYUU.ogg;
#METERTYPE:DDR X;
#OFFSET:-0.399;
#SAMPLESTART:39.670;
#SAMPLELENGTH:12.000;
#SELECTABLE:YES;
#BPMS:0.000=155.000;
#STOPS:;
#BGCHANGES:-2.000=ZENRYOKU BATANKYUU.avi=1.000=1=1=0,
99999=-nosongbg-=1.000=0=0=0 // don't automatically add -songbackground-
;

//---------------dance-single - ----------------
#NOTES:
     dance-single:
     :
     Easy:
     4:
     0.188,0.242,0.149,0.000,0.000:
0000
0000
0000
0000
,
0000
0000
0000
0000
,
0000
0000
0000
0000
,
0000
0000
0000
0000
,
1000
0000
0010
0000
,
1000
0001
0010
0100
,
1000
0000
0001
0000
,
1000
0000
0000
0000
,
1001
0000
0000
0000
,
0001
0000
0000
0000
,
1000
0000
0000
0000
,
0001
0000
0000
0000
,
1000
0000
0001
0000
,
1000
0000
0001
0000
,
1000
0000
0001
0000
,
0010
0000
0100
0000
,
1000
0000
0000
0000
,
0000
0110
0000
0000
,
0000
0110
0000
0000
,
0010
0000
0100
0000
,
0010
0000
0000
0000
,
1000
0000
0100
0000
,
0010
0000
0001
0000
,
1001
0000
0000
0000
,
1001
0000
0000
0000
,
1001
0000
0000
0000
,
0010
0100
0010
0100
,
0010
0000
1000
0000
,
0001
1000
0001
1000
,
0001
0000
0010
0000
,
0100
1000
0100
1000
,
0100
0000
1000
0000
,
0010
0100
0010
0100
,
0010
0000
0000
0000
,
0110
0000
0000
0000
,
0100
0000
0000
0000
,
0010
0100
0010
0100
,
0010
0000
0000
0000
,
1001
0000
0000
0000
,
1001
0000
0000
0000
,
1001
0000
0000
0000
,
0000
0000
0001
0010
,
0100
0000
1000
0000
,
0010
0100
0010
0100
,
0001
0000
0100
0000
,
0010
1000
0010
1000
,
0001
0000
0010
0000
,
0100
1000
0100
1000
,
0010
0000
0110
0000
,
1001
0000
0000
0000
,
1001
0000
1000
0000
,
0001
1000
0100
0010
,
0001
0000
0100
0000
,
0001
0000
0010
0100
,
1000
0000
0001
0000
,
1000
0100
0010
0001
,
0100
0000
0000
0010
0000
0000
0000
0110
;

//---------------dance-single - ----------------
#NOTES:
     dance-single:
     :
     Medium:
     7:
     0.368,0.423,0.340,0.032,0.000:
0000
0000
0000
0000
,
0000
0000
0000
0000
,
0000
0000
0000
0000
,
0000
0000
0000
0000
,
1000
0000
0100
0000
0010
0000
0001
1000
,
0000
0001
0001
0001
,
0100
0000
0010
0000
1000
0000
0001
1000
,
0000
0000
0000
0000
,
0001
0001
0001
0001
,
1000
1000
1000
1000
,
0001
0001
0001
0001
,
1000
0000
0010
0000
0000
0110
0000
0000
,
0001
0001
0001
0001
,
0100
0100
0100
0100
,
0010
0010
0010
0010
,
1000
0100
0010
0001
,
1000
0100
0010
0110
,
0100
1001
0010
0100
,
0010
1001
0100
0010
,
0001
0100
0010
0100
,
0001
1000
0001
1000
0010
0000
0000
0000
,
1000
1000
0010
0010
,
1000
0100
0010
0001
,
1001
0000
0000
1001
0000
0000
0110
0000
,
0000
0110
0000
0000
1001
0000
0000
0000
,
1001
1001
0000
0000
,
0110
0000
0100
0000
0010
1000
0000
0001
,
0000
0000
1001
0000
0100
0001
0100
0000
,
0002
1000
2003
0001
,
3001
0000
0110
0000
0100
1000
0100
0000
,
1001
0000
0001
0000
0100
0001
0000
1000
,
0000
0000
1001
0000
0010
0100
0010
0000
,
1000
0000
0100
0000
0010
0000
0001
1000
,
0000
0000
0001
0010
,
0100
0000
1000
0010
,
0100
0000
0001
0010
,
1000
0010
0001
1000
,
0001
0000
0000
1001
,
1000
0001
1000
0000
0010
0000
0010
0000
,
0100
0010
0100
0000
0001
0000
1000
0010
,
0000
1001
0000
0000
1001
0000
0000
1001
,
0000
1001
0000
0000
0010
0000
0100
0000
,
1001
0000
0001
0000
0100
0001
0000
0010
,
0000
0000
0110
0000
0100
1000
0100
0000
,
0011
0000
0011
0000
0010
0100
0000
1000
,
0000
0000
1001
0000
0100
1000
0100
0000
,
0110
0000
0110
0000
0010
0001
0000
0100
,
0000
0000
0001
0000
0100
0010
0100
0000
,
1100
0000
1000
0001
1000
0000
0010
0200
,
0000
0000
0000
0300
,
1001
0000
0010
0000
0100
0000
1000
0001
,
0000
0000
0100
0001
1000
0000
0100
0000
,
0010
0000
0001
0000
0100
0000
0001
1000
,
0000
0000
0000
0000
0100
1000
0100
1000
,
0010
0000
0100
0000
0001
0000
0010
0100
,
0000
0000
1000
0100
0010
0000
0001
0000
,
0101
0000
0000
1001
0000
0000
1000
0001
;

//---------------dance-single - ----------------
#NOTES:
     dance-single:
     :
     Hard:
     11:
     0.539,0.544,0.308,0.074,0.011:
0000
0000
0000
0000
,
0000
0000
0000
0000
,
0000
0000
0000
0000
,
0000
0000
0000
0000
,
1001
0000
0010
0000
1000
0000
0010
0001
,
0000
1000
0100
0010
0001
1000
0100
0010
,
0100
0000
1000
0000
0010
0000
0001
0010
,
0000
1000
0000
1000
0000
1000
0001
1000
,
0100
1000
0010
0000
1000
0001
1000
0000
,
0001
1000
0100
0000
0010
0100
0010
0000
,
0001
0010
0100
0000
0010
0001
0010
0000
,
0001
1000
0100
0010
0000
1002
0000
0000
,
1003
0100
0010
0100
1000
0100
0010
0000
,
0100
1000
0010
0100
0010
1000
0100
0000
,
1000
0001
0100
0001
1000
0001
0100
0000
,
0001
1000
1000
0001
0001
0010
0100
0000
,
1000
0010
0001
0010
1000
0100
0010
0001
,
0101
0000
1001
0000
0100
0001
0010
0100
,
1010
0000
1001
0000
0010
0001
0100
0001
,
0010
0000
1000
0000
0010
0001
0100
0010
,
0100
0001
0001
0010
0010
0100
0000
0000
,
1000
0010
0001
0000
0010
0000
1000
0000
,
0100
0010
0100
0000
1000
0000
0010
0000
,
1002
0000
0010
0010
0000
1000
1000
0000
,
0010
0010
0000
1000
1003
0001
0010
0100
,
0110
2020
0000
3030
,
0010
1000
0100
0001
0100
1000
0001
0100
,
0000
0000
1001
0000
0010
0100
0010
1000
,
0001
0100
1000
0000
0100
0001
1000
0100
,
0010
0000
1001
0000
0010
0001
0100
0010
,
1000
0001
0100
1000
0100
0001
1000
0100
,
0000
0000
1001
0000
0100
0010
0100
0001
,
1000
0100
0001
0000
0100
1000
0001
0010
,
0100
0000
0110
0000
0010
1000
0100
0001
,
0100
0000
1000
0000
0100
1000
0010
0001
,
0010
0000
1000
0000
0010
0100
0010
0100
,
0001
0010
1000
0010
0001
0100
1000
0100
,
0001
0000
1000
0000
0001
0000
0000
0000
0100
0010
0100
0010
0100
0000
0000
0000
,
0001
0001
1001
0000
0100
0100
0100
0000
,
1000
1000
1001
0000
0010
0010
0010
0100
,
0000
1000
1100
0000
0010
0110
0000
1001
,
0000
1001
1001
0000
0010
0100
1000
0001
,
1001
0000
1000
0010
0100
0001
0100
1000
,
0100
0000
1001
0000
0001
0100
0001
1000
,
0001
0010
1000
0000
0010
0001
1000
0010
,
0100
0000
1001
0000
1000
0010
1000
0001
,
0010
1000
0010
0001
0100
0010
1000
0010
,
0100
0000
0001
0000
0010
0100
1000
0010
,
0110
0000
0100
1000
0001
0000
0200
0002
,
0000
0000
0000
0303
,
1001
0000
0010
0000
0001
0000
0010
1000
,
0000
0001
0010
0100
1000
0001
0010
0100
,
0010
0000
0001
0000
0010
0000
1000
0020
,
0000
0000
0001
0000
0031
1000
0010
0001
,
0010
0000
1000
0000
0100
0000
0010
0100
,
0000
1000
0001
0010
0100
1000
0001
0100
,
0110
0000
0010
1000
1001
0000
0101
0101
;

//---------------dance-double - ----------------
#NOTES:
     dance-double:
     :
     Easy:
     4:
     0.193,0.272,0.138,0.064,0.000:
00000000
00000000
00000000
00000000
,
00000000
00000000
00000000
00000000
,
00000000
00000000
00000000
00000000
,
00000000
00000000
00000000
00000000
,
10000000
00000000
00010000
00000000
,
10000000
01000000
00100000
00010000
,
00001000
00000000
01000000
00000000
,
00001000
00000000
00000000
00000000
,
00011000
00000000
00000000
00000000
,
00001000
00000000
00000000
00000000
,
00010000
00000000
00000000
00000000
,
00001000
00000000
00000000
00000000
,
00010000
00000000
00000010
00000000
,
00010000
00000000
00000010
00000000
,
00000100
00000000
00000001
00000000
,
00000100
00000000
00000001
00000000
,
00000010
00000000
00000000
00000000
,
00000000
00011000
00000000
00000000
,
00000000
00011000
00000000
00000000
,
00100000
00000000
01000000
00000000
,
00100000
00000000
00000000
00000000
,
00010000
00000000
00100000
00000000
,
01000000
00000000
10000000
00000000
,
10010000
00000000
00000000
00000000
,
10010000
00000000
00000000
00000000
,
10010000
00000000
00000000
00000000
,
01000000
00100000
01000000
00100000
,
01000000
00000000
00001000
00000000
,
00020000
00000000
00030020
00000000
,
00000230
00000000
00000310
00000100
,
00000001
00001000
00000001
00001000
,
00000001
00000000
00000010
00000000
,
00000200
00000000
00020300
00000000
,
00032000
00000000
00003000
00000000
,
01100000
00000000
01000000
00000000
,
01000000
00000000
00100000
00000000
,
00100000
01000000
00100000
01000000
,
00100000
00000000
00000000
00000000
,
10010000
00000000
00000000
00000000
,
10010000
00000000
00000000
00000000
,
00000000
01100000
00000000
00000000
,
00000000
00000000
00100000
01000000
,
00100000
00000000
10000000
00000000
,
01000000
00100000
01000000
00100000
,
00001000
00000000
00010000
00000000
,
00001000
00010000
00001000
00010000
,
00000010
00000000
00000100
00000000
,
00000001
00000000
00000100
00000010
,
00000100
00000000
00000110
00000000
,
00001001
00000000
00000000
00000000
,
00000001
00000000
00001000
00000000
,
00000001
00000010
00000100
00001000
,
00010000
00000000
01000000
00000000
,
00100000
00000000
10000000
01000000
,
10000000
00000000
00010000
00000000
,
10000000
01000000
00100000
00010000
,
01000000
00000000
00000000
00001000
00000000
00000000
00000000
00011000
;

//---------------dance-double - ----------------
#NOTES:
     dance-double:
     :
     Medium:
     7:
     0.368,0.393,0.308,0.043,0.000:
00000000
00000000
00000000
00000000
,
00000000
00000000
00000000
00000000
,
00000000
00000000
00000000
00000000
,
00000000
00000000
00000000
00000000
,
10000000
00000000
00010000
00000000
10000000
00000000
00100000
01000000
,
00000000
00001000
00001000
00001000
,
00010000
00000000
00000100
00000000
00000010
00000000
00000001
00001000
,
00000000
00000000
00000000
00000000
,
00000010
00000100
00000010
00000100
,
00000001
00000010
00000001
00000010
,
00000100
00001000
00000100
00001000
,
00010000
00000000
00100000
00000000
00000000
01100000
00000000
00000000
,
00100000
10000000
00100000
10000000
,
01000000
00100000
01000000
00100000
,
00001000
01000000
00001000
01000000
,
00001000
00010000
00000100
00000010
,
00000001
00001000
00000001
00000000
00000100
00000000
00000110
00000000
,
00010000
00011000
00100000
01000000
,
10000000
11000000
00100000
01000000
,
00010000
00001000
00000100
00000010
,
00000001
00000100
00000001
00000100
00000010
00000000
00000000
00000000
,
00001000
00000100
00001000
00000100
,
00001000
00010000
01000000
00100000
,
01100000
00000000
00000000
01100000
00000000
00000000
10010000
00000000
,
00000000
10010000
00000000
00000000
01100000
00000000
00000000
00000000
,
00011000
00011000
00000000
00000000
,
00000110
00000000
00000100
00000000
00000010
00000001
00000000
00000001
,
00000000
00000000
00010100
00000000
00010000
00001000
00010000
00000000
,
00002000
01000000
02003000
00100000
,
03100000
00000000
10010000
00000000
10000000
01000000
10000000
00000000
,
01000000
00000000
00100000
00000000
00010000
01000000
00000000
01000000
,
00000000
00000000
00011000
00000000
00010000
00000010
00010000
00000000
,
00000010
00000000
00000100
00000000
00000001
00000000
00000010
00000100
,
00000000
00000000
00010000
00001000
,
01000000
00000000
00100000
10000000
,
00010000
00000000
00100000
01000000
,
10000000
01000000
00100000
00001000
,
00010000
00000000
00000000
00000110
,
00000100
00000010
00000100
00000000
00000001
00000100
00000001
00000000
,
00010000
00001000
00010000
00000000
00001000
00000000
00001000
01000000
,
00000000
01100000
00000000
00000000
01100000
00000000
00000000
11000000
,
00000000
11000000
00000000
00000000
00100000
00000000
00001000
00000000
,
00011000
00000000
00010000
00000000
00000010
00000100
00000000
00000100
,
00000000
00000000
00001001
00000000
00000001
00000010
00000001
00000000
,
00000200
00000000
00000010
00000000
00000310
00010000
00000000
00001000
,
00000000
00000000
01100000
00000000
01000000
10000000
01000000
00000000
,
10010000
00000000
10010000
00000000
00100000
01000000
00000000
01000000
,
00000000
00000000
00001000
00000000
00010000
00001000
00010000
00000000
,
00000110
00000000
00000100
00000010
00000001
00000000
00000010
00000200
,
00000000
00000000
00000000
00000300
,
00011000
00000000
00001000
00000000
00100000
00000000
01000000
00100000
,
00000000
00000000
00010000
00100000
01000000
00000000
10000000
00000000
,
00001000
00000000
01000000
00000000
00001000
00000000
00010000
00001000
,
00000000
00000000
00000000
00000000
00010000
00000010
00010000
00000010
,
00000100
00000000
00000001
00000000
00000010
00000000
00000100
00000010
,
00000000
00000000
00000001
00000100
00000010
00000000
00010000
00000000
,
00011000
00000000
00000000
01100000
00000000
00000000
10000000
01000000
;

//---------------dance-double - ----------------
#NOTES:
     dance-double:
     :
     Hard:
     11:
     0.526,0.544,0.255,0.074,0.011:
00000000
00000000
00000000
00000000
,
00000000
00000000
00000000
00000000
,
00000000
00000000
00000000
00000000
,
00000000
00000000
00000000
00000000
,
10000000
00000000
01000000
00000000
00100000
00000000
00010000
10000000
,
00000000
01000000
00100000
00001000
00010000
00000100
00000010
00000001
,
00000010
00000000
00000100
00000000
00001000
00000000
00000001
00000200
,
00000000
00000001
00000000
00000001
00000000
00000001
00000301
00000000
,
00001000
00000100
00001000
00000000
00000100
00000010
00000001
00000000
,
00010000
00000010
00010000
00000000
00001000
00100000
01000000
00000000
,
10000000
00100000
10000000
00000000
01000000
00100000
00010000
00000000
,
00001000
00010000
00000010
00000100
00000000
00000120
00000000
00000000
,
00001030
00000100
00000010
00000100
00001000
00000100
00000010
00000000
,
00000001
00000100
00000010
00000100
00000001
00000100
00000010
00000000
,
00010000
00001000
00100000
01000000
00100000
00001000
00010000
00000000
,
00100000
01000000
01000000
10000000
10000000
01000000
00100000
00000000
,
00010000
01000000
10000000
01000000
00001000
00010000
00000100
00000010
,
00000011
00000000
00000110
00000000
00000100
00001000
00010000
01000000
,
01010000
00000000
01100000
00000000
10000000
00100000
00010000
00100000
,
10000000
00000000
01000000
00000000
00100000
00001000
00100000
00001000
,
00010000
00000010
00000010
00000100
00000100
00000001
00000000
00000000
,
00000010
00000100
00001000
00000000
00010000
00000000
01000000
00000000
,
00010000
10000000
00010000
00000000
01000000
00000000
00100000
00000000
,
01001000
00000000
00001000
00010000
00000000
00001000
00010000
00000000
,
00000100
00000010
00000000
00000100
00000010
00000001
00000100
00000010
,
00000110
00002002
00000000
00003003
,
00000001
00000100
00001000
00000001
00001000
00000100
00000001
00010000
,
00000000
00000000
00011000
00000000
00001000
00010000
00001000
01000000
,
10000000
01000000
00100000
00000000
10000000
01000000
00100000
00010000
,
10000000
00000000
10010000
00000000
10000000
01000000
00100000
00010000
,
10000000
00100000
00010000
10000000
00010000
00100000
10000000
00001000
,
00000000
00000000
00011000
00000000
00010000
00001000
00010000
00000010
,
00000001
00000010
00000100
00000000
00000001
00000010
00000100
00001000
,
00000001
00000000
00001001
00000000
00001000
00000100
00000010
00000100
,
00010000
00000000
00001000
00000000
00100000
01000000
10000000
00100000
,
01000000
00000000
00001000
00000000
00010000
00001000
00010000
00000000
,
00000100
00000010
00000001
00000010
00000100
00010000
00001000
01000000
,
00100000
00000000
01000000
00000000
00001000
00000000
00000000
00000000
00010000
00001000
00010000
00001000
00010000
00000000
00000000
00000000
,
00000010
00000100
00000110
00000000
00010000
00000100
00010000
00000000
,
00001000
00010000
00011000
00000000
01000000
00100000
01000000
00010000
,
00000000
10000000
01000000
00000000
00100000
01000000
00000000
10000000
,
00000000
00100000
01100000
00000000
10000000
01000000
00100000
00001000
,
00011000
00000000
00010000
00000010
00000001
00000010
00000100
00000001
,
00010000
00000000
00011000
00000000
00001000
00010000
00001000
01000000
,
10000000
01000000
00100000
00000000
10000000
01000000
00100000
00010000
,
01000000
00000000
01100000
00000000
01000000
00100000
10000000
01000000
,
10000000
00100000
00010000
00100000
01000000
00001000
00010000
00000100
,
00000010
00000000
00000001
00000000
00000010
00000100
00001000
00010000
,
00011000
00000000
00100000
01000000
10000000
00000000
00200000
02000000
,
00000000
00000000
00000000
03300000
,
10010000
00000000
01000000
00000000
00100000
00000000
00010000
01000000
,
00000000
00010000
00001000
00000010
00000100
00000001
00000100
00000010
,
00010000
00000000
00001000
00000000
00100000
00000000
01000000
00200000
,
00000000
00000000
00000000
00000000
01300000
00000000
01000000
10000000
,
00100000
00000000
01000000
00000000
00010000
00000000
10000000
01000000
,
00000000
10000000
00100000
01000000
00001000
00010000
00000100
00000010
,
00000011
00000000
00000100
00010000
00011000
00000000
01100000
01100000
;

//---------------dance-single - ----------------
#NOTES:
     dance-single:
     :
     Beginner:
     2:
     0.111,0.182,0.106,0.000,0.000: // measure 1
0000
0000
0000
0000
,  // measure 2
0000
0000
0000
0000
,  // measure 3
0000
0000
0000
0000
,  // measure 4
0000
0000
0000
0000
,  // measure 5
1000
0000
0000
0000
,  // measure 6
0000
0010
0000
0000
,  // measure 7
0100
0000
0000
0000
,  // measure 8
0000
0000
0000
0000
,  // measure 9
0001
0000
0000
0000
,  // measure 10
0001
0000
0000
0000
,  // measure 11
1000
0000
0000
0000
,  // measure 12
1000
0000
0000
0000
,  // measure 13
0100
0000
0000
0000
,  // measure 14
0100
0000
0000
0000
,  // measure 15
0010
0000
0000
0000
,  // measure 16
0010
0000
0000
0000
,  // measure 17
0001
0000
0000
0000
,  // measure 18
0000
1001
0000
0000
,  // measure 19
0000
1001
0000
0000
,  // measure 20
0000
0000
0000
0000
,  // measure 21
0000
1000
0000
0000
,  // measure 22
0100
0000
0010
0000
,  // measure 23
0100
0000
0010
0000
,  // measure 24
0001
0000
0000
0000
,  // measure 25
0000
0000
0000
0000
,  // measure 26
1001
0000
0000
0000
,  // measure 27
0001
0000
0100
0000
,  // measure 28
0001
0000
0000
0000
,  // measure 29
1000
0000
0001
0000
,  // measure 30
1000
0000
0000
0000
,  // measure 31
0100
0000
1000
0000
,  // measure 32
0100
0000
0000
0000
,  // measure 33
0010
0000
0100
0000
,  // measure 34
0010
0000
0000
0000
,  // measure 35
0001
0000
0000
0000
,  // measure 36
1000
0000
0000
0000
,  // measure 37
0001
0000
0000
0000
,  // measure 38
0000
0000
0000
0000
,  // measure 39
1001
0000
0000
0000
,  // measure 40
1001
0000
0000
0000
,  // measure 41
0000
1000
0000
0000
,  // measure 42
0000
0000
0000
0000
,  // measure 43
1001
0000
1000
0000
,  // measure 44
0001
0000
0000
0000
,  // measure 45
1000
0000
0001
0000
,  // measure 46
1000
0000
0000
0000
,  // measure 47
0010
0000
0100
0000
,  // measure 48
0010
0000
1000
0000
,  // measure 49
0010
0000
0010
0000
,  // measure 50
0110
0000
0000
0000
,  // measure 51
1001
0000
0001
0000
,  // measure 52
1000
0000
0000
0000
,  // measure 53
0100
0000
1000
0000
,  // measure 54
0100
0000
0000
0000
,  // measure 55
0010
0000
0001
0000
,  // measure 56
0010
0000
0000
0000
,  // measure 57
0110
0000
0000
0000
,  // measure 58
1001
0000
0000
0000
;
