#TITLE:悠久のPEGASUS;
#SUBTITLE:;
#ARTIST:SOUND HOLIC Vs. T.Kakuta feat. Nana Takahashi;
#TITLETRANSLIT:YUUKYUU NO PEGASUS;
#SUBTITLETRANSLIT:;
#ARTISTTRANSLIT:;
#CREDIT:DigiMindAxel;
#BANNER:YUUKYUU NO PEGASUS.png;
#BACKGROUND:YUUKYUU NO PEGASUS-bg.png;
#LYRICSPATH:YUUKYUU NO PEGASUS.lrc;
#CDTITLE:GITADORA.png;
#MUSIC:YUUKYUU NO PEGASUS.ogg;
#METERTYPE:DDR X;
#OFFSET:-5.740;
#SAMPLESTART:57.519;
#SAMPLELENGTH:12.000;
#SELECTABLE:YES;
#BPMS:0.000=200.000;
#STOPS:172.000=0.900
,285.000=0.900
;
#BGCHANGES:;

//---------------dance-single - ----------------
#NOTES:
     dance-single:
     :
     Easy:
     7:
     0.365,0.377,0.122,0.073,0.000:
1000
0001
1000
0001
,
1000
0100
1000
0100
,
1000
0001
1000
0001
,
0100
0100
0100
0000
,
0010
0100
0010
0100
,
0001
0010
0001
0010
,
0001
1000
0001
1000
,
0100
0010
0001
0000
,
1000
0100
1000
0100
,
1000
0001
1000
0001
,
0100
0001
0100
0001
,
2000
0000
0000
3000
,
0001
0000
0100
0000
,
0001
0000
0010
0000
,
0100
0000
0010
0000
,
0100
0000
1000
0000
,
0010
0000
1000
0000
,
0001
0000
1000
0000
,
0100
1000
0100
1000
,
0001
0000
0000
0000
,
0100
0010
0100
0010
,
0100
0001
0100
0001
,
0100
0010
0100
0010
,
0100
0001
0100
0001
,
1000
0100
1000
0100
,
1000
0001
1000
0001
,
1000
0100
1000
0100
,
1000
0000
0000
0000
,
1001
0000
0010
0000
,
0100
0000
0010
0000
,
1001
0000
1000
0000
,
0001
0000
1000
0000
,
0110
0000
0100
0000
,
0010
0000
0100
0000
,
1001
0000
0001
0000
,
1000
0000
0000
0000
,
0001
1000
0001
1000
,
0001
0100
0001
0100
,
0001
1000
0001
1000
,
0100
1000
0100
1000
,
0001
0010
0100
1000
,
0001
0010
0100
1000
,
0001
1000
0001
1000
,
0100
1001
0010
0100
,
0010
0100
0010
1000
,
0100
0010
0001
0010
,
0100
0010
0001
0100
,
0000
0110
0000
0110
,
0000
1001
0000
1001
,
0000
0001
0100
0010
,
1000
0002
0000
0000
,
0003
1000
0001
0100
,
0001
0200
0000
0000
,
0000
0310
0100
0010
,
0100
0002
0000
0000
,
0000
1003
0100
1000
,
0100
1000
0001
1000
,
0001
0100
0001
0100
,
0001
0010
0100
1000
,
0001
0100
0010
0100
,
0010
0100
0001
0100
,
0001
1000
0100
1000
,
0100
1000
0001
0010
,
0100
1000
0000
0010
,
0000
1000
0000
0100
,
0000
0010
0000
0100
,
0000
0010
0000
0001
,
0000
0100
0010
0100
,
0001
0100
0001
0100
,
0010
0100
0001
0010
,
0100
1000
0000
0000
,
0000
1001
0001
0100
,
0001
0100
0001
1000
,
0001
1000
0010
1000
,
0010
1000
0010
1000
,
0001
0010
0110
0000
,
0110
0000
1001
0000
,
1001
0000
1000
0100
,
1000
0001
0200
0000
,
0000
0000
0310
0100
,
0010
0100
0002
0000
,
0000
0000
1003
0001
,
1000
0001
0200
0000
,
0000
0300
0010
0100
,
0010
0100
0001
0010
,
0100
0010
0001
1000
,
0001
1000
0100
0010
,
0001
0010
0100
1000
,
0010
1000
0100
1000
,
0100
1000
0010
0100
,
0001
0100
0010
0100
,
0010
0100
0001
0000
,
2002
0000
0000
3003
;

//---------------dance-single - ----------------
#NOTES:
     dance-single:
     :
     Medium:
     12:
     0.567,0.566,0.301,0.171,0.024:
1001
0000
1000
0001
0000
1000
0001
0000
,
0010
0100
0000
0010
0100
0000
1000
0000
,
0001
0000
0100
0001
0000
0100
0001
0000
,
1000
0000
0100
0000
0010
0000
0001
0000
0000
0000
0000
0000
,
1001
0000
0001
1000
0000
0001
1000
0000
,
0010
1000
0000
0010
1000
0000
0100
0000
,
0010
0000
0001
1000
0000
0001
1000
0000
,
0001
0010
0001
0000
1000
0010
1000
0000
,
0100
0000
0010
0001
0000
0010
0001
0000
,
0100
0000
0010
1000
0000
0010
1000
0000
,
0001
0000
0100
0010
0000
0100
0010
0000
,
2002
0000
0000
3003
,
1000
0100
1000
0100
,
1000
0100
1000
0100
,
1000
0001
1000
0001
,
1000
0001
1000
0001
,
0100
0001
0100
0001
,
0100
0001
0100
0001
,
1000
1001
0001
1001
,
1000
0001
1000
0001
0000
0000
0000
0000
,
0100
0001
0010
0000
0001
0000
1000
0000
,
0100
0010
0001
0000
0010
0000
0100
0000
,
1000
0000
0010
0100
0000
0001
1000
0000
,
0001
0000
0010
0001
0000
0010
0100
0000
,
1000
0100
0010
0000
0100
0000
1000
0000
,
0010
1000
0001
0000
0100
0000
0010
0000
,
1000
0000
0001
0010
0000
0100
0010
0000
,
0001
0100
0001
0100
0001
0000
0000
0000
,
2001
0000
3100
0000
,
0120
0000
1030
0000
,
1002
0000
0013
0000
,
0210
0000
0301
0000
,
2001
0000
3100
0000
,
0120
0000
1030
0000
,
1001
0010
0100
1000
,
0010
0010
0110
0000
,
0100
1000
0100
0000
1000
0001
1000
0000
,
0001
0010
0001
0000
1000
0001
1000
0000
,
0010
0100
0010
0000
1000
0010
1000
0000
,
0001
0100
0001
0000
0100
0010
0100
0000
,
0001
0000
1000
0100
0000
0010
0100
0010
,
0001
0000
1000
0001
0000
0010
0100
0010
,
0100
1000
0010
0100
,
0001
0000
0010
0001
0010
0000
0100
0010
,
0100
0000
1000
0001
1000
0001
1000
0100
,
0010
0000
0001
0100
0001
0000
1000
0001
,
1000
0000
0010
1000
0010
1000
0010
1000
,
0100
1100
0000
0110
,
0000
1100
0000
0110
,
0000
0000
0000
0000
0000
0000
0010
0000
0000
0001
0000
0000
0010
0000
0000
0000
0000
0000
0001
0000
0000
0000
1000
0000
,
0000
0001
0000
2002
0000
0000
0000
0000
0000
0000
0000
0000
,
3003
0000
0100
0010
0100
0010
0100
0010
,
0100
0220
0000
0000
,
0330
0100
0001
0010
,
0100
1000
1001
0001
,
1001
0000
1000
0100
0010
0000
0001
1000
,
0001
0000
0100
0001
0010
0000
0100
1000
,
0010
0000
1000
0001
1000
0001
1000
0001
,
1000
0001
1001
1000
,
1001
0000
0001
0010
0100
0000
0010
0001
,
0010
0000
0001
1000
0010
0000
1000
0001
,
1000
0000
0100
0010
0100
0010
0100
0010
,
0100
0000
1000
0010
1000
0010
1000
0010
,
1000
1002
0000
0013
,
0000
0210
0000
0301
,
0000
2001
0000
3100
,
0000
0120
0000
1030
,
0001
0000
1000
0001
0100
0001
0000
1000
,
0100
1000
0001
0000
0010
0000
0100
1000
,
0100
1000
0001
0000
0010
0000
0100
1000
,
0010
0000
0100
0000
0000
0110
0000
0000
,
0100
0000
0110
0000
0010
0100
1000
0000
,
0001
0100
0001
0000
0010
0100
0010
0100
,
1000
0100
1000
0000
0010
0000
0100
0001
,
0000
0010
0100
0000
1000
0000
0100
1000
,
0000
0001
0100
0000
0101
0000
0000
0000
,
0110
0000
0101
0000
,
0110
0000
0000
0000
0100
0001
0100
0001
,
1000
0000
0100
0000
0010
0000
0002
0000
0000
0000
0000
0000
,
1000
0000
1000
0000
1003
0001
1000
0001
,
1000
0001
1000
0000
2002
0000
0000
0000
,
0000
0000
3003
0000
0010
0100
0010
0100
,
0010
0100
0010
0000
0100
0000
0110
0000
,
0010
0000
0110
0000
0100
1000
0100
1000
,
0010
0000
0100
0000
0001
0010
0001
0010
,
0100
0000
1000
0000
0010
0100
0010
0100
,
0001
0000
1000
0000
0001
0010
0100
0000
,
0010
0100
1000
0000
0001
0100
0001
0100
,
0010
0000
1000
0000
0100
0010
0100
0010
,
0001
0000
0100
0000
0010
1000
0001
0000
,
0010
0001
1000
0000
0100
0010
0001
0000
,
0010
0100
1000
0000
0010
0100
0010
0100
,
0220
0000
0000
0330
;

//---------------dance-single - ----------------
#NOTES:
     dance-single:
     :
     Hard:
     14:
     0.707,0.679,0.326,0.073,0.069:
1000
0100
1000
0001
0000
0001
0100
0000
,
0100
0010
0000
0010
1000
0100
0010
0001
,
0100
0010
0100
0001
0000
0001
1000
0000
,
0100
0000
0100
0000
0010
0000
0001
0000
0000
0000
0000
0000
,
0100
0001
0010
0100
0010
0100
1000
0001
,
1000
0100
0001
0100
1000
0001
1000
0000
,
0001
1000
0100
0010
0100
0010
0001
1000
,
0001
0100
1000
0100
0001
1000
0001
0000
,
1000
0001
0100
0010
0100
0010
1000
0100
,
0010
0001
1000
0100
0001
0100
1000
0000
,
0001
1000
0010
0100
0010
0100
0001
0010
,
0200
1000
1000
1300
,
0001
0000
1000
0001
0100
0000
0001
0100
,
0001
0000
0010
0100
0010
0000
0001
0000
,
1000
0100
1000
0000
0100
0000
0010
0100
,
0000
0100
0000
1000
0000
1000
0001
0000
,
1000
0000
0010
1000
0100
0000
1000
0001
,
0000
0001
0000
0010
0000
0010
0000
0000
,
1001
1001
0110
0110
,
0100
0010
0001
0200
0000
0000
0300
0000
,
0001
0010
0001
0010
0001
1000
0001
1000
,
0010
1000
0010
1000
0100
0010
0100
0010
,
0001
0100
0010
1000
0000
0001
1000
0000
,
0100
0010
0001
0100
0000
0001
1000
0000
,
0100
0010
0100
0010
0001
0100
0001
0100
,
0001
1000
0001
1000
0100
0010
0100
0010
,
0001
0100
0010
1000
0000
0001
1000
0000
,
0100
0010
0001
0010
0100
1000
0001
0010
,
0100
0000
1100
0000
,
0010
0000
0110
0000
,
0001
0000
1001
0000
,
0100
0000
0101
0000
,
0010
0000
0110
0000
,
1000
0000
1001
0000
,
0110
0100
0010
0100
,
0001
1000
0000
0000
0001
1000
0000
0000
2001
0000
0000
0000
0000
0000
0000
0000
,
3001
0100
0001
0100
0001
0010
0100
1000
,
0010
0100
0010
0100
0001
0010
0100
0010
,
0001
1000
0001
1000
0100
0010
0100
1000
,
0010
0100
0010
0100
0001
0010
0100
1000
,
0000
1000
0001
0100
0000
0100
0001
0010
,
0100
1000
0100
0010
0000
0010
0001
1000
,
0100
0000
0000
1100
0000
0000
1001
0000
,
0011
0000
0010
0100
0010
0100
1000
0001
,
1000
0001
0100
0010
0001
0010
0100
0001
,
1000
0100
1000
0100
0010
0001
0000
0001
,
0100
0001
1000
0100
0010
0100
1000
0100
,
0010
0000
0000
0000
0001
1000
0001
0000
0000
0000
0000
0000
1000
0001
1000
0000
,
0000
0000
0000
0000
0010
0100
0010
0000
0000
0000
0000
0000
0100
0010
0100
0000
,
0000
0000
0000
0000
0000
0000
0001
0000
0000
0010
0000
0000
0100
0000
0000
1000
0000
0000
0001
0000
0000
0000
0001
0000
,
0000
0100
0000
0200
0000
0000
0010
0000
0000
0010
0000
0000
,
0310
0000
1000
0100
1000
0100
0010
0001
,
0010
0001
0200
0000
0000
0000
0000
0000
,
0000
0000
0301
1000
0001
1000
0010
0100
,
0010
0100
0101
0000
0101
0000
0110
0000
,
0110
0000
0100
1000
0010
0100
0010
1000
,
0100
0001
0100
1000
0001
0010
0001
1000
,
0100
0001
0100
1000
0100
0010
0001
0010
,
0100
1000
1010
0000
0110
0000
1010
0000
,
0110
0000
0010
1000
0001
1000
0010
1000
,
0001
1000
0010
0100
0001
0010
0100
0010
,
0001
0010
0100
1000
0010
1000
0010
0100
,
0001
0100
0001
1000
0100
0001
0100
1000
,
0001
0101
0000
1001
,
0000
1100
0000
0110
,
0000
0011
0000
0110
,
0000
1001
0000
0110
,
0100
0000
0100
0010
0001
1000
0000
1000
,
0001
0010
0100
1000
0001
0100
0000
0100
,
0001
0000
0100
0000
0010
0000
1000
0000
0100
0000
0001
0000
0100
0000
0000
1000
,
0000
0001
0101
0000
0000
1001
0000
0000
,
1100
0000
1001
0000
1000
0001
0100
0001
,
1000
0001
0100
0001
1000
0100
0010
0001
,
0100
1000
0100
0001
1000
0001
1000
0100
,
0010
0100
0010
0001
0100
0001
1000
0100
,
0010
0000
0001
0000
0100
0000
0000
0000
0001
1000
0001
0000
0000
0000
0000
0000
,
1000
0001
1000
0000
0000
0000
0000
0000
0100
0010
0100
0000
0000
0000
0000
0000
,
0010
0100
0010
0000
0000
0000
0000
0000
0001
0000
0010
0000
0100
0000
1000
0000
,
0001
0000
0001
0000
0100
0000
0020
0000
0000
0100
0000
0000
,
0130
0010
0100
0010
1000
0100
0010
0001
,
1000
0100
0010
0001
0200
0000
0010
0000
,
0010
0000
0310
0000
1000
0010
0100
0001
,
1000
0010
0100
0001
1001
0000
1001
0000
,
1100
0000
1100
0000
1000
0100
0001
0100
,
1000
0010
0000
0010
0100
0001
0010
1000
,
0010
0001
0100
0010
0100
0010
1000
0100
,
0000
0100
0010
0001
0100
1000
0100
0001
,
0010
1000
0010
0001
0100
0010
0100
0010
,
1000
0100
0000
0100
0010
0001
0100
1000
,
0100
0001
0010
0100
1000
0100
0010
0001
,
1000
0010
0100
0001
1000
0100
0010
0001
,
1000
0010
0100
0001
1000
1000
1000
0001
,
2002
0000
0000
3003
;

//---------------dance-single - ----------------
#NOTES:
     dance-single:
     :
     Challenge:
     18:
     1.000,1.000,0.122,0.081,0.863:
1000
0100
1000
0001
0100
0001
1000
0100
,
1000
0001
1000
0100
0001
0100
1000
0010
,
1000
0001
0010
0001
1000
0010
1000
0001
,
0011
0000
0000
0000
0000
0000
0000
0000
0010
0000
0000
0000
0000
0000
0000
0000
0100
0000
0000
0000
0000
0000
0000
0000
1000
0000
0000
0010
0000
0000
1000
0000
0000
0010
0000
0000
1000
0000
0000
0001
0000
0000
1000
0000
0000
0001
0000
0000
,
0100
0010
0100
0000
0001
0000
1000
0100
1000
0000
0001
1000
0001
0000
0010
0000
,
0100
0000
1000
0010
1000
0000
0001
0010
0001
0000
1000
0000
0001
0000
1000
0000
,
0010
0100
0010
0000
1000
0000
0001
0100
0001
0000
1000
0001
1000
0000
0100
0000
,
0010
0001
0010
0001
0100
0010
0100
0000
0010
1000
0010
1000
0010
0100
0010
0000
,
1000
0100
1000
0000
0001
0000
0010
0100
0010
0000
0001
1000
0001
0000
1000
0000
,
0100
0000
0010
0100
0010
0000
0001
0100
0001
0000
1000
0001
1000
0000
0100
0000
,
0010
0001
0010
0000
0100
0000
1000
0010
1000
0000
0001
1000
0001
0000
1000
0000
,
0020
0000
0000
0000
0100
0000
0000
0000
0130
0000
0001
0100
0001
0100
0001
0100
,
0001
1000
0001
1000
0001
0100
0001
0100
,
0001
1000
0001
0000
0010
0100
0010
0100
,
1000
0010
1000
0010
1000
0001
0010
0200
,
0000
2300
0000
3200
0000
1300
0001
0000
,
0010
0001
0010
0001
1000
0010
1000
0010
,
0100
0010
0100
0000
0001
0010
0001
0010
,
0100
1000
0010
1000
0100
1000
0010
1000
,
0001
0000
0010
0000
0100
0000
2000
0000
0000
0000
3001
1000
0001
1000
0001
1000
,
0001
0000
0010
0000
0001
1000
0001
0000
1000
0000
0010
0000
1000
0010
1000
0000
,
0100
0000
0010
0000
0001
0100
0001
0000
1000
0000
0100
0000
1000
0001
1000
0000
,
0100
0010
0001
0100
1000
0100
0010
1000
,
0001
0000
0100
0000
1000
0000
0100
0000
0010
0000
1000
0000
0001
0000
0100
0010
,
0100
0000
0001
0000
0010
0000
0100
0000
1000
0010
1000
0000
0001
0000
0010
0000
,
0001
1000
0001
0000
0010
0000
0100
0000
1000
0010
1000
0000
0001
0000
1000
0000
,
0010
0001
0010
0100
0001
1000
0001
0000
,
0010
0001
0010
0000
0100
0010
0100
0000
1000
0100
1000
0100
0010
0000
0001
0000
,
1000
0000
0000
0000
0100
0000
0010
0000
0001
0000
0000
0000
0000
0000
1000
0001
,
1000
0000
0100
0000
0010
0000
0100
0000
1000
0000
0000
0000
0010
0100
0010
0000
,
1000
0100
0010
0002
0000
1003
0010
1000
,
0001
0000
0100
0000
0001
0000
0100
0000
0010
0000
0000
0000
1000
0001
1000
0000
,
0100
0010
0100
1000
0010
0000
0000
0000
,
0100
0001
0010
0001
0100
0000
0000
0000
,
1001
0101
1010
1001
,
1000
0010
1000
0000
0010
0100
0010
0000
0100
0001
0200
0000
0000
0000
0000
0000
,
0301
0000
1000
0000
0100
1000
0100
0000
0010
0000
0100
0000
0010
0001
0010
0000
,
0001
0000
0100
0000
0010
0100
0010
0000
1000
0000
0100
0000
0010
0001
0010
0000
,
0001
0000
0100
0000
0010
0100
0010
0000
1000
0000
0010
0000
0100
0010
0100
0000
,
0001
0000
0010
0000
0100
1000
0100
0000
0010
0000
0100
0000
1000
0000
0010
0000
,
0100
0000
0001
0100
0001
0100
0001
0000
1000
0000
0100
0000
0010
0000
0001
0000
,
1000
0000
0100
0010
0100
0010
0100
0000
1000
0000
0001
0000
0100
0000
0010
0000
,
0110
0000
0000
1100
0000
0000
0110
0000
,
1001
0000
1000
0100
0001
0100
1000
0100
,
0001
0100
1000
0001
0100
0001
1000
0100
,
0010
0001
0010
1000
0010
0001
0010
1000
,
0010
0001
1000
0010
1000
0100
0010
0001
,
1000
0000
0001
0000
0010
0100
1000
0100
1000
0100
1000
0000
0100
0010
0001
0010
,
0001
0010
0001
0000
0100
0010
1000
0010
1000
0010
1000
0000
0010
0100
0001
0100
,
0001
0000
0000
0100
0000
0000
0001
0000
0000
0000
0000
0000
0010
0000
0000
0100
0000
0000
0010
0000
0000
0100
0000
0000
1000
0000
0000
0100
0000
0000
1000
0000
0000
0100
0000
0000
1000
0000
0000
0000
0000
0000
0000
0000
1100
0000
0000
0000
,
0000
0000
1001
0000
0000
0000
0101
0000
0000
0000
0000
0000
0001
0000
0000
1000
0000
0000
0001
0000
0000
1000
0000
0000
,
0001
0000
1000
0000
0010
0100
0010
0000
0100
0000
0010
0000
1000
0000
0100
0000
,
0010
0000
0001
1000
0002
0000
0000
0000
0000
0000
0000
0000
0000
0000
0000
0000
,
0003
0000
0000
0000
0100
0001
0100
0000
0001
0000
0010
0000
0100
0000
1000
0001
,
1000
0001
1000
0000
0001
0000
0000
0100
0010
0000
0000
0100
0001
0000
0000
1000
,
0100
0000
0000
0000
1000
0000
0001
0100
0010
0100
0001
0000
0010
0000
0100
1000
,
0100
0010
0100
0000
0010
0000
0001
1000
0010
1000
0001
0000
0010
0000
0100
1000
,
0100
1000
0010
0100
0010
0100
0001
0010
0001
0000
1000
0001
1000
0001
0010
0000
,
0100
0000
1000
0000
0010
0000
0000
0100
0001
0000
0000
1000
0100
0000
0000
0010
,
0100
0000
0000
0000
1000
0010
1000
0010
0100
0001
0010
0000
0001
1000
0001
1000
,
0100
1000
0100
0000
0010
0001
0010
0001
0100
0010
0100
0000
0001
0100
0001
0100
,
0010
1000
0100
0000
0010
0001
0010
0001
0100
0010
0100
0000
0010
1000
0010
1000
,
0001
0010
0001
0000
0010
0100
0010
0100
1000
0010
1000
0010
0100
0001
0100
0001
,
1000
0000
0100
0010
0100
0010
0001
0000
,
0000
0000
0100
0001
0100
0000
0001
0000
1000
0000
0100
0000
0010
0000
0000
0000
,
0000
0000
0001
0100
0001
1000
0100
0000
,
0000
0000
0010
0100
0010
0000
0001
0000
0100
0000
0001
0000
1000
0001
1000
0000
,
0001
0000
0010
0100
1000
0010
0001
0010
,
1000
0100
0001
0100
1000
0001
0100
0001
,
1000
0000
0100
0000
0010
0001
0010
0001
0100
0010
0100
0000
0010
1000
0010
1000
,
0001
0010
0001
0000
0100
0010
0100
0010
0100
0010
1000
0001
1000
0001
1000
0001
,
1000
0100
1000
0100
1000
0000
0000
0000
0001
0000
0010
0000
1000
0000
0010
0000
,
0001
0010
1000
0010
0001
1000
0100
0010
,
0001
0100
1000
0100
0001
0100
1000
0100
,
0001
1000
0010
1000
0001
0010
0100
1000
,
0001
0000
0100
0000
0001
0000
0000
0000
0010
0100
1000
0100
1000
0100
1000
0000
,
0100
0010
0001
0010
0001
0010
0001
0000
0100
0010
1000
0010
1000
0010
1000
0000
,
0010
0100
0001
0100
0001
0100
0001
0000
0010
0100
0010
0100
1000
0100
1000
0100
,
1000
0000
0000
0000
1100
0000
0000
0000
1001
0000
0000
0000
0101
0000
0000
0000
0000
0000
0001
0000
0000
1000
0000
0000
,
0001
0000
1000
0000
0001
0000
1000
0000
0100
0010
0100
0010
0100
0010
0001
0100
,
0001
0100
0001
0100
0010
1000
0010
1000
0002
0000
0000
0000
1000
0000
0000
0000
,
1000
0000
0000
0000
1003
0000
0000
0000
0010
0100
0010
0000
0100
0000
0001
0000
,
0010
0000
0100
1000
0100
0000
1000
0000
0010
0000
0000
0100
0010
0000
0000
0100
,
0001
0000
0000
1000
0100
0000
0000
0000
1000
0001
0100
0001
1000
0000
0100
0000
,
0010
0000
0100
0000
1000
0000
0010
0000
0100
0001
0010
0100
0010
0000
0001
0000
,
0100
0000
0010
0000
0100
0000
0001
0000
0010
0100
1000
0100
0010
0000
0001
0000
,
0100
0000
0001
0000
1000
0000
0100
0000
0010
0001
0010
0001
1000
0100
0010
0000
,
0001
1000
0001
1000
0010
0100
0010
0000
1000
0001
0100
0001
1000
0000
0100
0000
,
0010
0000
0100
0000
1000
0000
0001
0000
0100
0001
0010
0001
0100
0000
0001
0000
,
1000
0000
0100
0000
1000
0000
0001
0000
0010
0001
0010
0001
1000
0010
1000
0010
,
1000
0100
0010
0001
1000
0010
1000
0000
0100
0010
0100
0010
0001
0100
0001
0100
,
0001
0010
0100
1000
0001
0100
0001
0000
1000
0100
0001
0100
1000
0100
0001
0100
,
2000
0000
0000
3000
;

//---------------dance-double - ----------------
#NOTES:
     dance-double:
     :
     Easy:
     7:
     0.371,0.377,0.138,0.098,0.000:
10000000
01000000
10000000
01000000
,
10000000
00001000
01000000
00001000
,
10000000
00100000
01000000
00001000
,
00010000
00010000
00011000
00000000
,
00010000
00000010
00010000
00000010
,
00000100
00000001
00000100
00000001
,
00000010
00000100
00000010
00000100
,
00010000
00001000
00100000
00000000
,
01000000
10000000
01000000
10000000
,
00100000
01000000
00100000
01000000
,
00010000
00100000
00010000
00100000
,
00002000
00000000
00000000
00003000
,
00010000
00000000
00000010
00000000
,
00010000
00000000
00000001
00000000
,
00000010
00000000
00000100
00000000
,
00001000
00000000
00000001
00000000
,
00001000
00000000
00000010
00000000
,
00010000
00000000
00001000
00000000
,
00100000
01000000
00100000
01000000
,
10000000
00000000
00000000
00000000
,
00010000
10000000
00010000
10000000
,
00001000
00100000
00001000
00100000
,
00001000
00010000
00001000
00010000
,
00000100
00000010
00000001
00001000
,
00000001
00000100
00000001
00000100
,
00000001
00001000
00000001
00001000
,
00000100
00010000
00000100
00010000
,
00002000
00000000
00000000
00003000
,
00011000
00000000
00100000
00000000
,
01000000
00000000
10000000
00000000
,
01100000
00000000
00100000
00000000
,
01000000
00000000
00001000
00000000
,
00011000
00000000
00010000
00000000
,
00000010
00000000
00000100
00000000
,
00000110
00000000
00000010
00000000
,
00002002
00000000
00000000
00003003
,
00000001
00001000
00000001
00001000
,
00000010
00010000
00000010
00010000
,
00001000
01000000
00001000
01000000
,
00100000
01000000
00100000
01000000
,
00010000
00100000
01000000
10000000
,
01000000
00100000
00010000
01000000
,
00100000
01000000
00010000
01000000
,
00010000
10010000
10000000
01000000
,
10000000
01000000
00100000
00001000
,
00010000
00001000
00010000
00000010
,
00000100
00000001
00000010
00000100
,
00000000
00000110
00000000
00000110
,
00000000
00011000
00000000
00011000
,
00000000
00001000
00100000
01000000
,
10000000
00200000
00000000
00000000
,
00300000
10000000
01000000
00100000
,
00010000
02000000
00000000
00000000
,
00000000
03100000
10000000
01000000
,
00100000
00002000
00000000
00000000
,
00000000
00013000
00000010
00010000
,
00000010
00000100
00000010
00000100
,
00000010
00001000
00000100
00001000
,
00000100
00000010
00000001
00000100
,
00000001
00000010
00000100
00010000
,
00001000
00010000
00001000
00100000
,
01000000
10000000
00010000
01000000
,
00010000
01000000
00100000
10000000
,
00001000
00010000
00000000
00010000
,
00000000
00000010
00000000
00000010
,
00000000
00000100
00000000
00000100
,
00000000
00000001
00000000
00000010
,
00000000
00000100
00010000
00000100
,
00010000
00001000
00100000
01000000
,
10000000
00010000
10000000
00010000
,
01000000
00100000
00000000
00000000
,
00000000
01100000
01000000
00100000
,
01000000
00100000
10000000
01000000
,
00100000
00001000
00010000
00001000
,
00010000
00001000
00010000
00000010
,
00000100
00000001
00001001
00000000
,
00001001
00000000
00000110
00000000
,
00000110
00000000
00000100
00000010
,
00010000
00001000
00020000
00000000
,
00000000
00000000
00031000
01000000
,
00100000
01000000
00200000
00000000
,
00000000
00000000
10300000
00100000
,
01000000
00100000
20000000
00000000
,
00000000
30000000
00010000
10000000
,
00010000
10000000
00100000
01000000
,
00001000
00010000
00001000
00010000
,
00000100
00000010
00000001
00001000
,
00000001
00000100
00000001
00000100
,
00000001
00000010
00000100
00010000
,
00001000
01000000
00100000
01000000
,
00100000
10000000
01000000
00100000
,
00001000
00010000
00000010
00000000
,
00000220
00000000
00000000
00000330
;

//---------------dance-double - ----------------
#NOTES:
     dance-double:
     :
     Medium:
     12:
     0.565,0.566,0.334,0.163,0.024:
10010000
00000000
10000000
00010000
00000000
10000000
00010000
00000000
,
00100000
01000000
00000000
00100000
01000000
00000000
10000000
00000000
,
00001000
00000000
01000000
00001000
00000000
01000000
00001000
00000000
,
00010000
00000000
00000100
00000000
00000010
00000000
00000001
00000000
00000000
00000000
00000000
00000000
,
00000110
00000000
00000010
00000100
00000000
00000010
00000100
00000000
,
00010000
00000010
00000000
00010000
00000010
00000000
00010000
00000000
,
00001000
00000000
00100000
01000000
00000000
00100000
01000000
00000000
,
10000000
00010000
10000000
00000000
00100000
01000000
00100000
00000000
,
10000000
00000000
01000000
00100000
00000000
01000000
00100000
00000000
,
00010000
00000000
00001000
00000100
00000000
00001000
00000100
00000000
,
00000010
00000000
00000001
00000100
00000000
00000001
00000100
00000000
,
00000220
00000000
00000000
00000330
,
00000010
00000001
00000010
00000001
,
00000010
00000001
00000010
00000001
,
00000010
00000100
00000010
00000100
,
00000010
00000100
00000010
00000100
,
00010000
00001000
00010000
00001000
,
00010000
00001000
00010000
00100000
,
01000000
11000000
10000000
11000000
,
01000000
10000000
00100000
01000000
00000000
00000000
00000000
00000000
,
00010000
00100000
00001000
00000000
00010000
00000000
00000100
00000000
,
00010000
00000100
00000010
00000000
00000001
00000000
00000100
00000000
,
00000010
00000000
00010000
00001000
00000000
00100000
01000000
00000000
,
10000000
00100000
10000000
00100000
10000000
00010000
00100000
00000000
,
00001000
00010000
00000100
00000000
00000010
00000000
00000100
00000000
,
00001000
00000001
00000100
00000000
00000001
00000000
00000010
00000000
,
00000100
00000000
00001000
00010000
00000000
01000000
00100000
00000000
,
10000000
00010000
10000000
00010000
10000000
00010000
01000000
00000000
,
02100000
00000000
03010000
00000000
,
20010000
00000000
31000000
00000000
,
00210000
00000000
00301000
00000000
,
00020010
00000000
00030001
00000000
,
00000120
00000000
00010030
00000000
,
00012000
00000000
01003000
00000000
,
01100000
01000000
00100000
01000000
,
00100000
01000000
10010000
00000000
,
00010000
00100000
00010000
00000000
00100000
01000000
00100000
00000000
,
01000000
10000000
01000000
00000000
10000000
00100000
01000000
00000000
,
00001000
01000000
00001000
00000000
00010000
00001000
00010000
00000000
,
00000010
00000100
00000010
00000000
00001000
00000001
00000100
00000000
,
00000010
00000100
00000010
00000100
00000000
00000000
00000000
00000000
,
00000001
00001000
00000001
00001000
00000000
00000000
00000000
00000000
,
00000101
00000000
00000000
00010010
00000000
00000000
00010000
00000000
,
00011000
00000000
10000000
00100000
10000000
00000000
00010000
10000000
,
00010000
00000000
01000000
00100000
01000000
00100000
01000000
00010000
,
10000000
00000000
01000000
00100000
01000000
00000000
00100000
00001000
,
00100000
00000000
00001000
00010000
00001000
00010000
00001000
00010000
,
00000010
00000110
00000000
00000101
,
00000000
00010010
00000000
00011000
,
00000000
00000000
00000000
00000000
00000000
00000000
00100000
00000000
00000000
01000000
00000000
00000000
10000000
00000000
00000000
00000000
00000000
00000000
00100000
00000000
00000000
00000000
01000000
00000000
,
00000000
00100000
00000000
02200000
00000000
00000000
00000000
00000000
00000000
00000000
00000000
00000000
,
03300000
00000000
01000000
00001000
01000000
00001000
00010000
00001000
,
00010000
00022000
00000000
00000000
,
00033000
00010000
00000100
00000010
,
00000001
00000100
00000110
00000100
,
00000110
00000000
00000010
00000001
00000100
00000000
00000010
00000100
,
00000010
00000000
00000100
00000010
00010000
00000000
00001000
01000000
,
00100000
00000000
01000000
00100000
01000000
00100000
01000000
00100000
,
01000000
00010000
10010000
00010000
,
10010000
00000000
01000000
10000000
00100000
00000000
01000000
00100000
,
01000000
00000000
00100000
01000000
00001000
00000000
00010000
00000100
,
00010000
00000000
00000100
00000010
00000100
00000010
00000100
00000010
,
00000001
00000000
00000010
00000100
00000010
00000100
00000010
00000100
,
00010000
00012000
00000000
01003000
,
00000000
10200000
00000000
01300000
,
00000000
10020000
00000000
00130000
,
00000000
00011000
00001000
00010000
,
00000010
00000000
00000100
00000001
00000010
00000100
00000000
00000000
,
00000000
00000000
00010000
00001000
00100000
01000000
00000000
00000000
,
00000000
00000000
10000000
00100000
10000000
00010000
00100000
00000000
,
00000000
00000000
11000000
00000000
00000000
01001000
00000000
00000000
,
00010000
00000000
00011000
00000000
00000010
00000100
00000010
00000000
,
00000001
00000010
00000100
00000000
00010000
00000010
00010000
00000010
,
00010000
00001000
00100000
00000000
01000000
00000000
10000000
00100000
,
00000000
10000000
00010000
00000000
00100000
00000000
00001000
00010000
,
00000000
00000100
00000010
00000000
00000110
00000000
00000000
00000000
,
00010010
00000000
00011000
00000000
,
01001000
00000000
00000000
00000000
01000000
00100000
00010000
00100000
,
01000000
00000000
10000000
00000000
00100000
00000000
02000000
00000000
00000000
00000000
00000000
00000000
,
00001000
00000000
03001000
00000000
00010000
00001000
00010000
00001000
,
00010000
00001000
00010000
00000000
00022000
00000000
00000000
00000000
,
00000000
00000000
00033000
00000000
00000010
00000100
00000010
00000100
,
00000010
00000100
00000010
00000000
00000100
00000000
00000110
00000000
,
00000100
00000000
00000110
00000000
00000010
00001000
00000010
00001000
,
00000001
00000000
00000010
00000000
00000100
00010000
00000100
00010000
,
00001000
00000000
00100000
00000000
01000000
10000000
01000000
10000000
,
00100000
00000000
01000000
00000000
00100000
10000000
00010000
00000000
,
00100000
00001000
00010000
00000000
00000100
00000010
00000100
00000010
,
00000001
00000000
00000100
00000000
00000010
00010000
00000010
00010000
,
00001000
00000000
00100000
00000000
01000000
10000000
00100000
00000000
,
10000000
00100000
01000000
00000000
00001000
00010000
00000100
00000000
,
00000010
00000001
00000100
00000000
00000010
00000100
00000010
00000100
,
00000220
00000000
00000000
00000330
;

//---------------dance-double - ----------------
#NOTES:
     dance-double:
     :
     Hard:
     14:
     0.698,0.642,0.277,0.073,0.061:
10000000
00000000
00100000
01000000
00000000
00001000
01000000
00000000
,
00001000
00010000
00000000
00000010
00000100
00000001
00000010
00000100
,
00001000
00000001
00001000
00000100
00000000
00001000
00010000
00000000
,
01000000
00000000
01000000
00000000
00100000
00000000
01000000
00000000
00000000
00000000
00000000
00000000
,
00100000
01000000
00100000
10000000
01000000
10000000
00100000
01000000
,
00100000
10000000
01000000
00100000
00001000
00010000
00001000
00000000
,
00010000
00000010
00010000
00000100
00000010
00000100
00010000
00000010
,
00010000
00000100
00000010
00000001
00000010
00000100
00010000
00000000
,
00001000
01000000
00001000
10000000
01000000
10000000
00001000
01000000
,
00001000
10000000
01000000
00100000
00001000
00010000
00000100
00000000
,
00000010
00000001
00000010
00000100
00010000
00000100
00001000
00010000
,
00200000
00000000
00000000
00000000
01300000
00100000
01000000
00100000
,
01000000
00000000
10000000
01000000
10000000
00000000
00100000
01000000
,
00010000
00000000
10000000
00010000
10000000
00000000
00001000
00000000
,
00010000
00000010
00000100
00000000
00000010
00000000
00000100
00000001
,
00000000
00000001
00000000
00000010
00000000
00000010
00000100
00000000
,
00010000
00000000
00001000
01000000
00010000
00000000
01000000
00100000
,
00000000
00100000
00000000
10000000
00000000
10000000
00000000
00000000
,
01100000
01100000
10010000
10010000
,
10000000
01000000
00100000
00002000
00000000
00000000
00003000
00000000
,
00010000
00001000
00010000
00001000
00000010
00000100
00000010
00000100
,
00000001
00000010
00000001
00000010
00000100
00010000
00000100
00010000
,
00001000
00100000
10000000
00100000
00000000
00001000
10000000
00000000
,
01000000
00100000
00001000
00010000
00000100
00000010
00000001
00000100
,
00000010
00001000
00000010
00001000
00000100
00010000
00000100
00010000
,
01000000
00100000
01000000
00100000
10000000
00010000
10000000
00010000
,
00100000
10000000
00100000
00010000
00000000
10000000
00001000
00000000
,
00010000
00000100
00000010
00000001
00000010
00000100
00010000
00001000
,
00010000
00000000
00011000
00000000
,
01000000
00000000
11000000
00000000
,
00100000
00000000
01100000
00000000
,
00001000
00000000
00011000
00000000
,
00000100
00000000
00000110
00000000
,
00000001
00000000
00000101
00000000
,
00011000
00010000
00001000
00010000
,
01100000
01100000
10010000
00000000
,
00010000
01000000
00010000
01000000
00010000
00100000
01000000
10000000
,
00001000
01000000
00100000
01000000
00001000
00010000
00001000
00010000
,
00000100
00000010
00000001
00000010
00000100
00010000
00000010
00010000
,
00000010
00010000
00000100
00000010
00000001
00000010
00000100
00010000
,
00000000
00010000
00001000
01000000
00000000
01000000
00100000
10000000
,
01000000
00100000
00010000
01000000
00000000
01000000
00001000
00010000
,
00000100
00000000
00000000
00000101
00000000
00000000
00000110
00000000
,
00001010
00000000
00000010
00000100
00000010
00000100
00000001
00000010
,
00000001
00000010
00000100
00010000
00001000
00100000
01000000
10000000
,
00010000
01000000
00010000
01000000
00010000
10000000
00000000
01000000
,
10000000
00100000
00000000
01000000
00010000
00001000
00000010
00000100
,
00000010
00000000
00000000
00000000
00001000
00000010
00001000
00000000
00000000
00000000
00000000
00000000
00000001
00000100
00000001
00000000
,
00000000
00000000
00000000
00000000
00001000
00000001
00001000
00000000
00000000
00000000
00000000
00000000
00000001
00001000
00000001
00000000
,
00000000
00000000
00000000
00000000
00000000
00000000
00000010
00000000
00000000
00000100
00000000
00000000
00010000
00000000
00000000
00001000
00000000
00000000
00100000
00000000
00000000
00000000
00100000
00000000
,
00000000
01000000
00000000
00100000
00000000
00000000
00100000
00000000
00000000
00100000
00000000
00000000
,
00100000
00000000
00100000
10000000
01000000
00100000
00010000
00100000
,
10000000
00100000
00020000
00000000
00000000
00000000
00000000
00000000
,
00000000
00000000
00130000
00001000
00010000
00000010
00000100
00000001
,
00001000
00000100
00001100
00000000
00001100
00000000
00001001
00000000
,
00001001
00000000
00001000
00000100
00000001
00000100
00001000
00000010
,
00000001
00000010
00001000
00000100
00010000
01000000
00100000
01000000
,
00001000
00100000
10000000
00100000
00001000
01000000
10000000
01000000
,
00001000
00100000
02000000
00000000
23000000
00000000
30200000
00000000
,
01300000
00000000
00001000
01000000
00100000
01000000
00001000
10000000
,
01000000
10000000
00010000
00001000
00000010
00000100
00000010
00001000
,
00000001
00000010
00000001
00000100
00001000
00000100
00000001
00000010
,
00001000
00000010
00000001
00000100
00000010
00001000
00010000
01000000
,
00100000
01100000
00000000
01000000
,
00000000
01010000
00000000
00100000
,
00000000
00101000
00000000
00010000
,
00000000
00000110
00000000
00000001
,
00000001
00000000
00000001
00000010
00000100
00010000
00000000
00010000
,
00001000
00100000
10000000
00100000
00001000
00010000
00000000
00010000
,
00000010
00000000
00000100
00000000
00000001
00000000
00000100
00000000
00000010
00000000
00010000
00000000
00001000
00000000
00000000
01000000
,
00000000
00100000
10100000
00000000
00000000
01100000
00000000
00000000
,
01001000
00000000
00011000
00000000
00010000
00000010
00010000
00000010
,
00000100
00000001
00000100
00000001
00000010
00000100
00000010
00000100
,
00010000
00001000
01000000
00100000
10000000
01000000
00010000
01000000
,
10000000
00010000
10000000
00100000
00010000
00100000
10000000
01000000
,
00100000
00000000
00001000
00000000
00010000
00000000
00000000
00000000
00000010
00000100
00000010
00000000
00000000
00000000
00000000
00000000
,
00000100
00000010
00000100
00000000
00000000
00000000
00000000
00000000
00000001
00000010
00000001
00000000
00000000
00000000
00000000
00000000
,
00001000
00000100
00001000
00000000
00000000
00000000
00000000
00000000
00000100
00000000
00000010
00000000
00000001
00000000
00001000
00000000
,
00000010
00000000
00000010
00000000
00000100
00000000
00000010
00000000
00000000
00000010
00000000
00000000
,
00000010
00000100
00000010
00000100
00000001
00000010
00000100
00010000
,
00001000
00100000
10000000
00100000
00002000
00000000
00010000
00000000
,
00010000
00000000
00013000
00000000
00001000
00010000
00000010
00000001
,
00000010
00010000
00000100
00000010
00000011
00000000
00000011
00000000
,
00001010
00000000
00001010
00000000
00000010
00001000
00000100
00000001
,
00000100
00010000
00000000
00010000
00001000
00100000
01000000
00100000
,
00001000
10000000
00010000
10000000
01000000
00010000
01000000
10000000
,
00000000
10000000
00100000
01000000
00100000
10000000
01000000
00100000
,
00001000
00010000
00000100
00000010
00000001
00001000
00000010
00000001
,
00000010
00001000
00000000
00001000
00000100
00001000
00010000
01000000
,
00100000
10000000
01000000
00010000
01000000
10000000
00010000
00100000
,
01000000
10000000
00001000
00010000
00000000
00000100
00000010
00000001
,
00001000
00010000
01000000
00100000
10000000
01000000
00001000
00000100
,
00000202
00000000
00000000
00000303
;

//---------------dance-double - ----------------
#NOTES:
     dance-double:
     :
     Challenge:
     18:
     1.000,1.000,0.171,0.081,0.851:
10000000
01000000
10000000
00010000
01000000
00010000
10000000
01000000
,
10000000
00010000
01000000
00001000
00010000
00000100
00000010
00000001
,
00000010
00000100
00000010
00000100
00000010
00000001
00000010
00000100
,
00000110
00000000
00000000
00000000
00000000
00000000
00000000
00000000
00010010
00000000
00000000
00000000
00000000
00000000
00000000
00000000
00011000
00000000
00000000
00000000
00000000
00000000
00000000
00000000
00001000
00000000
00000000
00100000
00000000
00000000
00001000
00000000
00000000
00100000
00000000
00000000
01000000
00000000
00000000
10000000
00000000
00000000
01000000
00000000
00000000
10000000
00000000
00000000
,
01000000
00100000
01000000
00000000
10000000
00000000
00010000
01000000
00010000
00000000
01000000
00100000
01000000
00000000
00010000
00000000
,
00001000
00000000
00000010
00000100
00000010
00000000
00000100
00000001
00000100
00000000
00000001
00000000
00000100
00000000
00000010
00000000
,
00000100
00000001
00000100
00000000
00000001
00000000
00010000
00000100
00010000
00000000
00001000
00010000
00001000
00000000
01000000
00000000
,
00100000
10000000
00100000
10000000
01000000
00100000
01000000
00000000
10000000
00100000
10000000
00100000
01000000
00100000
01000000
00000000
,
00001000
00100000
00001000
00000000
00010000
00000000
00000100
00000010
00000100
00000000
00001000
00000010
00001000
00000000
00000001
00000000
,
00000010
00000000
00000100
00000010
00000100
00000000
00010000
00000100
00010000
00000000
00001000
00010000
00001000
00000000
01000000
00000000
,
00100000
01000000
00100000
00000000
10000000
00000000
01000000
10000000
01000000
00000000
00100000
01000000
00100000
00000000
00001000
00000000
,
00020000
00000000
00000000
00000000
00001000
00000000
00000000
00000000
00031000
00000000
00010000
00001000
00010000
00001000
00010000
00001000
,
00010000
00000010
00010000
00000010
00000100
00000001
00000100
00000001
,
00000010
00000100
00001000
00000000
00010000
00001000
00010000
00001000
,
01000000
00100000
01000000
00100000
01000000
00010000
00100000
02000000
,
00000000
23000000
00000000
32000000
00000000
10000000
13000000
00000000
,
00100000
01000000
00100000
01000000
00001000
00100000
00001000
00100000
,
00000100
00000010
00000100
00000000
00001000
00000001
00001000
00000001
,
00000100
00000010
00010000
00000010
00000100
00000010
00010000
00000010
,
00000100
00000000
00000001
00000000
00000010
00000000
00000200
00000000
00000000
00000000
00010300
00001000
00010000
00001000
00010000
00001000
,
00010000
00000000
00001000
00000000
01000000
00100000
01000000
00000000
00010000
00000000
10000000
00000000
00100000
10000000
00100000
00000000
,
10000000
00000000
01000000
00000000
00100000
00010000
00100000
00000000
00001000
00000000
00010000
00000000
00000010
00000100
00000010
00000000
,
00001000
00000010
00000001
00000010
00000100
00000001
00001000
00000100
,
00000001
00000000
00001000
00000000
00000100
00000000
00000010
00000000
00010000
00000000
00001000
00000000
00100000
00000000
01000000
00100000
,
01000000
00000000
10000000
00000000
00100000
00000000
01000000
00000000
00010000
01000000
00010000
00000000
00100000
00000000
01000000
00000000
,
10000000
00010000
10000000
00000000
00100000
00000000
01000000
00000000
00001000
00100000
00001000
00000000
00010000
00000000
00000100
00000000
,
00000010
00010000
00000010
00000001
00010000
00000100
00010000
00000000
,
00001000
00010000
00001000
00000000
01000000
00100000
01000000
00000000
00010000
10000000
00010000
10000000
00010000
00000000
00100000
00000000
,
01000000
00000000
00000000
00000000
10000000
00000000
00100000
00000000
01000000
00000000
00000000
00000000
00000000
00000000
00001000
00010000
,
00001000
00000000
00010000
00000000
00000010
00000000
00000100
00000000
00000010
00000000
00000000
00000000
00001000
00000001
00001000
00000000
,
00000100
00000010
00000001
00020000
00000000
00031000
00100000
00001000
,
01000000
00000000
00100000
00000000
01000000
00000000
00001000
00000000
10000000
00000000
00000000
00000000
01000000
10000000
01000000
00000000
,
00100000
00010000
01000000
00001000
00010000
00000000
00000000
00000000
,
00000100
00000010
00000001
00000010
00000100
00000000
00000000
00000000
,
00011000
00011000
01100000
01100000
,
10000000
00100000
10000000
00000000
00100000
01000000
00100000
00000000
01000000
00010000
02000000
00000000
00000000
00000000
00000000
00000000
,
03010000
00000000
10000000
00000000
01000000
10000000
01000000
00000000
00100000
00000000
01000000
00000000
00100000
00010000
00100000
00000000
,
00001000
00000000
00010000
00000000
00000010
00000100
00000010
00000000
00001000
00000000
00000001
00000000
00000010
00000001
00000010
00000000
,
00000100
00000000
00001000
00000000
00010000
00001000
00010000
00000000
01000000
00000000
00100000
00000000
10000000
00100000
10000000
00000000
,
01000000
00000000
00100000
00000000
00001000
01000000
00001000
00000000
00010000
00000000
00000100
00000000
00000010
00000000
00000001
00000000
,
00000100
00000000
00000010
00000100
00000010
00000100
00000010
00000000
00001000
00000000
00010000
00000000
01000000
00000000
00100000
00000000
,
10000000
00000000
01000000
00100000
01000000
00100000
01000000
00000000
10000000
00000000
00100000
00000000
01000000
00000000
00001000
00000000
,
00011000
00000000
00000000
00010010
00000000
00000000
00000011
00000000
,
00001001
00000000
00001000
00000010
00000001
00000010
00001000
00000010
,
00000001
00000010
00001000
00000100
00010000
00001000
01000000
00100000
,
10000000
01000000
00010000
01000000
10000000
01000000
00010000
01000000
,
10000000
01000000
00010000
01000000
10000000
00100000
01000000
00010000
,
00001000
00000000
00000010
00000000
00000100
00000001
00000100
00000001
00000100
00000010
00000100
00000000
00000010
00010000
00000010
00010000
,
00000010
00010000
00001000
00000000
01000000
00100000
10000000
00100000
10000000
00100000
10000000
00000000
00100000
01000000
00010000
01000000
,
00010000
00000000
00000000
01000000
00000000
00000000
00010000
00000000
00000000
00000000
00000000
00000000
00100000
00000000
00000000
01000000
00000000
00000000
00100000
00000000
00000000
01000000
00000000
00000000
10000000
00000000
00000000
01000000
00000000
00000000
10000000
00000000
00000000
01000000
00000000
00000000
10000000
00000000
00000000
00000000
00000000
00000000
00000000
00000000
11000000
00000000
00000000
00000000
,
00000000
00000000
10001000
00000000
00000000
00000000
00011000
00000000
00000000
00000000
00000000
00000000
00010000
00000000
00000000
00001000
00000000
00000000
00010000
00000000
00000000
00001000
00000000
00000000
,
00010000
00000000
00000010
00000000
00000100
00000010
00000100
00000000
00000001
00000000
00000010
00000000
00000100
00000000
00010000
00000000
,
00001000
00000000
00100000
01000000
00200000
00000000
00000000
00000000
00000000
00000000
00000000
00000000
00000000
00000000
00000000
00000000
,
00300000
00000000
00000000
00000000
01000000
00010000
01000000
00000000
00010000
00000000
00100000
00000000
01000000
00000000
10000000
00010000
,
10000000
00010000
10000000
00000000
10010000
00000000
00000000
00000000
00101000
00000000
00000000
00000000
00011000
00000000
00000000
00000000
,
00010010
00000000
00000000
00000000
00000010
00000000
00001000
00000100
00000010
00000100
00001000
00000000
00000010
00000000
00000100
00000001
,
00000010
00000001
00001000
00000000
00000100
00000000
00010000
00001000
00100000
01000000
10000000
00000000
00100000
00000000
01000000
00010000
,
01000000
00010000
00100000
01000000
00100000
01000000
10000000
00100000
10000000
00000000
00010000
01000000
00010000
01000000
00001000
00000000
,
00010000
00000000
00000100
00000000
00000010
00000000
00000001
00000100
00000001
00000000
00001000
00000010
00001000
00000000
00000010
00000100
,
00000010
00000000
00000000
00000000
00010000
00001000
00010000
00001000
01000000
00100000
10000000
00000000
00100000
01000000
00100000
01000000
,
00010000
00100000
00001000
00000000
00010000
00001000
00010000
00001000
00000100
00000010
00000100
00000000
00001000
00000010
00001000
00000010
,
00000100
00000001
00000010
00000000
00000100
00010000
00000100
00010000
00001000
00100000
01000000
00000000
10000000
00100000
10000000
00100000
,
01000000
00100000
01000000
00000000
00001000
01000000
00001000
01000000
00010000
00001000
00010000
00001000
00000010
00000100
00000010
00000100
,
00000001
00000000
00000100
00000001
00000010
00000001
00000100
00000000
,
00000000
00000000
00000001
00001000
00000001
00000000
00000010
00000000
00000100
00000000
00001000
00000000
00010000
00000000
00000000
00000000
,
00000000
00000000
01000000
00010000
00100000
00010000
01000000
00000000
,
00000000
00000000
00100000
01000000
00100000
00000000
10000000
00000000
01000000
00000000
00100000
00000000
00001000
00010000
00001000
00000000
,
00010000
00000000
00000100
00000010
00000001
00000100
00001000
00000100
,
00000001
00000010
00000100
00001000
00010000
01000000
10000000
01000000
,
00010000
00000000
10000000
00000000
00100000
01000000
00100000
01000000
00001000
00100000
00001000
00000000
00010000
00001000
00010000
00001000
,
00000100
00000010
00000100
00000000
00001000
00000010
00001000
00000010
00001000
00000010
00010000
00001000
00010000
00001000
00010000
00001000
,
01000000
00100000
01000000
00100000
01000000
00000000
00000000
00000000
00010000
00000000
00100000
00000000
10000000
00000000
00100000
00000000
,
00010000
00100000
10000000
00100000
00010000
01000000
00001000
00010000
,
00000100
00000010
00000001
00000100
00001000
00000100
00000001
00000100
,
00001000
00000100
00000001
00000100
00001000
00000100
00000001
00000010
,
00000100
00000000
00001000
00000000
00010000
00000000
00000000
00000000
00100000
01000000
10000000
01000000
10000000
01000000
10000000
00000000
,
00100000
01000000
00001000
01000000
00001000
01000000
00001000
00000000
00010000
00000100
00000010
00000100
00000010
00000100
00000010
00000000
,
00000001
00001000
00000010
00001000
00000010
00001000
00000010
00000000
00010000
00001000
00010000
00001000
01000000
00100000
01000000
00100000
,
01000000
00000000
00000000
00000000
01100000
00000000
00000000
00000000
00101000
00000000
00000000
00000000
00011000
00000000
00000000
00000000
00000000
00000000
00010000
00000000
00000000
00001000
00000000
00000000
,
00010000
00000000
00001000
00000000
00010000
00000000
00001000
00000000
00000100
00000010
00000100
00000010
00000100
00000010
00000001
00000100
,
00000001
00000100
00000001
00000100
00000010
00010000
00000010
00010000
00002000
00000000
00000000
00000000
00010000
00000000
00000000
00000000
,
00010000
00000000
00000000
00000000
00013000
00000000
00000000
00000000
00100000
01000000
00100000
00000000
00010000
00000000
00100000
00000000
,
01000000
00000000
10000000
00100000
10000000
00000000
00010000
00000000
00100000
00000000
01000000
00100000
01000000
00000000
10000000
00100000
,
10000000
00000000
00010000
01000000
00010000
00000000
00000000
00000000
10000000
00010000
01000000
00010000
10000000
00000000
01000000
00000000
,
00100000
00000000
01000000
00000000
10000000
00000000
00001000
00000000
00010000
00000100
00000010
00000100
00010000
00000000
00000001
00000000
,
00000100
00000000
00000001
00000000
00010000
00000000
00001000
00000000
00100000
01000000
10000000
01000000
00100000
00000000
00010000
00000000
,
00001000
00000000
00000010
00000000
00000100
00000000
00000010
00000000
00000100
00000001
00000100
00000001
00000010
00000100
00001000
00000000
,
00010000
00001000
00010000
00001000
00100000
01000000
00100000
00000000
10000000
00010000
01000000
00010000
10000000
00000000
01000000
00000000
,
00100000
00000000
01000000
00000000
10000000
00000000
00001000
00000000
00010000
00000010
00000100
00000010
00010000
00000000
00000100
00000000
,
00000010
00000000
00000001
00000000
00000010
00000000
00000100
00000000
00010000
00000100
00010000
00000100
00001000
00010000
00001000
00010000
,
01000000
00100000
10000000
00100000
01000000
00010000
10000000
00000000
01000000
00100000
01000000
00100000
00001000
01000000
00001000
01000000
,
00001000
00010000
00000100
00000010
00000001
00000100
00000001
00000000
00001000
00000100
00000010
00000100
00010000
00001000
00100000
01000000
,
00200000
00000000
00000000
00300000
;

//---------------dance-single - ----------------
#NOTES:
     dance-single:
     :
     Beginner:
     5:
     0.165,0.225,0.024,0.000,0.000: // measure 1
1000
0000
0000
0000
,  // measure 2
0001
0000
0000
0000
,  // measure 3
1000
0000
0000
0000
,  // measure 4
0010
0000
0000
0000
,  // measure 5
0100
0000
0001
0000
,  // measure 6
0100
0000
0001
0000
,  // measure 7
0100
0000
0001
0000
,  // measure 8
1000
0000
0000
0000
,  // measure 9
0010
0000
1000
0000
,  // measure 10
0010
0000
1000
0000
,  // measure 11
0010
0000
1000
0000
,  // measure 12
0001
0000
0000
0000
,  // measure 13
1000
0000
0000
0000
,  // measure 14
0000
0000
0000
0000
,  // measure 15
0100
0000
0000
0000
,  // measure 16
0000
0000
0000
0000
,  // measure 17
0010
0000
0000
0000
,  // measure 18
0000
0000
0000
0000
,  // measure 19
0001
0000
0001
0000
,  // measure 20
0001
0000
0000
0000
,  // measure 21
0100
0000
0010
0000
,  // measure 22
0100
0000
0010
0000
,  // measure 23
0100
0000
0010
0000
,  // measure 24
0100
0000
0010
0000
,  // measure 25
0100
0000
0001
0000
,  // measure 26
0100
0000
0001
0000
,  // measure 27
0100
0000
0001
0000
,  // measure 28
0100
0000
0000
0000
,  // measure 29
0001
0000
0000
0000
,  // measure 30
0000
0000
0000
0000
,  // measure 31
1000
0000
0000
0000
,  // measure 32
0000
0000
0000
0000
,  // measure 33
0100
0000
0000
0000
,  // measure 34
0000
0000
0000
0000
,  // measure 35
0010
0000
0010
0000
,  // measure 36
0010
0000
0000
0000
,  // measure 37
0001
0000
1000
0000
,  // measure 38
0001
0000
1000
0000
,  // measure 39
0100
0000
1000
0000
,  // measure 40
0100
0000
1000
0000
,  // measure 41
0010
0000
0000
0000
,  // measure 42
0010
0000
0000
0000
,  // measure 43
0110
0000
0000
0000
,  // measure 44
0000
1000
0000
0001
,  // measure 45
0000
1000
0000
0001
,  // measure 46
0000
0100
0000
0001
,  // measure 47
0000
0100
0000
0001
,  // measure 48
0000
1000
0000
0100
,  // measure 49
0000
0010
0000
0001
,  // measure 50
0000
1000
0000
1000
,  // measure 51
0000
0000
0000
0000
,  // measure 52
0000
0100
0000
1000
,  // measure 53
0000
0100
0000
0000
,  // measure 54
0000
0010
0000
0001
,  // measure 55
0000
0010
0000
0000
,  // measure 56
0000
0001
0000
1000
,  // measure 57
0000
0001
0000
1000
,  // measure 58
0000
0010
0000
0100
,  // measure 59
0000
0010
0000
0010
,  // measure 60
0000
1000
0000
0100
,  // measure 61
0000
0010
0000
0001
,  // measure 62
0000
0100
0000
0010
,  // measure 63
0000
0100
0000
0100
,  // measure 64
0000
1001
0000
0000
,  // measure 65
0000
0001
0000
0000
,  // measure 66
0000
1000
0000
0000
,  // measure 67
0000
0000
0000
0000
,  // measure 68
0000
0001
0000
1000
,  // measure 69
0000
0001
0000
1000
,  // measure 70
0000
0100
0000
0100
,  // measure 71
0000
0100
0000
0000
,  // measure 72
0000
0000
0010
0000
,  // measure 73
0100
0000
0010
0000
,  // measure 74
0100
0000
0001
0000
,  // measure 75
0010
0000
0001
0000
,  // measure 76
0010
0000
0100
0000
,  // measure 77
1000
0000
0010
0000
,  // measure 78
0100
0000
0001
0000
,  // measure 79
0000
0000
0000
0000
,  // measure 80
1000
0000
0100
0000
,  // measure 81
0000
0000
0010
0000
,  // measure 82
0000
0000
0001
0000
,  // measure 83
0000
0000
1000
0000
,  // measure 84
1000
0000
0001
0000
,  // measure 85
0100
0000
0001
0000
,  // measure 86
0100
0000
0010
0000
,  // measure 87
1000
0000
0001
0000
,  // measure 88
0001
0000
0100
0000
,  // measure 89
0001
0000
0100
0000
,  // measure 90
0001
0000
1000
0000
,  // measure 91
1000
0000
0100
0000
,  // measure 92
0100
0000
0010
0000
,  // measure 93
1001
0000
0000
0000
;
