#TITLE:ユメユメアラウンド;
#SUBTITLE:~だってYou&Me~;
#ARTIST:マッカチン企画 feat.AIRI;
#TITLETRANSLIT:YUME YUME AROUND;
#SUBTITLETRANSLIT:~DATTE You&Me~;
#ARTISTTRANSLIT:MAKKACHIN KIKAKU feat.AIRI;
#CREDIT:DigiMindAxel;
#BANNER:YUME YUME AROUND ~DATTE You&Me~.png;
#BACKGROUND:YUME YUME AROUND ~DATTE You&Me~-bg.png;
#LYRICSPATH:YUME YUME AROUND ~DATTE You&Me~.lrc;
#CDTITLE:pop'n music.png;
#MUSIC:YUME YUME AROUND ~DATTE You&Me~.ogg;
#METERTYPE:DDR X;
#OFFSET:-6.053;
#SAMPLESTART:53.491;
#SAMPLELENGTH:12.000;
#SELECTABLE:YES;
#BPMS:0.000=185.000;
#STOPS:306.500=0.649
;
#BGCHANGES:;

//---------------dance-single - ----------------
#NOTES:
     dance-single:
     :
     Easy:
     5:
     0.214,0.279,0.105,0.097,0.000:
2000
0000
0100
0000
,
3200
0000
0010
0000
,
0320
0000
0001
0000
,
0031
0000
0000
0000
,
0001
0000
0100
0000
,
0001
0000
0100
0000
,
0001
0000
1000
0000
,
0001
0000
1000
0000
,
1001
0000
0001
0000
,
1001
0000
0000
0000
,
0010
0000
0010
0000
,
0110
0000
0000
0000
,
1000
0000
0100
0000
,
1000
0000
0100
0000
,
1000
0000
0001
0000
,
1000
0000
0001
0000
,
1001
0000
1000
0000
,
1001
0000
0000
0000
,
0010
0000
0010
0000
,
0110
0000
0000
0000
,
0100
0000
0001
0000
,
0010
0000
0001
0000
,
0100
0000
0010
0000
,
0100
0000
0010
0000
,
1000
0000
0001
0000
,
0100
0000
0001
0000
,
1000
0000
0100
0000
,
0010
0000
0000
0000
,
0001
0000
0100
0000
,
0001
0000
1000
0000
,
0001
0000
0100
0000
,
0001
0000
1000
0000
,
1001
0000
0000
0000
,
0001
0000
0000
0000
,
1001
0000
0000
0000
,
1000
0000
0000
0000
,
0000
0000
0000
0000
,
0001
0000
0010
0000
,
0001
0000
0010
0000
,
0100
0000
0010
0000
,
0110
0000
0000
0000
,
1000
0000
0100
0000
,
1000
0000
0001
0000
,
1000
0000
0100
0000
,
0010
0000
0001
0000
,
1000
0000
0010
0000
,
0100
0000
0010
0000
,
1000
0000
0100
0000
,
0110
0000
0000
0000
,
0001
0000
0100
0000
,
0010
0000
0100
0000
,
0001
0000
0001
0000
,
1000
0000
1000
0000
,
1001
0000
0000
0000
,
0001
0000
0000
0000
,
1000
0100
1000
0000
,
0001
1000
0001
1000
,
0000
0100
1000
0100
,
0000
0010
0001
0010
,
0000
0100
0010
0100
,
0010
0100
0010
0001
,
0000
0100
0010
0100
,
0010
1000
0100
0010
,
0000
0001
0100
0001
,
0000
1000
0100
1000
,
0000
0001
0000
1000
,
0000
0000
0002
0000
,
1003
0000
0001
0000
,
0010
0000
0100
0000
,
2000
0000
0000
0000
,
3200
0000
0000
0000
,
2300
0000
0000
0000
,
3000
0000
0000
0000
,
0001
0000
0001
0000
,
1000
0000
1000
0000
,
0001
0000
1000
0000
,
0001
0000
0000
1001
,
0000
0000
0010
0000
,
0100
0000
0010
0000
,
1000
0000
0002
0000
,
0000
0000
1003
0000
,
0001
0000
0010
0000
,
0001
0000
0200
0000
,
0320
0000
0230
0000
,
0320
0000
0130
0000
,
0000
0000
0100
0000
,
0000
0000
0000
1001
;

//---------------dance-single - ----------------
#NOTES:
     dance-single:
     :
     Medium:
     9:
     0.488,0.489,0.403,0.064,0.000:
1001
0010
0100
1000
,
0001
1000
0100
0010
,
0001
1000
0010
0100
,
0001
0000
1000
0001
0000
0001
0000
1001
,
0000
0000
0100
0000
1000
0000
0010
0100
,
0010
0000
1000
0000
0001
0000
0010
0100
,
0010
0000
0001
0000
1000
0000
0001
0100
,
0001
0000
0010
0000
0100
0000
1000
0001
,
1000
0000
0000
0001
1000
0000
0000
1001
,
0000
0001
0000
0001
0000
0000
0000
0000
,
0010
0000
0100
1000
0010
0100
0000
0001
,
0000
0001
0000
1001
0000
1001
0000
0000
,
1000
0000
0001
0000
0100
0001
0100
0000
,
0001
0000
1000
0000
0100
0010
0100
0000
,
1000
0000
0001
0000
0100
0001
0100
0000
,
0001
0000
1000
0000
0100
0000
0010
0001
,
0010
0000
0000
0001
0010
0000
0000
1001
,
0000
0001
0000
0001
0000
0000
0000
0000
,
0010
0000
0100
1000
0010
0100
0000
0001
,
0000
0001
0000
0001
0000
0001
0000
0000
,
0110
0000
0100
0000
0001
0010
0100
0000
,
1000
0000
0001
0000
0010
0100
1000
0000
,
0001
0000
0100
0000
0010
1000
0100
0000
,
1000
0100
0010
0001
0000
1000
0100
1000
,
0001
0000
0100
0000
0010
1000
0010
0000
,
1000
0000
0001
0000
0010
0001
0010
0000
,
0100
1000
0001
0100
,
0001
0000
1000
0100
0000
0100
0000
0110
,
0000
0000
1000
0000
0100
0010
0100
0000
,
0010
0000
0001
0000
1000
0010
1000
0100
,
0010
0001
1000
0000
0001
0000
0100
0010
,
0100
0001
1000
0001
,
1001
0000
1001
0000
0010
0000
0100
0010
,
0000
0100
0001
1000
,
1001
0000
1001
0000
0010
0000
0010
0200
,
0000
0000
0000
0000
,
0310
0000
0010
0000
0010
0000
0000
0110
,
0000
0000
0100
0000
0010
0001
0100
0010
,
0000
0000
1000
0000
0100
0010
0001
0100
,
0000
0001
0100
0001
1000
0000
0000
1010
,
0000
1010
0000
0110
0000
0110
0000
0101
,
0000
0000
0001
0000
0100
0010
0100
0000
,
0001
0000
1000
0000
0100
0010
0100
0010
,
0000
0001
0100
0001
0000
1000
0010
1000
,
0000
0001
1000
0001
0000
0000
0000
1001
,
0000
0000
0010
0000
0100
1000
0010
0100
,
0000
0000
0001
0000
0100
0000
0010
1000
,
0100
0000
0010
0000
0001
0000
0000
0011
,
0000
0011
0000
1001
0000
1001
0000
1100
,
0000
0000
1001
0000
0100
0000
0010
0001
,
0010
0000
0100
0010
0100
0000
1000
0001
,
0000
1000
0100
1000
0000
0001
1000
0001
,
0000
0100
0001
0100
0000
0000
0000
0000
,
1001
0010
0100
1000
,
0001
0000
0010
0000
0100
0000
0000
1001
,
0000
0001
0100
0001
1000
0000
0100
0000
,
0011
0000
0110
0000
1100
0000
0000
1001
,
0000
1000
0100
1000
0001
0000
0100
0000
,
0010
0000
1000
0000
0001
1000
0000
1001
,
0000
0000
0100
0000
0000
1000
0000
0000
,
0010
0000
0000
0100
0000
0001
0000
1001
,
0000
1000
0100
1000
0001
0000
0100
0000
,
0010
0000
1000
0000
0100
0000
0000
0110
,
0000
0100
0001
1000
0100
0000
0000
0110
,
0000
0100
1000
0001
0100
0000
0000
0110
,
0000
0100
0001
0100
0000
0001
1000
0001
,
0000
1000
0001
0000
0101
0000
0000
0000
,
2100
0000
3002
0000
,
0023
0000
0230
0000
,
2300
0000
0000
0000
,
3200
0000
0000
0000
,
2300
0000
0000
0000
,
3000
0000
0000
0000
,
1001
0100
0010
0001
,
1000
0000
0100
0000
1000
0000
0000
1001
,
0000
0000
0000
1100
0000
0000
0000
0011
,
0000
0000
0000
0000
0001
1000
1001
0000
,
0010
0100
1000
0010
0000
0000
0100
0000
,
0001
0010
0100
1000
0000
0001
1000
0100
,
1000
0000
0000
1001
0000
1001
0000
0101
,
0000
0101
0000
1100
0000
0000
1000
0000
,
0001
0100
0001
0000
1000
0000
0100
0000
,
0010
0001
0100
0010
0000
1000
0100
1000
,
0000
0001
1000
0001
0000
0100
0001
0100
,
0000
0000
1001
0010
,
0100
1000
0001
0010
,
0100
1000
0000
1001
;

//---------------dance-single - ----------------
#NOTES:
     dance-single:
     :
     Hard:
     13:
     0.663,0.664,0.475,0.072,0.060:
2001
0000
0000
0000
0100
0100
0000
3200
,
0000
0000
0000
0000
0010
0010
0000
0320
,
0000
0000
0000
0000
0001
0001
0000
0031
,
1000
0010
0100
0110
0000
0110
0000
0011
,
0000
0000
0001
1000
0100
0000
0010
0100
,
0010
0000
0100
1000
0010
0000
0100
0010
,
0100
0000
0001
0010
0100
0000
0010
0001
,
0010
0000
0001
0010
0100
1000
0010
1000
,
1010
0000
0000
0100
0110
0000
0000
0101
,
0000
0101
0000
0101
0000
0000
0000
0000
,
0001
0100
1000
0100
0001
0010
0100
1100
,
0000
1100
0000
0101
0000
0101
0000
0000
,
0100
0000
0100
1000
0010
0000
0010
0100
,
0010
0000
1000
0100
0010
0000
0010
0001
,
0010
0000
0100
1000
0010
0000
0010
0100
,
0010
0000
0100
0001
0010
0100
1000
0001
,
1001
0000
0000
0100
1100
0000
0000
0110
,
0000
0110
0000
0101
0000
0000
0000
0000
,
0001
0010
1000
0010
0001
1000
0100
0110
,
0000
0110
0000
0011
0000
0011
0000
0000
,
0001
1000
0010
1000
0001
1000
0010
1000
,
0001
0010
0100
0010
0001
0010
0100
0010
,
0001
1000
0010
1000
0001
1000
0010
1000
,
0001
0010
0100
1000
0000
1000
0010
0100
,
0001
1000
0010
1000
0001
1000
0010
1000
,
0001
0010
0100
0010
0001
0010
0100
0010
,
0001
0100
0010
0100
0001
0100
0010
0100
,
0001
0000
0100
0101
0000
0101
0000
1001
,
0000
1000
0100
1000
0001
0100
0001
1000
,
0100
0010
0100
1000
0100
0010
0100
1000
,
0001
0100
0010
0100
0001
0100
0010
0100
,
0001
0010
0100
1000
0001
0010
0100
0000
,
1000
1000
1000
0000
0010
0000
0100
0002
,
0000
1000
0100
1003
,
0001
0001
0001
0000
0100
0000
0010
2000
,
0000
0000
0000
3000
,
0001
0010
0100
1000
0001
0001
0000
1001
,
0000
1000
0001
1000
0010
0001
0010
1000
,
0000
0001
1000
0010
0001
0010
1000
0001
,
0000
0010
0010
0100
0100
1000
0010
0110
,
0000
0110
0000
0101
0000
0101
0000
1001
,
0000
0000
1000
0100
0010
0001
1000
0010
,
0000
1000
0000
0001
0000
0010
0100
1000
,
0000
0001
0100
1000
0000
0001
0010
1000
,
0000
0001
0100
0001
1000
0100
0001
0100
,
0000
1000
0001
1000
0010
0001
0010
1000
,
0000
0001
1000
0100
0001
0100
1000
0010
,
0000
0100
0001
0010
0100
0010
0001
1001
,
0000
1001
0000
1100
0000
1100
0000
0101
,
0000
0100
0010
0100
0010
1000
0100
0010
,
0000
0100
0010
0001
0000
1000
0010
0001
,
0000
0001
0010
1000
0000
0001
0100
1000
,
0000
1000
0100
0001
0000
0010
0100
0010
,
0100
1000
0100
0001
,
0110
0000
1000
0000
0010
0100
0000
0110
,
0000
0100
0001
0010
0100
0001
0100
1000
,
0001
0000
0100
0000
0001
0000
0100
0000
0010
0000
1000
0000
0100
0000
0010
0000
0001
0000
1000
0000
0000
1100
0000
0000
,
0000
0100
0001
1000
0000
0001
1000
0100
,
0010
0001
0100
0000
0010
0010
0000
0110
,
0000
0100
0001
0000
0001
1000
0000
1000
,
0100
0000
0100
0001
0100
1000
0000
1001
,
0000
0010
0001
0100
0010
1000
0100
0001
,
0100
1000
0010
0100
0000
0100
0000
1001
,
0000
0001
1000
0010
0001
0010
0100
1001
,
0000
0001
1000
0100
0001
0100
0010
1001
,
0000
0010
0100
0101
0000
0010
1000
1001
,
0000
0000
0100
0000
0010
0000
0000
0000
0001
0000
0000
0010
0000
0000
0100
0000
,
0120
0000
0230
0000
,
0320
0000
0230
0000
,
0310
0000
0000
0000
0000
0010
0100
0010
,
0000
0000
0000
0000
0000
1000
0001
1000
,
0000
0001
0100
0001
0100
0010
0100
0010
,
0000
0000
0000
0000
0000
1000
0100
1000
,
1001
0000
0001
0000
1000
0100
0010
0001
,
0000
0100
0001
1000
0000
0010
0100
0110
,
0000
0001
0100
0101
0000
0010
0100
1000
,
0000
0000
0000
0000
0010
0110
0110
0000
,
1000
0100
0001
0100
0000
1000
0001
1000
,
0010
0001
0010
1000
0000
0001
1000
0100
,
0001
0100
1000
1001
0000
0101
0000
0101
,
0000
0110
0000
0110
0000
0010
0100
0010
,
0100
0001
0010
0100
0000
0010
0100
1000
,
0001
0010
1000
0010
0000
0001
0100
1000
,
0000
0001
0010
1000
0000
0001
0010
0100
,
1000
0001
1000
0001
1000
0001
1000
0001
1000
0000
0000
0000
0100
0000
0000
0000
,
0010
0001
0110
1000
,
0001
1000
0001
1000
0001
1000
0001
1000
0000
0000
0000
0000
0110
0000
0000
0000
;

//---------------dance-double - ----------------
#NOTES:
     dance-double:
     :
     Easy:
     5:
     0.227,0.279,0.145,0.121,0.000:
20000000
00000000
01000000
00000000
,
32000000
00000000
00100000
00000000
,
03200000
00000000
00010000
00000000
,
00310000
00000000
00000000
00000000
,
00001000
00000000
00010000
00000000
,
00001000
00000000
00010000
00000000
,
00000100
00000000
00000010
00000000
,
00000100
00000000
00000010
00000000
,
00001001
00000000
00001001
00000000
,
00000110
00000000
00000000
00000000
,
00010000
00001000
00010000
00000000
,
00011000
00000000
00000000
00000000
,
00001000
00000000
01000000
00000000
,
00001000
00000000
01000000
00000000
,
00100000
00000000
01000000
00000000
,
00100000
00000000
01000000
00000000
,
10010000
00000000
10010000
00000000
,
01100000
00000000
00000000
00000000
,
00001000
00010000
00001000
00000000
,
00011000
00000000
00000000
00000000
,
00010000
00000000
00000100
00000000
,
00000010
00000000
00000100
00000000
,
00010000
00000000
00000100
00000000
,
00000010
00000000
00000001
00000000
,
00000010
00000000
00000100
00000000
,
00000010
00000000
00000001
00000000
,
00001000
00000000
00000010
00000000
,
00000220
00000000
00000000
00000330
,
00000010
00000000
00010000
00000000
,
00000010
00000000
00010000
00000000
,
00001000
00000000
01000000
00000000
,
00100000
00000000
01000000
00000000
,
10010000
00000000
00000000
00000000
,
01000000
00000000
00000000
00000000
,
10010000
00000000
00000000
00000000
,
01000000
00000000
00000000
00000000
,
00000000
00000000
00000000
00000000
,
10010000
00000000
10000000
00000000
,
00010000
00000000
00100000
00000000
,
01000000
00000000
00100000
00000000
,
00011000
00000000
00000000
00000000
,
00010000
00000000
00000100
00000000
,
00010000
00000000
00000001
00000000
,
00000010
00000000
00000100
00000000
,
00010000
00000000
00000100
00000000
,
00000010
00000000
00000001
00000000
,
00001000
00000000
00000010
00000000
,
00010000
00000000
00001000
00000000
,
00011000
00000000
00000000
00000000
,
00010000
00000000
01000000
00000000
,
00100000
00000000
01000000
00000000
,
00010000
00000000
00010000
00000000
,
10000000
00000000
10000000
00000000
,
10010000
00000000
00000000
00000000
,
00010000
00000000
00000000
00000000
,
10000000
01000000
10000000
00000000
,
00010000
01000000
00010000
01000000
,
00000000
00001000
00010000
00001000
,
00000000
00010000
00000010
00010000
,
00000000
00000100
00000010
00000100
,
00000010
00000100
00000010
00000001
,
00000000
00000100
00000001
00000100
,
00000001
00010000
00001000
00100000
,
00000000
01000000
00100000
01000000
,
00000000
10000000
01000000
10000000
,
00000000
00010000
00000000
01000000
,
00000000
00000000
00002000
00000000
,
00023000
00000000
00030020
00000000
,
00000230
00000000
00000302
00000000
,
00001003
00000000
00000000
00000000
,
00001000
00000000
00000000
00000000
,
00001000
00000000
00000000
00000000
,
00000000
00000000
00000000
00000000
,
00011000
00000000
00001000
00000000
,
01000000
00000000
01000000
00000000
,
00100000
00000000
10000000
00000000
,
00010000
00000000
00000000
10010000
,
00000000
00000000
00100000
00000000
,
01000000
00000000
00100000
00000000
,
10000000
00000000
00002000
00000000
,
00000000
00000000
00013000
00000000
,
00000010
00000100
00000010
00000000
,
00001000
00000000
00000002
00000000
,
00002003
00000000
00003002
00000000
,
00002003
00000000
00003001
00000000
,
00000000
00000000
00010000
00000000
,
00000000
00000000
00000000
00011000
;

//---------------dance-double - ----------------
#NOTES:
     dance-double:
     :
     Medium:
     9:
     0.461,0.489,0.354,0.089,0.000:
10020000
00000000
10000000
00000000
,
20030000
00000000
01000000
00000000
,
32000000
00000000
00100000
00000000
,
03100000
00000000
00001000
00010000
00000000
00010000
00000000
00011000
,
00000000
00010000
00000100
00010000
,
00000100
00000010
00000001
00000010
,
00000001
00000010
00000100
00000010
,
00000100
00000000
00010000
00000000
00001000
00000000
01000000
00100000
,
01000000
00000000
00000000
00100000
01000000
00000000
00000000
10010000
,
00000000
00010000
00000000
00010000
00000000
00000000
00000000
00000000
,
00100000
00000000
01000000
00000000
10000000
00100000
00000000
01000000
,
00000000
01000000
00000000
01001000
00000000
01001000
00000000
00000000
,
00001000
00010000
00001000
00010000
,
00000010
00000100
00000010
00000100
,
00000001
00000010
00000001
00000010
,
00000100
00000000
00010000
00000000
00001000
00000000
01000000
00100000
,
01000000
00000000
00000000
00100000
01000000
00000000
00000000
10010000
,
00000000
00010000
00000000
00010000
00000000
00000000
00000000
00000000
,
00100000
00000000
01000000
00000000
10000000
00100000
00000000
01000000
,
00000000
01000000
00000000
00001000
00000000
00001000
00000000
00000000
,
00010000
00001000
00010000
00000000
00000010
00010000
00000010
00000000
,
00010000
00000000
00001000
00000000
00100000
01000000
00100000
00000000
,
00001000
00010000
00001000
00000000
01000000
00001000
01000000
00000000
,
00001000
00100000
01000000
10000000
00000000
10000000
01000000
10000000
,
00010000
00000000
01000000
00000000
00100000
10000000
00100000
00000000
,
10000000
00000000
00010000
00000000
00100000
00010000
00100000
00000000
,
00001000
00010000
00000100
00000010
,
00000001
00000000
00000100
00000010
00000000
00000010
00000000
00000110
,
00000000
00000100
00000010
00000001
,
00000100
00000000
00000010
00000000
00010000
00001000
00010000
00000000
,
00001000
01000000
00100000
00000000
10000000
00000000
01000000
00100000
,
01000000
10000000
01000000
00100000
,
00011000
00000000
00011000
00000000
00000000
00000000
00000010
00000100
,
00000000
00000001
00000100
00000001
,
00011000
00000000
00011000
00000000
00000000
00000000
00100000
02000000
,
00000000
00000000
00000000
00000000
,
03000000
00000000
00000000
00000000
00100000
01000000
00000000
01100000
,
00000000
00000000
01000000
00000000
00100000
00010000
01000000
00100000
,
00000000
00000000
10000000
00000000
01000000
00100000
00010000
01000000
,
00000000
00001000
01000000
00001000
00010000
00000000
00000000
00010010
,
00000000
00010010
00000000
00000110
00000000
00000110
00000000
00001001
,
00000000
00000001
00000010
00000100
,
00000010
00000000
00000001
00000000
00000100
00000010
00000100
00000001
,
00000000
00000010
00000100
00000010
00000000
00000100
00001000
00000100
,
00000000
00010000
00001000
00010000
00000000
00000000
00000000
00011000
,
00000000
00000000
00100000
00000000
01000000
10000000
00100000
01000000
,
00000000
00000000
00010000
00000000
01000000
00000000
00100000
10000000
,
01000000
00000000
00100000
00000000
00001000
00000000
00000000
00010100
,
00000000
00010100
00000000
00000110
00000000
00000110
00000000
00001001
,
00000000
00000001
00000100
00000010
,
00010000
00000000
00001000
00000000
01000000
00100000
01000000
00010000
,
00000000
10000000
01000000
10000000
00000000
01000000
00100000
01000000
,
00000000
00100000
00010000
00100000
00000000
00000000
00000000
00000000
,
00011000
00010000
00000100
00000010
,
00000001
00000000
00000010
00000000
00000100
00000000
00000000
00011000
,
00000000
00001000
01000000
00001000
10000000
00000000
01000000
00000000
,
00200000
00000000
00302000
00000000
00013000
00000000
00000000
00000110
,
00000000
00000100
00000010
00000100
00000001
00000000
00000100
00000000
,
00000010
00000000
00001000
00000000
00010000
00001000
00000000
00011000
,
00000000
00000000
00100000
00000000
00000000
01000000
00000000
00000000
,
10000000
00000000
00000000
00010000
00000000
10000000
00000000
10010000
,
00000000
10000000
01000000
10000000
00010000
00000000
00100000
00000000
,
01000000
00000000
10000000
00000000
00001000
00000000
00000000
00011000
,
00000000
00010000
00001000
00010000
00000010
00000000
00000000
00000110
,
00000000
00000100
00001000
00000001
00000100
00000000
00000000
00000110
,
00000000
00000010
00000001
00000010
00000000
00000100
00000010
00000100
,
00000000
00010000
00001000
00000000
00020000
00000000
00000000
00000000
,
00032000
00000000
02003000
00000000
,
03200000
00000000
02300000
00000000
,
03010000
00000000
00000000
00000000
,
00010000
00000000
00000000
00000000
,
00010000
00000000
00000000
00000000
,
00000000
00000000
00000000
00000000
,
10010000
01000000
00100000
00010000
,
00001000
00000000
00000100
00000000
00000010
00000000
00000000
00000101
,
00000000
00000000
00000000
00000110
00000000
00000000
00000000
00011000
,
00000000
00000000
10010000
10010000
,
00100000
01000000
10000000
00100000
00000000
00000000
01000000
00000000
,
00010000
00100000
01000000
10000000
00000000
00001000
01000000
00100000
,
01000000
00000000
00000000
01001000
00000000
01001000
00000000
00011000
,
00000000
00011000
00000000
00010010
00000000
00000000
00000010
00000000
,
00000100
00000010
00000100
00000000
00000001
00000000
00000010
00000000
,
00000100
00000010
00000001
00001000
00000000
00000010
00001000
00000010
,
00000000
00010000
00001000
00010000
00000000
00001000
01000000
00001000
,
00000000
00000000
00011000
00100000
,
01000000
10000000
01000000
00100000
,
00010000
00001000
00000000
00000110
;

//---------------dance-double - ----------------
#NOTES:
     dance-double:
     :
     Hard:
     13:
     0.657,0.664,0.427,0.072,0.060:
20010000
00000000
00000000
00000000
00100000
00100000
00000000
30200000
,
00000000
00000000
00000000
00000000
01000000
01000000
00000000
02300000
,
00000000
00000000
00000000
00000000
00010000
00010000
00000000
03010000
,
10000000
01000000
00100000
00011000
00000000
00011000
00000000
00010010
,
00000000
00000000
00000100
00000010
00000100
00000000
00000001
00000010
,
00000001
00000000
00000100
00000010
00000100
00000000
00000001
00000010
,
00000001
00000000
00000100
00000010
00010000
00000000
00001000
00010000
,
00001000
00000000
00100000
01000000
10000000
00010000
00100000
00010000
,
10010000
00000000
00000000
01000000
01100000
00000000
00000000
01001000
,
00000000
01001000
00000000
01001000
00000000
00000000
00000000
00000000
,
00001000
00010000
00001000
00010000
00000100
00000010
00000001
00001001
,
00000000
00001001
00000000
00000110
00000000
00000110
00000000
00000000
,
00000100
00000000
00000100
00000001
00000100
00000000
00000001
00001000
,
00000001
00000000
00010000
00000100
00010000
00000000
00001000
00010000
,
00001000
00000000
00100000
01000000
10000000
00000000
00100000
01000000
,
00100000
00000000
10000000
01000000
00100000
01000000
10000000
00001000
,
01001000
00000000
00000000
00010000
00011000
00000000
00000000
00000110
,
00000000
00000110
00000000
00010010
00000000
00000000
00000000
00000000
,
00010000
00001000
00010000
00001000
00100000
01000000
10000000
10010000
,
00000000
10010000
00000000
01100000
00000000
01100000
00000000
00000000
,
00100000
10000000
01000000
10000000
00100000
10000000
01000000
10000000
,
00001000
00100000
01000000
00100000
00001000
00100000
01000000
00100000
,
00001000
00010000
00000100
00000010
00000100
00010000
00000100
00000010
,
00000001
00000100
00000010
00001000
00000000
00001000
00000001
00000010
,
00000100
00010000
00001000
00100000
00010000
00100000
00001000
00010000
,
00001000
00100000
01000000
00100000
00001000
00100000
01000000
00100000
,
00001000
10000000
00100000
10000000
00001000
10000000
00100000
10000000
,
00001000
00000000
01000000
01100000
00000000
01100000
00000000
10010000
,
00000000
10000000
01000000
10000000
00010000
01000000
00010000
10000000
,
01000000
00100000
01000000
10000000
01000000
00100000
01000000
10000000
,
00001000
01000000
00100000
01000000
00001000
01000000
00100000
01000000
,
00001000
00010000
00000100
00000010
00000001
00000010
00000100
00000000
,
00010000
00010000
00010000
00000000
00001000
00000000
00001000
01001000
,
00000000
01000000
00100000
01000000
,
00001000
00001000
00001000
00000000
00010000
00000000
00000010
00000220
,
00000000
00000000
00000000
00000330
,
00000001
00000010
00000100
00001000
00000010
00000010
00000000
00001001
,
00000000
00000001
00001000
00000001
00000010
00001000
00000010
00000001
,
00000000
00001000
00000001
00000010
00001000
00000010
00000001
00001000
,
00000000
00000010
00010000
00001000
01000000
00100000
10000000
10010000
,
00000000
10010000
00000000
01100000
00000000
01100000
00000000
00101000
,
00000000
00000000
00001000
00100000
01000000
10000000
01000000
00100000
,
00000000
00010000
00000000
00010000
00000000
00100000
00001000
00010000
,
00000000
00000010
00000100
00000001
00000000
00000010
00000100
00001000
,
00000000
00010000
01000000
00100000
10000000
01000000
00100000
00010000
,
00000000
10000000
00010000
10000000
01000000
00010000
01000000
10000000
,
00000000
00010000
10000000
01000000
00010000
01000000
10000000
00100000
,
00000000
01000000
00001000
00010000
00000100
00000010
00000001
00001001
,
00000000
00001001
00000000
00000110
00000000
00000110
00000000
00010100
,
00000000
00010000
00001000
01000000
00100000
10000000
01000000
00100000
,
00000000
01000000
00100000
00010000
00000000
00001000
00010000
00000010
,
00000000
00000100
00000001
00000010
00000000
00000001
00000010
00000100
,
00000000
00001000
00010000
00100000
00000000
01000000
10000000
00100000
,
01000000
01000000
00001000
00001000
,
00010000
00000000
00000010
00000000
00000100
00000100
00000000
00001001
,
00000000
00000001
00000010
00000100
00001000
00010000
01000000
00100000
,
10000000
00000000
01000000
00000000
10000000
00000000
01000000
00000000
00100000
00000000
01000000
00000000
00100000
00000000
00001000
00000000
00010000
00000000
00001000
00000000
00000000
00011000
00000000
00000000
,
00000000
00000100
00000010
00000001
00000000
00000100
00000001
00000010
,
00000100
00001000
00010000
00000000
00100000
00100000
00000000
10010000
,
00000000
10000000
00010000
00000000
10000000
01000000
00000000
10000000
,
00010000
00000000
10000000
01000000
00100000
00001000
00000000
00011000
,
00000000
00001000
00010000
00000010
00000100
00000001
00000010
00001000
,
00000010
00000001
00000010
00000100
00010000
00001000
00000000
00011000
,
00000000
00001000
10000000
00100000
00010000
00100000
01000000
00001000
,
00000000
00010000
00000001
00000100
00001000
00000100
00000010
00010000
,
00000000
00001000
01000000
00100000
00000000
10000000
01000000
00100000
,
00000000
00000000
00001000
00000000
00010000
00000000
00000000
00000000
00000100
00000000
00000000
00000010
00000000
00000000
00000001
00000000
,
00002000
00000000
00003020
00000000
,
00020030
00000000
00032000
00000000
,
00013000
00000000
00000000
00000000
00000000
00100000
01000000
10000000
,
00000000
00000000
00000000
00000000
00000000
00100000
01000000
00100000
,
00000000
10000000
01000000
10000000
01000000
00100000
00001000
00010000
,
00000000
00000000
00000000
00000000
00000000
00000010
00000100
00000010
,
00001001
00000000
00000001
00000000
00000010
00000001
00000010
00000100
,
00000000
00010000
00001000
01000000
00000000
00100000
01000000
01100000
,
00000000
00010000
01000000
01010000
00000000
00100000
01000000
10000000
,
00000000
00000000
00000000
00000000
00001000
00001000
00011000
00000000
,
10000000
01000000
00010000
01000000
00000000
10000000
00010000
10000000
,
00100000
00010000
00100000
10000000
00000000
00010000
00100000
00010000
,
00001000
00000010
00000100
00000101
00000000
00000101
00000000
00000110
,
00000000
00000110
00000000
00010100
00000000
00010000
00001000
00010000
,
00001000
00100000
01000000
10000000
00000000
00010000
00100000
01000000
,
00010000
00100000
10000000
00100000
00000000
00010000
01000000
00001000
,
00000000
00010000
00000100
00000010
00000000
00000001
00000010
00000100
,
00001000
00000001
00001000
00000001
00001000
00000001
00001000
00000001
00001000
00000000
00000000
00000000
00000001
00000000
00000000
00000000
,
00000010
00000100
00010000
00001000
,
00100000
01000000
00100000
01000000
00100000
01000000
00100000
01000000
00000000
00000000
00000000
00000000
10010000
00000000
00000000
00000000
;

//---------------dance-single - ----------------
#NOTES:
     dance-single:
     :
     Beginner:
     2:
     0.100,0.140,0.064,0.000,0.000: // measure 1
1000
0000
0000
0000
,  // measure 2
0100
0000
0000
0000
,  // measure 3
0010
0000
0000
0000
,  // measure 4
0001
0000
0000
0000
,  // measure 5
1001
0000
0000
0000
,  // measure 6
0000
0000
0000
0000
,  // measure 7
1000
0000
0000
0000
,  // measure 8
0000
0000
0000
0000
,  // measure 9
0010
0000
0010
0000
,  // measure 10
0010
0000
0000
0000
,  // measure 11
1000
0000
0000
0000
,  // measure 12
0001
0000
0000
0000
,  // measure 13
0100
0000
0000
0000
,  // measure 14
0010
0000
0000
0000
,  // measure 15
0100
0000
0000
0000
,  // measure 16
0010
0000
0000
0000
,  // measure 17
1000
0000
1000
0000
,  // measure 18
1000
0000
0000
0000
,  // measure 19
0001
0000
0000
0000
,  // measure 20
0010
0000
0000
0000
,  // measure 21
0100
0000
0000
0000
,  // measure 22
0100
0000
0000
0000
,  // measure 23
1000
0000
0000
0000
,  // measure 24
1000
0000
0000
0000
,  // measure 25
0001
0000
0000
0000
,  // measure 26
0001
0000
0000
0000
,  // measure 27
0100
0000
0000
0000
,  // measure 28
0110
0000
0000
0000
,  // measure 29
0010
0000
0000
0000
,  // measure 30
0100
0000
0000
0000
,  // measure 31
0010
0000
0000
0000
,  // measure 32
0100
0000
0000
0000
,  // measure 33
1001
0000
0000
0000
,  // measure 34
0000
0000
0000
0000
,  // measure 35
1001
0000
0000
0000
,  // measure 36
0000
0000
0000
0000
,  // measure 37
0001
0000
0000
0000
,  // measure 38
1000
0000
0000
0000
,  // measure 39
0100
0000
0000
0000
,  // measure 40
0010
0000
0000
0000
,  // measure 41
0001
0000
0000
0000
,  // measure 42
1000
0000
0000
0000
,  // measure 43
0010
0000
0000
0000
,  // measure 44
1000
0000
0000
0000
,  // measure 45
0001
0000
0000
0000
,  // measure 46
0100
0000
0000
0000
,  // measure 47
0010
0000
0000
0000
,  // measure 48
1000
0000
0000
0000
,  // measure 49
0001
0000
0000
0000
,  // measure 50
1000
0000
0000
0000
,  // measure 51
0100
0000
0000
0000
,  // measure 52
0010
0000
0000
0000
,  // measure 53
0010
0000
0000
0000
,  // measure 54
1001
0000
0000
0000
,  // measure 55
1000
0000
0000
0000
,  // measure 56
0001
0000
0000
0000
,  // measure 57
0100
0000
0000
0000
,  // measure 58
0001
0000
0000
0000
,  // measure 59
0100
0000
0000
0000
,  // measure 60
0010
0000
0000
0000
,  // measure 61
1000
0000
0000
0000
,  // measure 62
0010
0000
0000
0000
,  // measure 63
1000
0000
0000
0000
,  // measure 64
0001
0000
0000
0000
,  // measure 65
1000
0000
0000
0000
,  // measure 66
0001
0000
0000
0000
,  // measure 67
1000
0000
0000
0000
,  // measure 68
0010
0000
0000
0000
,  // measure 69
0000
0000
0000
0000
,  // measure 70
0010
0000
0000
0000
,  // measure 71
0000
0000
0000
0000
,  // measure 72
0000
0000
0000
0000
,  // measure 73
0000
0000
0000
0000
,  // measure 74
0110
0000
0000
0000
,  // measure 75
0000
0000
0000
0000
,  // measure 76
0100
0000
0000
0000
,  // measure 77
0010
0000
0000
0000
,  // measure 78
0000
0000
1000
0000
,  // measure 79
0000
0000
0001
0000
,  // measure 80
0000
0000
1000
0000
,  // measure 81
0000
0000
0100
0000
,  // measure 82
0000
0000
0010
0000
,  // measure 83
0000
0000
0001
0000
,  // measure 84
0000
0000
0000
0000
,  // measure 85
0000
0000
1001
0000
,  // measure 86
0000
0000
1000
0000
,  // measure 87
0000
0000
0000
0110
;
