#TITLE:ユミル;
#SUBTITLE:;
#ARTIST:MYTHOLOGIA by MLREC.;
#TITLETRANSLIT:YMIR;
#SUBTITLETRANSLIT:;
#ARTISTTRANSLIT:;
#CREDIT:DigiMindAxel;
#BANNER:YMIR.png;
#BACKGROUND:YMIR-bg.png;
#LYRICSPATH:YMIR.lrc;
#CDTITLE:beatmania IIDX.png;
#MUSIC:YMIR.ogg;
#METERTYPE:DDR X;
#OFFSET:-13.534;
#SAMPLESTART:83.358;
#SAMPLELENGTH:12.000;
#SELECTABLE:YES;
#BPMS:0.000=164.000;
#STOPS:;
#BGCHANGES:;

//---------------dance-single - ----------------
#NOTES:
     dance-single:
     :
     Easy:
     5:
     0.211,0.288,0.144,0.256,0.000:
1001
0000
0001
0000
,
1001
0000
0000
0000
,
1001
0000
1000
0000
,
1001
0000
0000
0000
,
0001
0000
0100
0000
,
0001
0000
1000
0000
,
0100
0000
0010
0000
,
0002
0000
0000
0000
,
0103
0010
0100
0000
,
0010
0100
0010
0000
,
1000
0001
1000
0000
,
0001
1000
0001
0000
,
0010
0001
0010
0000
,
0001
0010
0001
0000
,
1000
0100
1000
0000
,
0100
1000
0100
0000
,
1000
0010
0100
0000
,
0010
0100
0001
0000
,
1000
0010
0100
0000
,
0010
0100
0001
0000
,
1000
0100
0010
0000
,
0001
0010
0100
0000
,
0010
0001
1000
0000
,
0010
0100
0010
0000
,
2002
0000
0000
3003
,
0220
0000
0000
0330
,
2002
0000
0000
3003
,
0220
0000
0000
0330
,
1001
0000
0001
0000
,
1000
0000
0100
0000
,
0010
0001
0010
0001
,
2000
0000
0000
3000
,
1001
0000
0001
0000
,
1000
0000
1000
0000
,
0001
0000
0001
0000
,
1000
0000
1000
0000
,
0001
0000
0010
0000
,
0100
0000
1000
0000
,
0010
0000
0100
0000
,
0010
0000
0000
0000
,
2001
0000
0000
0000
,
3020
0000
0000
0000
,
0230
0000
0000
0000
,
0302
0000
0000
0000
,
2003
0000
3002
0000
,
0023
0000
0032
0000
,
0203
0000
0320
0000
,
0200
0000
0000
0330
,
1001
0000
1000
0000
,
0010
0100
0001
0000
,
1000
0000
0100
0000
,
0010
0100
1000
0000
,
0001
0000
0100
0000
,
0010
0100
0001
0000
,
0010
0000
0100
0000
,
1000
0100
0010
0001
,
0200
0000
0000
0000
,
0000
0000
0000
0000
,
0000
0000
0000
0000
,
0000
0000
0000
0000
,
0000
0000
0000
0000
,
0000
0000
0000
0000
,
0000
0000
0000
0000
,
0300
0000
0000
0000
,
2002
0000
0000
3003
,
0220
0000
0000
0330
,
2002
0000
0000
3003
,
0220
0000
0000
0330
,
1001
0000
1000
0000
,
0001
0000
1000
0000
,
0100
0010
0001
0010
,
0220
0000
0000
0000
,
0330
0000
0000
0000
;

//---------------dance-single - ----------------
#NOTES:
     dance-single:
     :
     Medium:
     8:
     0.408,0.432,0.376,0.248,0.000:
1020
0000
0230
0000
,
0002
0000
0000
0303
,
2001
0000
3200
0000
,
0320
0000
0032
0000
,
0103
0100
0110
0010
,
1010
1000
1001
0010
,
0100
1000
1100
0010
,
0220
0000
0000
0330
,
0001
1000
0001
1000
0100
0000
0010
0000
,
0100
1000
0100
1000
0010
0000
0100
0000
,
0001
1000
0001
1000
0010
0000
0100
0000
,
0001
0010
0001
0010
0100
0000
1000
0000
,
0010
0100
0010
0100
0001
0000
1000
0000
,
0100
0010
0100
0010
0001
0000
0100
0000
,
0010
1000
0010
1000
0100
0000
0010
0000
,
0002
0203
0320
1030
,
0001
0010
0001
0010
0100
0000
0010
0000
,
0001
0100
0001
0100
0010
0000
1000
0000
,
0100
0010
0100
0010
0001
0000
1000
0000
,
0100
1000
0100
1000
0010
0000
0100
0000
,
0001
0010
0001
0010
0100
0000
0010
0000
,
0001
0100
0001
0100
0010
0000
1000
0000
,
0110
0001
0100
0010
,
1000
0001
1000
0001
0010
0100
0010
0000
,
0101
0000
0000
0101
0000
0000
0101
0000
,
1001
0000
0000
1001
0000
0000
1001
0000
,
1100
0000
0000
1100
0000
0000
1100
0000
,
1001
0000
0000
1001
0000
0000
1001
0000
,
0101
0100
0001
0001
,
1000
1000
0100
0100
,
1000
0010
0100
0001
,
2002
0000
0000
3003
,
1000
0000
0100
1000
0000
0100
1000
0000
,
0001
0000
0100
0001
0000
0100
0001
0000
,
0010
0000
0100
1000
0000
0100
1000
0000
,
0010
0000
0100
0001
0000
0100
0001
0000
,
1001
0000
1000
0010
1000
0000
0010
0100
,
0001
0000
0100
0010
0100
0000
0001
0010
,
0100
0000
0010
0001
0010
0000
0001
0100
,
0010
1000
0100
0010
,
0102
0000
1000
1003
,
2001
0000
0100
3100
,
1002
0000
0010
0013
,
2001
0000
0010
3010
,
0201
0001
0320
1000
,
2030
0010
3020
0100
,
0230
0000
0302
0000
,
2000
0000
0000
3003
,
0110
0100
0001
0010
,
0100
1000
0100
0000
0010
0100
0010
0000
,
0001
0100
0010
1000
,
0100
0010
0001
0000
1000
0100
0010
0000
,
0101
0100
0010
0100
,
0001
1000
0100
0000
0010
0001
1000
0000
,
0001
0010
0001
0000
1000
0100
1000
0000
,
0001
0010
0001
0010
0100
0010
0100
0000
,
2001
0000
0000
0000
,
0000
0000
0000
0000
,
0000
0000
0000
0000
,
0000
0000
0000
3000
,
0020
0000
0000
0000
,
0000
0000
0000
0000
,
0230
0000
0320
0000
,
1030
0000
0000
0000
,
1001
0000
0000
1001
0000
0000
0101
0000
,
0110
0000
0000
0110
0000
0000
1010
0000
,
1001
0000
0000
1001
0000
0000
0110
0000
,
0011
0000
0000
0011
0000
0000
0110
0000
,
1100
0000
0100
1000
0000
0100
1000
0000
,
0110
0000
0010
0100
0000
0010
0100
0000
,
0011
0000
0001
0010
0000
0001
0010
0000
,
2002
0000
0000
0000
,
3003
0000
0000
0000
;

//---------------dance-single - ----------------
#NOTES:
     dance-single:
     :
     Hard:
     12:
     0.569,0.576,0.328,0.232,0.228: // measure 1
1100
0100
0110
0010
,  // measure 2
0022
0000
0000
0033
,  // measure 3
0101
0100
0110
0010
,  // measure 4
2010
0000
3002
0000
,  // measure 5
1003
0100
1000
0001
1000
0100
1000
0100
,  // measure 6
0010
0100
1000
0010
0100
0001
1000
0010
,  // measure 7
0100
0010
0100
0001
1000
0100
1000
0010
,  // measure 8
0200
0000
0000
0300
,  // measure 9
0010
1000
0100
0001
1000
0100
0010
1000
,  // measure 10
0001
0100
0001
1000
0010
0001
0010
0000
,  // measure 11
1000
0001
0010
1000
0001
0010
0100
0001
,  // measure 12
1000
0010
1000
0001
0100
1000
0100
0000
,  // measure 13
0001
1000
0010
0001
0010
0100
0001
1000
,  // measure 14
0100
0010
0100
1000
0010
0001
0010
0000
,  // measure 15
1000
0001
0100
1000
0100
0010
1000
0001
,  // measure 16
0010
0000
0010
0100
1000
0100
1000
0000
1000
0010
0000
0000
,  // measure 17
0101
0001
1000
0100
0010
0010
0100
0100
,  // measure 18
0010
0001
0100
1000
0100
0001
1000
0000
,  // measure 19
1010
1000
0001
0010
0100
0100
0010
0010
,  // measure 20
0100
1000
0010
0001
0010
1000
0001
0000
,  // measure 21
0011
0001
1000
0010
0100
0100
0010
0010
,  // measure 22
1000
0001
0100
1000
0100
0001
0010
0000
,  // measure 23
1001
0001
1000
0100
0010
0001
1000
0010
,  // measure 24
1000
0001
0010
0001
1000
0010
1000
0000
,  // measure 25
1001
0000
0000
0001
0000
0000
0101
0000
0000
0100
0000
0000
0100
0000
0010
0000
,  // measure 26
1010
0000
0000
1000
0000
0000
1001
0000
0000
0001
0000
0000
0001
0000
0010
0000
,  // measure 27
0110
0000
0000
0100
0000
0000
1100
0000
0000
1000
0000
0000
1000
0000
0001
0000
,  // measure 28
0101
0000
0000
0100
0000
0000
0110
0000
0000
0010
0000
0000
0010
0000
1000
0000
,  // measure 29
1100
0000
0000
0010
0000
0000
0001
0000
0010
0001
0000
0100
0010
0000
1000
0000
,  // measure 30
0100
0000
0000
1000
0000
0000
0010
0000
0100
0001
0000
0100
0010
0000
1000
0000
,  // measure 31
0100
0010
0100
0010
0001
1000
0010
0100
,  // measure 32
0202
0000
0000
0303
,  // measure 33
0001
0000
0000
1000
0010
0000
1000
0000
0000
0001
0100
0000
0001
0000
1000
0000
,  // measure 34
0100
0000
0000
0010
0100
0000
0010
0000
0000
0001
0010
0000
0001
0000
1000
0000
,  // measure 35
0010
0000
0000
0100
0001
0000
0100
0000
0000
0010
1000
0000
0010
0000
0100
0000
,  // measure 36
0001
0000
0000
1000
0001
0000
0010
0000
0000
0001
1000
0000
0100
0000
1000
0000
,  // measure 37
0001
0100
0001
1000
0010
0001
0010
0100
,  // measure 38
0001
0010
0001
0100
1000
0100
0010
1000
,  // measure 39
0001
0010
0000
0010
0000
1000
0000
1000
,  // measure 40
0000
0000
0010
0000
0000
0000
0010
0000
0001
0100
0010
0000
1000
0000
0000
0000
,  // measure 41
1002
0100
1000
0103
,  // measure 42
2001
0100
0001
3100
,  // measure 43
1002
0010
1000
0013
,  // measure 44
1001
0000
0001
0000
0010
0100
1000
0001
,  // measure 45
0201
0010
0001
0310
,  // measure 46
1002
0100
1000
0103
,  // measure 47
0202
0303
0220
0330
,  // measure 48
2200
0000
0000
3300
,  // measure 49
1000
0010
0001
0010
1000
0100
1000
0001
,  // measure 50
0010
0100
0000
0010
0100
0000
1000
0010
0000
1000
0010
0000
0100
0000
0000
0000
,  // measure 51
0001
0010
0001
0100
1000
0100
0001
0010
,  // measure 52
0100
0010
0000
0100
0010
0000
0001
0100
0000
0001
0100
0000
0010
0000
0000
0000
,  // measure 53
1001
1000
0010
1000
0100
0001
0100
1000
,  // measure 54
0001
0010
0000
0001
0010
0000
0100
0010
0000
0100
0010
0000
0001
0000
0000
0000
,  // measure 55
0010
1000
0010
0001
0100
0010
0100
0001
,  // measure 56
0010
0100
0000
0010
0100
0000
1000
0010
0000
1000
0010
0000
0100
0000
0001
0000
,  // measure 57
0021
0000
0230
0000
,  // measure 58
2300
0000
3000
0010
,  // measure 59
0020
0000
0230
0000
,  // measure 60
0302
0000
0003
1000
,  // measure 61
2000
0000
0000
0000
,  // measure 62
0000
0000
3000
0001
,  // measure 63
0002
0000
2003
0000
,  // measure 64
3100
0000
0100
0000
,  // measure 65
1100
0000
0000
0100
0000
0000
0110
0000
0000
0010
0000
0000
0001
0000
1000
0000
,  // measure 66
1010
0000
0000
0010
0000
0000
0110
0000
0000
0100
0000
0000
0001
0000
0010
0000
,  // measure 67
0011
0000
0000
0001
0000
0000
1001
0000
0000
1000
0000
0000
1000
0000
0100
0000
,  // measure 68
0110
0000
0000
0010
0000
0000
0011
0000
0000
0001
0000
0000
0001
0000
1000
0000
,  // measure 69
1010
0000
0000
0010
0100
0000
0010
0000
0100
0001
0000
0100
0001
0000
0010
0000
,  // measure 70
0100
0000
0000
1000
0010
0000
1000
0000
0001
0010
0000
0001
0010
0000
0100
0000
,  // measure 71
1000
0001
0100
1000
0001
0010
1000
0001
,  // measure 72
0202
0000
0000
0000
,  // measure 73
0303
0000
0000
0000
;

//---------------dance-single - ----------------
#NOTES:
     dance-single:
     :
     Challenge:
     16:
     0.780,0.778,0.152,0.184,0.948: // measure 1
0201
0000
0002
0300
,  // measure 2
2000
0000
3003
0010
,  // measure 3
1020
0000
2030
0001
,  // measure 4
0002
0000
3003
0001
,  // measure 5
0001
0000
1000
0000
0100
0000
0010
0100
1000
0000
0001
0000
0100
0000
0001
1000
,  // measure 6
0100
0000
0001
0000
0100
0000
1000
0001
0010
0000
1000
0000
0010
0000
0001
0100
,  // measure 7
0010
0100
0001
0010
1100
0010
0001
0100
,  // measure 8
2020
0000
0000
0000
0000
0000
0000
0000
3030
0000
1000
0001
1000
0001
1000
0001
,  // measure 9
1000
0000
0010
1000
0000
0100
0000
1000
0010
0000
0010
0000
0100
0000
0100
0000
,  // measure 10
0001
0000
0010
0001
0000
1000
0000
0001
0010
0000
0100
1000
0001
0000
0001
0000
,  // measure 11
0100
0000
0010
1000
0000
0100
0000
1000
0010
0000
0010
0000
0100
0000
0100
0000
,  // measure 12
0001
0000
0010
0001
0000
1000
0000
0001
0010
0000
0100
0010
0001
0000
0001
0000
,  // measure 13
0010
0000
0100
1000
0000
0010
0000
1000
0100
0000
0100
0000
0010
0000
0010
0000
,  // measure 14
0001
0000
1000
0010
0000
0100
0000
0010
1000
0000
0100
0010
0001
0000
0001
0000
,  // measure 15
0100
0000
0010
1000
0000
0100
0000
1000
0010
0000
0010
0000
0100
0000
0100
0000
,  // measure 16
0001
1000
0100
0001
1000
0010
0001
1000
0010
0100
0000
0000
,  // measure 17
0101
0000
0001
1000
0000
0100
0000
1000
0001
0000
0100
0001
1000
0000
0100
0000
,  // measure 18
0010
0000
0001
0100
0000
0010
0000
0100
0001
0000
1000
0100
0010
0000
0010
0000
,  // measure 19
1001
0000
1000
0010
0000
0100
0000
0010
1000
0000
0001
0010
0100
0000
0010
0000
,  // measure 20
0001
0000
1000
0001
0000
0010
0000
0001
1000
0000
0010
0100
0001
0000
0001
0000
,  // measure 21
0110
0000
0100
1000
0000
0010
0000
1000
0100
0000
0010
0100
1000
0000
0010
0000
,  // measure 22
0100
0000
0001
1000
0000
0100
0000
1000
0001
0000
1000
0010
0100
0000
0100
0000
,  // measure 23
1001
0000
0001
0100
0001
0000
1000
0001
1000
0000
0010
1000
0010
0000
1000
0001
,  // measure 24
1000
0000
0100
0010
0001
0000
1000
0100
1000
0000
0001
0010
0100
0000
0000
0000
,  // measure 25
1000
0010
0000
1000
0001
0000
1000
0010
0000
1000
0001
0000
0010
0100
1000
0000
,  // measure 26
0010
0100
0000
0001
0100
0000
0010
0100
0000
0001
0100
0000
0010
1000
0100
0000
,  // measure 27
0010
0001
0000
1000
0001
0000
0010
0001
0000
1000
0001
0000
0100
0010
1000
0000
,  // measure 28
0001
0010
0000
0100
0010
0000
0001
0010
0000
0100
0010
0000
0001
0100
0010
0000
,  // measure 29
1000
0100
0010
0001
1000
0000
0100
1000
0001
0100
0000
0001
1000
0100
0010
0000
,  // measure 30
0100
1000
0010
0100
0001
0000
1000
0100
0010
0100
0000
1000
0100
0010
0001
0000
,  // measure 31
0100
0010
1000
0100
0010
0000
0100
1000
0001
0010
0000
0100
1000
0010
0100
0010
,  // measure 32
2000
0000
0000
3000
,  // measure 33
0001
0100
0000
0100
0010
0000
0100
0010
0000
0010
1000
0100
0010
0000
0001
0000
,  // measure 34
1000
0100
0000
0100
0010
0000
0100
1000
0000
1000
0010
0100
0001
0000
0010
0000
,  // measure 35
0100
1000
0000
1000
0010
0000
0100
0001
0000
0001
0010
0100
1000
0000
0010
0000
,  // measure 36
0100
0000
0000
0001
0000
0000
0000
0000
0000
0001
0000
0000
1000
0000
0000
0000
0000
0000
0100
0000
0000
1000
0000
0000
0000
0000
0000
1000
0000
0000
0001
0000
0010
0000
0001
0000
0010
0000
0000
0000
0000
0000
0100
0000
0000
0000
0000
0000
,  // measure 37
1000
0010
0000
0010
0100
0000
0001
1000
0000
1000
0010
0100
0001
0000
0001
0000
,  // measure 38
0100
0010
0000
0010
1000
0000
0100
0010
0000
0010
0001
1000
0010
0000
0010
0000
,  // measure 39
0100
0001
0000
0001
1000
0000
0100
0010
0000
0010
0001
1000
0010
0000
0010
0000
,  // measure 40
0100
0000
0000
0001
0000
0000
0000
0000
0000
0001
0000
0000
1000
0000
0000
0000
0000
0000
0100
0000
0000
0000
0000
0000
0010
0000
0001
0000
0010
0000
0001
0000
0000
0000
0000
0000
1001
0000
0000
0000
0000
0000
0000
0000
0000
0000
0000
0000
,  // measure 41
0011
0001
1000
0010
1000
0001
1000
0010
,  // measure 42
0110
0000
0100
0000
0001
0000
0010
0000
0100
0000
0010
0001
1000
0000
0010
0000
,  // measure 43
1010
0000
1000
0000
0001
0000
1000
0000
0010
0000
1000
0000
0001
0000
0010
0100
,  // measure 44
1000
0000
0001
0000
0010
0100
1000
0000
0001
0000
0010
0100
1000
0000
0001
0000
,  // measure 45
0101
0000
0100
0000
0010
0000
0100
0000
0001
0000
0100
0010
1000
0000
0001
0000
,  // measure 46
0011
0000
0010
0000
0100
0000
0010
0000
0001
0000
0010
0100
1000
0000
0010
0000
,  // measure 47
0110
0000
0100
0000
0001
0010
0100
0000
1001
0000
1000
0100
0010
0000
0001
0000
,  // measure 48
0101
0000
0100
0010
1000
0000
0010
0100
0001
0000
0000
0000
0000
0000
0000
0000
,  // measure 49
1001
0000
1000
0010
0100
0000
0001
1000
0000
1000
0010
0000
1000
0100
0010
0000
,  // measure 50
0001
0100
0000
0100
1000
0000
1000
0100
0000
0100
0001
0000
0010
0100
1000
0000
,  // measure 51
0001
0100
0010
0100
0001
0000
1000
0100
0000
0100
0010
0000
0001
1000
0010
0000
,  // measure 52
1000
0010
0000
0010
0001
0000
0001
0010
0000
0010
1000
0000
0001
0010
0100
0000
,  // measure 53
1010
0000
0010
0100
0001
0000
0010
0100
0000
0100
1000
0000
0001
0100
0010
0000
,  // measure 54
1000
0100
0000
0100
0001
0000
0001
0100
0000
0100
1000
0000
0010
0100
0001
0000
,  // measure 55
1000
0000
0100
1000
0100
0000
0010
0100
0010
0000
0001
0010
0001
0000
0010
0100
,  // measure 56
1000
0010
0000
0010
0001
0000
0001
0010
0000
0010
1000
0000
0001
0100
0010
1000
,  // measure 57
0200
0000
2000
0300
,  // measure 58
0020
0000
3030
0200
,  // measure 59
0302
0000
0100
0100
,  // measure 60
2000
0000
3003
0020
,  // measure 61
2000
0000
0000
0000
,  // measure 62
0000
0000
3030
0200
,  // measure 63
0302
0000
2003
0000
,  // measure 64
3200
0000
0020
0330
,  // measure 65
0010
0001
0000
1000
0001
0000
0010
0001
0000
1000
0001
0000
0010
0100
1000
0100
,  // measure 66
0010
0001
0000
1000
0001
0000
0010
0001
0000
1000
0001
0000
0100
0010
1000
0010
,  // measure 67
0100
0001
0000
1000
0001
0000
0100
0001
0000
1000
0001
0000
0100
0010
1000
0010
,  // measure 68
0100
0001
0000
1000
0001
0000
0100
0001
0000
1000
0001
0000
1000
0100
0010
0000
,  // measure 69
0001
1000
0010
1000
0001
0000
0010
0100
1000
0001
0000
1000
0100
0010
0100
0000
,  // measure 70
1000
0010
0100
0001
0010
0000
0001
0010
0100
0010
0000
0001
0100
0010
1000
0000
,  // measure 71
0001
1000
0100
0010
0001
0000
0100
0010
1000
0100
0000
1000
0001
0100
0010
0100
,  // measure 72
0002
0000
0000
0000
,  // measure 73
0003
0000
0000
0000
;

//---------------dance-single - ----------------
#NOTES:
     dance-single:
     :
     Beginner:
     2:
     0.098,0.170,0.120,0.000,0.000:
1000
0000
0000
0000
,
0000
0000
0000
0000
,
0010
0000
0000
0000
,
0000
0000
0000
0000
,
1000
0000
0000
0000
,
0000
0000
0000
0000
,
0001
0000
0000
0000
,
0000
0000
0000
0000
,
1001
0000
0000
0000
,
1000
0000
0001
0000
,
1000
0000
0000
0000
,
0001
0000
0100
0000
,
0001
0000
0000
0000
,
0100
0000
0010
0000
,
0100
0000
0000
0000
,
0001
0000
0000
0000
,
1001
0000
1000
0000
,
0001
0000
0000
0000
,
1000
0000
0100
0000
,
0010
0000
0000
0000
,
0100
0000
0010
0000
,
0001
0000
0000
0000
,
1000
0000
0010
0000
,
0100
0000
0000
0000
,
1001
0000
0000
0000
,
1001
0000
0000
0000
,
1001
0000
0000
0000
,
1001
0000
0000
0000
,
0001
0000
0000
0000
,
1000
0000
0000
0000
,
0100
0000
0000
0000
,
1001
0000
0000
0000
,
0001
0000
0000
0000
,
0000
0000
0000
0000
,
1000
0000
0000
0000
,
0000
0000
0000
0000
,
0001
0000
0000
0000
,
0010
0000
0000
0000
,
0100
0000
0000
0000
,
1000
0000
0000
0000
,
1001
0000
0000
0000
,
0001
0000
0000
0000
,
1000
0000
0000
0000
,
0001
0000
0000
0000
,
0100
0000
0000
0000
,
0010
0000
0000
0000
,
0100
0000
0100
0000
,
0100
0000
0000
0000
,
1001
0000
0000
0000
,
0001
0000
0000
0000
,
0100
0000
0000
0000
,
0001
0000
0000
0000
,
1001
0000
0000
0000
,
1000
0000
0000
0000
,
0010
0000
0000
0000
,
1000
0000
0000
0000
,
1001
0000
0000
0000
,
0000
0000
0000
0000
,
0000
0000
0000
0000
,
0000
0000
0000
0000
,
0000
0000
0000
0000
,
1000
0000
0000
0000
,
1000
0000
0000
0000
,
1000
0000
0000
0000
,
1001
0000
0000
0000
,
1001
0000
0000
0000
,
1001
0000
0000
0000
,
1001
0000
0000
0000
,
1000
0000
0000
0000
,
0100
0000
0000
0000
,
0010
0000
0001
0000
,
0100
0000
0000
0000
;
