#TITLE:†闇鍋☆ROCK†;
#SUBTITLE:;
#ARTIST:ARM vs ジュクチョー feat. イオシスjkガールズ;
#TITLETRANSLIT:YAMINABE ROCK;
#SUBTITLETRANSLIT:;
#ARTISTTRANSLIT:ARM vs ZYUKUCHO feat. IOSYS jk GIRLS;
#CREDIT:DigiMindAxel;
#BANNER:YAMINABE ROCK.png;
#BACKGROUND:YAMINABE ROCK-bg.png;
#LYRICSPATH:;
#CDTITLE:GITADORA.png;
#MUSIC:YAMINABE ROCK.ogg;
#METERTYPE:DDR X;
#OFFSET:-8.749;
#SAMPLESTART:15.248;
#SAMPLELENGTH:12.000;
#SELECTABLE:YES;
#BPMS:0.000=146.000;
#STOPS:;
#BGCHANGES:;

//---------------dance-single - ----------------
#NOTES:
     dance-single:
     :
     Easy:
     6:
     0.291,0.370,0.139,0.165,0.000:
0001
0100
0010
1000
,
0001
0100
0010
0100
,
0002
0000
1000
0000
,
1003
0000
0000
0000
,
0001
0100
0001
1000
,
0100
0010
0000
0000
,
0001
0010
0001
1000
,
0010
0100
0000
0000
,
0001
0100
0001
1000
,
0100
0010
0000
0000
,
0001
0010
0001
1000
,
0010
0100
0000
0000
,
0001
0001
1000
1000
,
0001
0001
1000
1000
,
0100
0100
0010
0010
,
0001
0001
1000
1000
,
0001
0100
0010
0100
,
0001
0001
1000
1000
,
0100
0010
0100
1000
,
0020
0000
0000
0030
,
0100
0001
1000
0100
,
0020
0000
0032
0000
,
1003
0010
0100
0001
,
2000
0000
3200
0000
,
1300
0001
0010
0100
,
0010
0001
1000
1000
,
0020
0000
0230
0000
,
0301
1000
0100
0000
,
2002
0000
0000
3003
,
1000
0100
0010
0100
,
1001
1001
0110
0110
,
0001
0100
0010
0100
,
1001
1001
0110
0110
,
1000
0100
0010
0100
,
1001
1001
0110
0110
,
0001
0000
1001
0000
,
1000
0000
0000
0000
,
0100
1000
0100
1000
,
0010
0100
0010
0100
,
0001
0010
0100
0010
,
0001
0001
1000
1000
,
0010
0100
0001
0100
,
0010
0100
0001
1000
,
0100
0100
0010
0010
,
0100
1000
0010
0100
,
0001
1000
0100
0010
,
0001
0010
0200
0000
,
1300
0010
0100
0001
,
0200
0000
0000
0000
,
0310
1000
0100
0010
,
0100
1000
0002
0000
,
0103
0010
0100
0001
,
2000
0000
3200
0000
,
2300
0000
3020
0000
,
0130
0001
0010
0100
,
1000
1000
0001
0001
,
0100
0010
1000
0010
,
0100
0001
1000
0100
,
0010
0100
1000
0010
,
0100
0000
0000
0000
,
1001
0000
0000
2002
0000
0000
3003
0000
;

//---------------dance-single - ----------------
#NOTES:
     dance-single:
     :
     Medium:
     10:
     0.495,0.459,0.296,0.052,0.096: // measure 1
1000
0100
1000
0100
1000
0001
1000
0001
,  // measure 2
0010
0001
0010
0001
1000
0010
0100
0001
,  // measure 3
0100
0000
0100
0000
,  // measure 4
0100
0100
0100
1001
,  // measure 5
0001
0000
0100
0000
0001
0000
0000
1000
0000
0000
0100
0000
1000
0000
0000
0001
,  // measure 6
0000
0100
0001
0000
0010
0100
1000
0100
,  // measure 7
0010
0000
0001
0000
0010
0000
0000
0100
0000
0000
1000
0000
0010
0000
0000
0100
,  // measure 8
0000
0001
1000
0000
0100
0010
1000
0001
,  // measure 9
0010
0000
0100
0000
0010
0000
0000
0001
0000
0000
1000
0000
0010
0000
0000
0100
,  // measure 10
0000
0001
1000
0000
0100
0010
0001
1000
,  // measure 11
0010
0000
1000
0000
0010
0000
0000
0100
0000
0000
0001
0000
1000
0000
0000
0100
,  // measure 12
0000
0010
0100
0000
1000
0001
0010
0000
,  // measure 13
0000
0001
0000
0001
0000
0001
0000
0001
,  // measure 14
0000
0001
0000
0001
0000
0001
0100
0001
,  // measure 15
1000
0100
0000
0100
0000
0100
0000
0100
,  // measure 16
1000
0100
1000
0100
0010
0000
1001
0000
,  // measure 17
0001
0010
0001
0010
0100
1000
0100
0000
,  // measure 18
1000
0001
1000
0001
0100
0001
0100
0000
,  // measure 19
0010
1000
0010
1000
0100
0010
0100
0000
,  // measure 20
0010
0000
0000
0010
0000
0000
0010
0000
1001
0000
0000
0000
0000
0000
0000
0000
,  // measure 21
0010
0100
0010
1000
0010
0100
0010
0000
,  // measure 22
1001
1001
0110
0110
,  // measure 23
0100
0001
0100
0010
0100
0001
0100
0000
,  // measure 24
1001
1001
0110
0110
,  // measure 25
0100
1000
0010
0000
0100
0001
0010
0000
,  // measure 26
0001
0010
0100
1000
0100
0010
0001
0000
,  // measure 27
1000
0000
0000
1001
0000
0000
0000
0000
0001
0000
0000
1001
0000
0000
0000
0000
,  // measure 28
1000
0010
0100
0000
,  // measure 29
1001
1001
1001
1001
,  // measure 30
0001
0100
0001
0100
0010
1000
0100
0000
,  // measure 31
0010
0001
0010
1000
0010
0001
0010
0000
,  // measure 32
0001
0100
0001
0100
0010
1000
0100
0000
,  // measure 33
0010
0001
0010
1000
0010
0001
0010
0000
,  // measure 34
0100
1000
0100
1000
0001
0100
0010
0000
,  // measure 35
0100
0001
0100
1000
0100
0001
0100
0000
,  // measure 36
1000
0001
0000
0000
1000
0001
0000
0000
,  // measure 37
1000
0000
0000
1000
0000
0000
1000
0000
0001
0000
0000
0000
0000
0000
0000
0000
,  // measure 38
0010
0100
1000
0010
0100
0000
0000
0000
,  // measure 39
0000
0101
0000
0101
0000
1010
0000
1010
,  // measure 40
1000
0001
0010
0000
0100
1000
0001
0000
,  // measure 41
0000
1001
0000
1001
0000
1100
0000
1100
,  // measure 42
0100
0010
0001
0000
0100
0010
1000
0001
,  // measure 43
0000
1001
0000
1001
0000
0011
0000
0011
,  // measure 44
0010
0100
1000
0000
0100
0010
0001
0000
,  // measure 45
0000
0011
0000
0011
0000
0110
0000
0110
,  // measure 46
0100
0000
1000
0000
0001
0000
0000
0100
0000
0000
0001
0000
1000
0000
0000
0100
,  // measure 47
0000
1000
0001
0000
0010
0100
1000
0001
,  // measure 48
0010
0000
0100
0000
1000
0000
0000
0001
0000
0000
0100
0000
0010
0000
0000
0100
,  // measure 49
0000
0000
0010
0000
0000
1000
0000
0000
0100
0000
0000
0010
0000
0000
0001
0000
,  // measure 50
1000
0000
0100
0000
0010
0000
0000
0100
0000
0000
0010
0000
0001
0000
0000
1000
,  // measure 51
0000
0100
0010
0000
0001
1000
0010
1000
,  // measure 52
0001
0000
0100
0000
0010
0000
0000
0100
0000
0000
0010
0000
1000
0000
0000
0000
,  // measure 53
0100
0010
0100
0010
0100
0010
0100
0010
,  // measure 54
0001
0100
0001
0100
0001
0100
0001
1000
,  // measure 55
0100
1000
0100
1000
0100
0010
0100
0010
,  // measure 56
0100
0010
0100
0010
0001
0010
0001
0010
,  // measure 57
0001
1000
0001
1000
0001
1000
0001
1000
,  // measure 58
0100
0010
0001
1000
0100
0010
0001
1000
,  // measure 59
0002
0203
0320
2030
,  // measure 60
3001
0001
0001
0001
,  // measure 61
0100
0000
0000
0100
0000
0000
0100
0000
0000
0000
0000
0000
2002
0000
0000
0000
,  // measure 62
0000
0000
0000
0000
,  // measure 63
3003
0000
0000
0000
;

//---------------dance-single - ----------------
#NOTES:
     dance-single:
     :
     Hard:
     13:
     0.651,0.647,0.409,0.174,0.344: // measure 1
1000
0010
0001
0010
1000
0100
0001
0100
,  // measure 2
1000
1000
1000
1000
0001
0001
0001
0001
,  // measure 3
0110
0000
0110
0000
,  // measure 4
1001
1001
1001
1100
,  // measure 5
0010
0000
0001
0000
0100
0000
0000
0020
0000
0000
1030
0000
0100
0000
0000
0020
,  // measure 6
0000
0031
1000
0000
0100
1000
0010
0100
,  // measure 7
0001
0000
1000
0000
0100
0000
0000
0020
0000
0000
0130
0000
1000
0000
0000
0020
,  // measure 8
0000
0130
0001
0000
0100
0010
1000
0001
,  // measure 9
0010
0000
0100
0000
0010
0000
0000
0002
0000
0000
0013
0000
0100
0000
0000
2000
,  // measure 10
0000
3001
0100
0000
0010
1000
0001
0100
,  // measure 11
0001
0000
1000
0000
0100
0000
0000
0020
0000
0000
0130
0000
1000
0000
0000
0020
,  // measure 12
0000
0130
0001
0000
0010
0100
1001
0000
,  // measure 13
1000
0001
1000
0100
1000
0001
1000
0100
,  // measure 14
1000
0000
0001
0000
1000
0000
0100
0000
1000
0000
0001
0000
1000
0001
1000
0001
,  // measure 15
1000
0010
1000
0001
1000
0010
1000
0001
,  // measure 16
0010
0010
0100
0100
1000
1000
1001
0000
,  // measure 17
0001
0100
1000
0100
0001
0010
0100
0000
,  // measure 18
0010
0001
0010
1000
0010
0001
1000
0000
,  // measure 19
0100
0010
0001
0100
1000
0100
0001
0010
,  // measure 20
1100
0000
0000
1100
0000
0000
1100
0000
2002
0000
0000
0000
0000
0000
3003
0000
,  // measure 21
1000
0000
0010
0000
0100
0000
0001
0000
0101
0000
0000
1001
0000
0000
0000
0000
,  // measure 22
0001
0100
1000
0001
0010
1000
0001
0000
,  // measure 23
0010
0000
0001
0000
0100
0000
0010
0000
1010
0000
0000
1001
0000
0000
0000
0000
,  // measure 24
1000
0100
0001
1000
0010
0001
1000
0010
,  // measure 25
0100
0010
0100
0010
0000
0000
0000
0000
1000
0001
1000
0001
0000
0000
0000
0000
,  // measure 26
0010
0000
0100
0000
1000
0000
0001
0000
0100
0000
0001
1000
0000
0000
0100
0000
,  // measure 27
1100
0000
0000
0110
0000
0000
0001
0000
0011
0000
0000
0110
0000
0000
0000
0000
,  // measure 28
1001
0000
1000
0000
0010
0100
0000
0002
0000
0000
0000
0000
0000
0000
0000
0000
,  // measure 29
1003
0100
0010
0001
1000
0001
1001
0000
,  // measure 30
1000
0000
0010
0000
0100
0000
0001
0000
1000
0100
1000
0200
0000
0000
1300
0000
,  // measure 31
0001
0000
0010
0000
0100
0000
0010
0000
0001
0100
0001
0200
0000
0000
0310
0000
,  // measure 32
1000
0000
0001
0000
0010
0000
0001
0000
1000
0010
1000
0020
0000
0000
0130
0000
,  // measure 33
0001
0000
1000
0000
0100
0000
1000
0000
0010
0100
0010
0200
0000
0000
0301
0000
,  // measure 34
1000
0000
0100
0000
0010
0000
0100
0000
1000
0010
1000
0020
0000
0000
0130
0000
,  // measure 35
0001
1000
0001
1000
0010
0000
0100
0000
0001
1000
0001
2000
0000
0000
3100
0000
,  // measure 36
0010
0001
0010
0001
0010
0000
0000
0000
0100
0010
0100
0010
0100
0000
0000
0000
,  // measure 37
1010
0000
0000
1010
0000
0000
1010
0000
0110
0000
0000
0000
1001
0000
0000
0000
,  // measure 38
1000
0000
0010
0000
0100
0000
0010
2000
0000
0000
3001
0000
0010
0000
0001
0000
,  // measure 39
1000
0010
0001
0010
1000
0100
0001
0100
,  // measure 40
1000
0010
1000
0000
0001
0100
0001
0000
1000
0001
1000
0000
0010
0000
0100
0000
,  // measure 41
0001
0010
1000
0010
0001
0100
1000
0100
,  // measure 42
0001
0000
1000
0000
0010
0000
0100
0001
0000
1000
0100
0000
1000
0000
0010
0000
,  // measure 43
0001
0000
0010
0000
1000
0000
0100
0010
0000
0001
0100
0000
0010
0000
1000
0000
,  // measure 44
0001
0000
0010
0000
1000
0000
0010
0000
0001
1000
0100
0000
0010
0000
0100
0000
,  // measure 45
1000
0001
1000
0000
0001
1000
0001
0000
0010
0000
0100
0000
1000
0000
0001
0000
,  // measure 46
0101
0000
0100
0000
0010
0000
0000
1010
0000
0000
1000
0000
0001
0000
0000
1001
,  // measure 47
0000
0001
1000
0000
0100
0100
0010
0010
,  // measure 48
1001
0000
1000
0000
0100
0000
0000
0110
0000
0000
0010
0000
0001
0000
0000
1001
,  // measure 49
0000
0000
1100
0000
0000
0110
0000
0000
0011
0000
0000
0110
0000
0000
1100
0000
,  // measure 50
1001
0000
0001
0000
0100
0000
0000
0110
0000
0000
0010
0000
1000
0000
0000
1001
,  // measure 51
0000
0001
1000
0010
0001
0010
1000
0100
,  // measure 52
0011
0000
0001
0000
1000
0000
0000
1100
0000
0000
0100
0000
0010
0000
0000
0000
,  // measure 53
0001
0000
0100
0000
1000
0000
0100
0000
0001
1000
0001
0000
1000
0100
1000
0000
,  // measure 54
0001
0000
0010
0000
1000
0000
0010
0000
0001
0000
1000
0000
0010
0100
0000
0010
,  // measure 55
0000
0100
0001
0000
1000
0000
0100
0000
0010
0000
0100
0010
0000
0001
1000
0000
,  // measure 56
0100
0000
1000
0000
0001
0100
0000
0010
0100
0000
0001
0000
0100
0010
0100
0010
,  // measure 57
1000
0010
0100
0001
1000
0010
0001
0010
,  // measure 58
1000
0001
0010
0000
0100
0000
1000
0000
0001
1000
0010
0000
0100
0000
0001
0000
,  // measure 59
0100
0010
0100
0000
0010
1000
0010
0000
0100
0010
0100
0000
0001
0100
0001
0000
,  // measure 60
0010
0010
0010
0010
,  // measure 61
1001
0000
0000
1001
0000
0000
1001
0000
0000
0000
0000
0000
2200
0000
0000
0000
,  // measure 62
0000
0000
0000
0000
,  // measure 63
3300
0000
0000
0000
;

//---------------dance-single - ----------------
#NOTES:
     dance-single:
     :
     Challenge:
     16:
     0.972,0.890,0.861,0.174,1.000: // measure 1
1000
0100
1000
0000
0100
0010
0100
0000
0010
0001
0010
0000
0100
0010
0100
0000
,  // measure 2
1000
0010
0100
0010
0100
0010
0100
0001
0010
0001
0010
0001
0010
0001
0010
0100
,  // measure 3
1000
1000
1010
0010
,  // measure 4
0010
0100
0001
0010
0100
1000
0001
0100
0001
1001
0000
0000
,  // measure 5
1100
0000
0100
0000
0110
0000
0000
0011
0000
0000
0011
0000
1001
0000
0000
1100
,  // measure 6
0000
0000
1100
0000
1001
0000
0001
1000
0100
1000
0001
1000
0100
0010
0100
1000
,  // measure 7
0010
0000
0100
0000
0110
0000
0000
0101
0000
0000
0101
0000
1001
0000
0000
1010
,  // measure 8
0000
0000
1010
0000
1001
0000
1000
0100
1000
0100
0010
0001
0010
0001
1000
0001
,  // measure 9
1000
0000
0100
0000
0110
0000
0000
0011
0000
0000
0011
0000
1001
0000
0000
1100
,  // measure 10
0000
0000
1100
0000
1001
0000
0001
1000
0010
1000
0001
0010
0100
1000
0100
0010
,  // measure 11
0001
0000
1000
0000
1001
0000
0000
1010
0000
0000
0110
0000
0101
0000
0000
0101
,  // measure 12
0000
0000
0110
0000
1010
0000
0000
0000
1000
0100
0010
0001
1000
0000
0000
0000
,  // measure 13
0001
0000
1000
0100
1000
0000
0001
0100
0001
0000
1000
0100
1000
0000
0001
0100
,  // measure 14
0001
0000
1000
0100
1000
0000
0001
0100
0001
0000
1000
0100
1000
0010
0100
0001
,  // measure 15
0010
0000
0100
1000
0100
0000
0010
0100
0010
0000
0100
1000
0100
0000
0010
0100
,  // measure 16
0010
0100
1000
0010
1000
0010
0100
0010
0100
0000
0100
0000
1001
0000
0000
0000
,  // measure 17
1000
0010
1000
0010
1000
0100
0010
0000
0001
1000
0010
1000
0001
0000
0000
0000
,  // measure 18
0010
0100
0010
0100
1000
0010
0100
0000
0001
1000
0100
1000
0001
0000
0000
0000
,  // measure 19
0010
0100
0010
0100
1000
0001
0100
0001
1000
0000
1001
0000
0110
0000
0000
0000
,  // measure 20
0101
0000
0000
0110
0000
0000
1010
0000
1001
0000
0000
0000
1000
0001
1000
0001
,  // measure 21
1000
0010
0100
0010
1000
0000
0100
0000
0010
0001
0010
0001
0100
0000
0010
0000
,  // measure 22
1001
1000
1100
0100
0110
0010
0011
0001
,  // measure 23
0100
0001
0100
0001
1000
0000
0100
0000
0010
0100
0010
0100
1000
0000
0010
0000
,  // measure 24
0110
0100
0101
0001
0011
0010
0110
0100
,  // measure 25
1000
0010
0100
0001
1000
0000
0100
0000
1000
0010
0100
0001
1000
0000
0100
0000
,  // measure 26
0010
0001
0100
0001
0010
0000
0100
0000
0010
0001
0100
0001
0010
0000
0100
0000
,  // measure 27
1100
0000
0000
1001
0000
0000
0010
0000
0011
0000
0000
1001
0000
0000
0000
0000
,  // measure 28
1001
0000
1000
0000
0010
0100
0000
0001
1000
0100
1000
0100
1000
0100
1000
0100
,  // measure 29
1000
0010
0100
0000
0010
0100
0001
0000
1000
0100
0010
0001
1000
0000
0000
0000
,  // measure 30
0101
0000
0001
0000
1001
0000
1000
0000
0100
0010
0001
2000
0000
0000
3010
0000
,  // measure 31
0110
0000
0100
0000
0101
0000
0001
0000
0010
0100
1000
0002
0000
0000
0103
0000
,  // measure 32
0110
0000
0010
0000
1010
0000
1000
0000
0100
0010
0001
2000
0000
0000
3100
0000
,  // measure 33
0110
0000
0010
0000
0011
0000
0001
0000
0100
0010
1000
0200
0000
0000
0310
0000
,  // measure 34
0011
0000
0001
0000
1001
0000
1000
0000
0010
0100
0001
2000
0000
0000
3100
0000
,  // measure 35
0010
0001
1000
0001
0010
0000
0100
0000
1000
0010
0100
0002
0000
0000
1003
0000
,  // measure 36
0001
0100
0001
0100
0010
1000
0010
1000
0100
0010
0100
0010
0001
0010
0001
0000
,  // measure 37
1001
0000
0000
1010
0000
0000
0101
0000
1001
0000
1000
0001
1000
0001
1000
0001
,  // measure 38
1000
0010
0100
0000
0010
1000
0100
0020
0000
0000
0031
1000
0001
1000
0001
0000
,  // measure 39
0100
0001
0100
0001
1000
0100
0010
0100
1000
0001
0100
0001
0010
0100
1000
0000
,  // measure 40
0010
1000
0010
0000
0100
0010
0100
0000
0001
0100
0000
0001
1000
0100
0010
0001
,  // measure 41
1000
0010
1000
0010
0100
0001
0010
0100
0010
0001
1000
0010
0100
0001
0010
0000
,  // measure 42
1100
0000
1000
0000
0010
0000
0100
0001
0000
1000
0100
0010
0100
0010
0001
0100
,  // measure 43
0010
1000
0100
0000
1000
0010
0100
0001
0100
0001
1000
0100
0010
0100
1000
0000
,  // measure 44
0001
0100
1000
0100
0001
0100
1000
0100
0001
1000
0010
1000
0100
0010
0001
0000
,  // measure 45
1000
0100
0001
0100
1000
0100
0001
0100
1000
0010
0100
0001
0100
0010
0100
0010
,  // measure 46
0100
0000
0101
0000
1001
0000
0000
0110
0000
0000
1010
0000
1001
0000
0000
0110
,  // measure 47
0000
0000
0101
0000
1001
0000
0000
0000
1000
0010
1000
0100
0010
0001
1000
0010
,  // measure 48
1000
0000
1001
0000
0110
0000
0000
0101
0000
0000
1001
0000
0110
0000
0000
1010
,  // measure 49
0000
0000
0102
0000
0000
0023
0000
0000
0230
0000
0000
2300
0000
0000
3001
0000
,  // measure 50
0011
0000
0110
0000
1100
0000
0000
1100
0000
0000
0110
0000
0011
0000
0000
0011
,  // measure 51
0000
0000
0110
0000
1100
0000
1000
0000
0010
0100
0010
0100
0001
0100
0010
0000
,  // measure 52
1010
0000
1001
0000
0101
0000
0000
0001
1000
0010
1000
0010
1000
0100
0010
0001
,  // measure 53
1000
0100
1000
0100
1000
0001
1000
0001
0100
0010
1000
0010
0100
0010
1000
0010
,  // measure 54
1000
0100
0001
0100
1000
0010
0001
0010
1000
0001
0100
0010
0100
0001
0000
1001
,  // measure 55
0000
1000
0010
0100
0010
0100
0001
0000
1001
0000
1000
0010
0000
1000
0001
0000
,  // measure 56
0010
0001
0010
0001
1000
0010
0000
1000
0001
0010
0001
0010
0100
1000
0010
0100
,  // measure 57
0001
0010
1000
0010
0001
0100
1000
0100
0001
0010
0100
1000
0100
0010
0001
1000
,  // measure 58
0001
0010
1000
0010
0001
1000
0010
1000
0001
0100
1000
0100
0001
0010
0100
0010
,  // measure 59
0001
0100
1000
0100
0001
0010
1000
0010
0001
0100
1000
0100
0001
0010
1000
0010
,  // measure 60
0002
0010
0010
0013
,  // measure 61
2002
3003
0000
2020
3030
0000
0202
0303
0000
0000
0100
0010
2020
0000
0000
0000
,  // measure 62
0000
0000
0000
0000
,  // measure 63
3030
0000
0000
0000
;

//---------------dance-single - ----------------
#NOTES:
     dance-single:
     :
     Beginner:
     3:
     0.134,0.185,0.174,0.000,0.000:
0001
0000
0000
0000
,
0100
0000
0100
0000
,
0100
0000
0100
0000
,
0110
0000
0000
0000
,
1001
0000
0000
0000
,
1001
0000
0000
0000
,
0110
0000
0000
0000
,
0110
0000
0000
0000
,
1001
0000
0000
0000
,
1001
0000
0000
0000
,
0110
0000
0000
0000
,
0110
0000
0000
0000
,
1001
0000
0000
0000
,
1000
0000
0000
0000
,
0001
0000
0000
0000
,
0001
0000
0000
0000
,
1000
0000
0010
0000
,
1000
0000
0000
0000
,
0001
0000
1000
0000
,
0001
0000
0000
0000
,
0010
0000
0001
0000
,
0010
0000
0000
0000
,
0100
0000
0010
0000
,
0100
0000
0000
0000
,
1000
0000
0100
0000
,
1000
0000
0000
0000
,
1001
0000
1001
0000
,
1001
0000
0000
0000
,
0001
0000
0000
0000
,
1000
0000
0010
0000
,
1000
0000
0000
0000
,
0010
0000
0100
0000
,
0010
0000
0000
0000
,
0100
0000
0001
0000
,
0100
0000
0000
0000
,
1001
0000
1001
0000
,
1001
0000
0000
0000
,
0001
0000
0100
0000
,
0010
0000
0000
0000
,
0100
0000
0010
0000
,
1000
0000
0000
0000
,
0001
0000
1000
0000
,
0001
0000
0000
0000
,
0010
0000
0001
0000
,
0100
0000
0000
0000
,
0010
0000
1000
0000
,
0100
0000
0000
0000
,
0010
0000
0001
0000
,
1000
0000
0000
0000
,
0001
0000
0100
0000
,
0010
0000
0000
0000
,
0100
0000
0010
0000
,
1000
0000
0001
0000
,
1000
0000
0001
0000
,
0010
0000
0100
0000
,
1000
0000
0010
0000
,
1000
0000
0001
0000
,
0100
0000
0100
0000
,
0110
0000
0000
0000
,
1001
0000
0000
0000
,
1001
0000
0000
1001
;
