#TITLE:ヤミクラ;
#SUBTITLE:;
#ARTIST:PON;
#TITLETRANSLIT:YAMIKURA;
#SUBTITLETRANSLIT:;
#ARTISTTRANSLIT:;
#CREDIT:DigiMindAxel;
#BANNER:YAMIKURA.png;
#BACKGROUND:YAMIKURA-bg.png;
#LYRICSPATH:YAMIKURA.lrc;
#CDTITLE:GuitarFreaksXG & DrumManiaXG.png;
#MUSIC:YAMIKURA.ogg;
#METERTYPE:DDR X;
#OFFSET:-5.617;
#SAMPLESTART:60.253;
#SAMPLELENGTH:12.000;
#SELECTABLE:YES;
#BPMS:0.000=180.000;
#STOPS:;
#BGCHANGES:;

//---------------dance-single - ----------------
#NOTES:
     dance-single:
     :
     Challenge:
     15:
     0.830,0.816,0.189,0.269,0.573: // measure 1
1000
0100
1000
0001
1000
0100
1000
0001
,  // measure 2
1000
0010
0100
0001
1000
0010
0001
0010
,  // measure 3
1000
1100
0000
0000
0010
0110
0000
0000
,  // measure 4
1000
0000
0000
1000
0010
0000
0200
0000
0000
0000
0001
0000
0301
0000
0000
0000
,  // measure 5
0010
0000
0000
0010
0100
0000
2000
0000
0000
0000
0100
0000
3100
0000
0000
0000
,  // measure 6
0010
0000
0000
0010
0001
0000
0200
0000
0000
0000
0010
0000
0310
0000
0000
0000
,  // measure 7
1000
0000
0000
1000
0010
0000
0200
0000
0000
0000
0310
0100
0010
0000
1000
0001
,  // measure 8
1000
0100
0000
1000
0001
0000
0010
0000
0001
0000
0100
0000
0010
0000
0000
0000
,  // measure 9
1000
0001
0000
0100
0001
0000
0100
0000
0001
0000
1000
0000
0100
0000
0010
0000
,  // measure 10
0001
1000
0000
0010
1000
0000
0010
0000
0100
0000
0001
0000
0010
0000
0000
0000
,  // measure 11
0100
1000
0000
0001
1000
0000
0001
0000
0010
0000
0100
1000
0100
1000
0100
1000
,  // measure 12
0200
0000
0000
0000
0000
0010
0310
0000
,  // measure 13
0001
0100
0010
1000
0100
0001
0100
0000
,  // measure 14
1000
0100
1000
0010
0001
0010
1000
0000
,  // measure 15
0100
0010
0001
0100
1000
0100
0010
1000
,  // measure 16
0001
0000
0100
0001
0100
0001
2000
0000
0000
0000
0001
0000
3001
0000
0000
0000
,  // measure 17
1000
0001
1000
0001
0100
1000
0100
0000
,  // measure 18
0001
0010
0001
1000
0010
0001
0010
0000
,  // measure 19
1000
0100
1000
0010
0001
0010
0100
0001
,  // measure 20
1000
0000
0001
1000
0001
1000
0200
0000
0000
0000
0010
0000
0310
0000
0001
0000
,  // measure 21
1000
0000
0000
1000
0010
0000
0000
0010
0100
0000
0000
0100
0001
0000
1000
0000
,  // measure 22
0010
0000
0000
0010
0100
0000
0000
0100
0001
0000
0000
0001
1000
0000
0100
0000
,  // measure 23
0010
0000
0000
0010
0001
0000
0000
0001
0100
0000
0000
0100
0010
0000
1000
0000
,  // measure 24
0100
0000
0010
0001
0010
0000
0100
0010
0100
0000
1000
0100
1000
0000
0010
0000
,  // measure 25
0200
0001
0301
2000
0001
3001
0010
0100
,  // measure 26
2000
0010
3010
0200
0001
0301
0010
0100
,  // measure 27
2000
0001
3001
0020
0001
0031
0010
0100
,  // measure 28
1000
0000
0001
1000
0001
1000
0200
0000
0000
0000
1000
0000
1300
0000
0000
0000
,  // measure 29
0020
0001
0031
2000
0001
3001
0100
0010
,  // measure 30
2000
0001
3001
0020
0001
0031
0010
0100
,  // measure 31
0020
0001
0031
2000
0010
3010
1000
0001
,  // measure 32
1000
0000
0010
1000
0010
1000
0002
0000
0000
0000
0010
0000
0013
0000
0000
0000
,  // measure 33
0100
1000
0100
1000
0001
0100
0001
0100
,  // measure 34
0010
1000
0010
1000
0001
0010
0001
0010
,  // measure 35
0100
1000
0100
1000
0010
0100
0010
0100
,  // measure 36
0101
0000
0000
0101
0000
0000
1001
0000
1000
0000
0010
0000
0110
0000
0000
0000
,  // measure 37
0100
0001
0100
0001
1000
0100
1000
0100
,  // measure 38
0010
0001
0010
0001
1000
0010
1000
0010
,  // measure 39
0100
0001
0100
0001
0010
0100
0010
0100
,  // measure 40
1000
0000
0001
0100
0001
0100
0001
0000
0100
0010
0100
0010
1000
0100
1000
0100
,  // measure 41
1000
0000
0100
0010
0001
0000
0001
0000
0100
0010
0100
0010
0100
0000
0000
0000
,  // measure 42
1001
0000
0000
0001
0100
0000
0000
0100
1000
0000
0000
1000
0100
0000
0000
0100
,  // measure 43
0001
0000
0000
0001
1000
0000
0000
1000
0010
0000
0000
0010
0100
0000
0000
0000
,  // measure 44
0001
0000
0000
0001
0010
0000
0000
0010
1000
0000
0000
1000
0010
0000
0000
0010
,  // measure 45
0001
0000
0000
0000
1001
0000
0000
0000
0001
1000
0001
1000
0001
1000
0001
0000
,  // measure 46
1000
0000
0000
1000
0010
0000
0000
0010
0001
0000
0000
0001
0010
0000
0000
0010
,  // measure 47
1000
0000
0000
1000
0010
0000
0000
0010
0100
0000
0001
0100
0001
0100
0001
0000
,  // measure 48
1001
1001
0000
0000
1010
1010
0000
0000
,  // measure 49
0010
0000
0000
0000
0010
0000
0000
0000
0010
0000
0100
0010
0100
0010
0100
0010
,  // measure 50
0100
0001
0000
1000
0001
0000
0100
0001
0000
1000
0001
0000
0010
0000
0100
0000
,  // measure 51
1000
0010
0001
0010
0100
0001
1000
0100
,  // measure 52
0010
0001
0000
1000
0001
0000
0010
0001
0000
1000
0001
0000
0100
0000
0010
0000
,  // measure 53
1000
0100
0000
0010
0100
0000
1000
0000
0001
0000
1000
0010
1000
0000
0010
0100
,  // measure 54
0010
0000
1000
0100
0010
0000
0001
0100
0001
0000
1000
0100
0010
0000
0001
0100
,  // measure 55
0001
0000
0010
0100
1000
0000
0010
0100
0010
0000
1000
0001
1000
0001
1000
0000
,  // measure 56
0001
0011
0000
0000
0100
0110
0000
0000
,  // measure 57
1001
0000
0001
0100
0010
0000
2000
0000
0000
0000
3001
0010
0001
0010
0100
0000
,  // measure 58
1000
0000
0010
0100
0001
0000
0200
0000
0000
0000
0310
0100
0010
0000
0000
0000
,  // measure 59
1001
0000
1000
0100
0010
0000
0002
0000
0000
0000
1003
0010
1000
0010
0100
0000
,  // measure 60
0001
0000
0010
0100
1000
0000
0020
0000
0000
0000
1030
0001
1000
0001
1000
0001
,  // measure 61
1000
0010
0000
0100
0010
0000
1000
0000
0001
0000
0100
0000
1000
0000
0100
0000
,  // measure 62
0001
0010
0000
0100
0010
0000
0001
0000
1000
0000
0100
0000
0001
0000
0100
0000
,  // measure 63
1000
0010
0000
0100
0010
0000
1000
0000
0001
0000
0010
0000
1000
0000
0010
0000
,  // measure 64
0001
1000
0000
0100
1000
0000
0001
0000
0100
0000
0010
0100
0010
0100
0010
0100
,  // measure 65
0010
0000
0000
0000
0000
1001
1001
0000
,  // measure 66
0220
0000
0330
0000
;

//---------------dance-single - ----------------
#NOTES:
     dance-single:
     :
     Easy:
     5:
     0.256,0.326,0.219,0.179,0.000:
2000
0000
3002
0000
,
2003
0000
3002
0000
,
1003
0000
1001
0000
,
0001
0000
0100
0000
,
0010
0000
0100
0000
,
0001
0000
0100
0000
,
0010
0000
0100
0000
,
0001
1000
0001
0000
,
1000
0001
1000
0000
,
0100
1000
0100
0000
,
1000
0001
1000
0000
,
1001
0000
0000
0000
,
0001
0000
0100
0000
,
0010
0000
0100
0000
,
0001
0000
0001
0000
,
1001
0000
0000
0000
,
1000
0000
0100
0000
,
0010
0000
0100
0000
,
1000
0000
1000
0000
,
1001
0000
0000
0000
,
0002
0000
0203
0000
,
0320
0000
0100
0000
,
0230
0000
0302
0000
,
2003
0000
0100
0000
,
3100
0000
0010
0000
,
0001
0000
0100
0000
,
0001
0000
0010
0000
,
2002
0000
0000
3003
,
1000
0000
0010
0000
,
0100
0000
0010
0000
,
1000
0000
0001
0000
,
2002
0000
0000
3003
,
1000
0000
1000
0000
,
0100
0000
0100
0000
,
0010
0000
0010
0000
,
1001
0000
0000
0000
,
0001
0000
0001
0000
,
0100
0000
0100
0000
,
0010
0000
0010
0000
,
2000
0000
0000
0000
,
3002
0000
1003
0000
,
0001
0000
0001
0000
,
1001
0000
1001
0000
,
1000
0000
1000
0000
,
1001
0000
1001
0000
,
0010
0000
0010
0000
,
0110
0000
0110
0000
,
1001
0000
1001
0000
,
1001
0000
0000
0000
,
0001
0100
0001
0100
,
0001
1000
0001
0000
,
1000
0100
1000
0100
,
1000
0001
1000
0000
,
0010
0100
0010
0100
,
0001
0010
0001
0010
,
0100
0000
1001
0000
,
1001
0000
0000
0000
,
0110
0000
0000
0000
,
1001
0000
0000
0000
,
0110
0000
0000
0000
,
0010
0100
0010
0100
,
0001
0100
0001
0100
,
0001
1000
0001
1000
,
0100
1000
0100
1000
,
0100
0000
0000
0000
,
2002
0000
3003
0000
;

//---------------dance-single - ----------------
#NOTES:
     dance-single:
     :
     Hard:
     13:
     0.639,0.653,0.239,0.359,0.184: // measure 1
1000
0100
1000
0100
1000
0001
1000
0001
,  // measure 2
1000
0100
1000
0100
1000
0001
1000
0001
,  // measure 3
1000
0100
0000
0000
0010
0100
0000
0000
,  // measure 4
1000
0000
0000
0010
0000
0000
2000
0000
0000
0000
0001
0000
3001
0000
0000
0000
,  // measure 5
1000
0000
0000
0100
0000
0000
2000
0000
0000
0000
0001
0000
3001
0000
0000
0000
,  // measure 6
1000
0000
0000
0010
0000
0000
2000
0000
0000
0000
0001
0000
3001
0000
0000
0000
,  // measure 7
1000
0000
0000
0100
0000
0000
2000
0000
0000
0000
0001
0000
3001
0000
0000
0000
,  // measure 8
1000
0100
0001
0100
0000
1000
0001
0000
,  // measure 9
1000
0010
0001
0010
0000
1000
0001
0100
,  // measure 10
0001
0010
1000
0010
0000
0001
1000
0000
,  // measure 11
0001
0100
1000
0100
0000
0001
0100
0010
,  // measure 12
2000
0000
0000
0000
0000
0001
3001
0000
,  // measure 13
1000
0100
1000
0100
0010
0001
1000
0000
,  // measure 14
0010
0100
0010
0100
0001
0010
0100
0000
,  // measure 15
0010
0001
0010
0001
1000
0010
0100
0001
,  // measure 16
1000
0000
0000
0100
0000
0000
2000
0000
0000
0000
0001
0000
3001
0000
0000
0000
,  // measure 17
1000
0010
1000
0010
1000
0100
0010
0000
,  // measure 18
0100
1000
0100
1000
0001
0100
0010
0000
,  // measure 19
0100
0001
0100
0001
1000
0100
0010
0001
,  // measure 20
1000
0000
0000
0010
0000
0000
2000
0000
0000
0000
0001
0000
3001
0000
0000
0000
,  // measure 21
0200
0000
0301
1000
0200
0000
1300
0010
,  // measure 22
0200
0001
0010
0301
,  // measure 23
2000
0000
3100
0010
0002
0000
0013
0100
,  // measure 24
2000
0000
0001
0000
0100
0000
3001
1000
,  // measure 25
0002
0010
0010
0023
0100
0130
1000
0010
,  // measure 26
1000
0002
0000
0010
0000
0013
0000
0100
,  // measure 27
2000
0100
3100
0020
0100
0130
1000
0000
,  // measure 28
0001
0000
0000
0010
0000
0000
0200
0000
0000
0000
0010
0000
0310
0000
0000
0000
,  // measure 29
0002
0010
0013
0200
0010
0310
0001
0100
,  // measure 30
0001
2000
0000
0010
0000
3010
0000
0100
,  // measure 31
0002
1000
1003
0020
0100
0130
0001
0000
,  // measure 32
0010
0000
0000
0100
0000
0000
0020
0000
0000
0000
0001
0000
0031
0000
0000
0000
,  // measure 33
2000
0010
0100
3010
,  // measure 34
1000
0001
0010
0000
0100
0000
1000
0000
,  // measure 35
0010
0100
0002
0000
1000
0000
0010
0000
,  // measure 36
1003
0000
0000
1001
0000
0000
1001
0000
0100
0000
0010
0000
0001
0000
0000
0000
,  // measure 37
2000
0010
0001
0010
,  // measure 38
3001
1000
0010
0000
0100
0000
0001
0010
,  // measure 39
0200
0000
1000
0000
1300
0010
0100
0001
,  // measure 40
0010
0000
0000
0010
0100
0000
0000
0010
0100
0000
0000
0010
0100
0000
0000
0010
,  // measure 41
0100
0000
1000
0000
0100
0000
0010
0000
0001
1000
0001
1000
0001
0000
0000
0000
,  // measure 42
1001
0110
1001
0110
,  // measure 43
1001
0100
0010
0001
1000
0000
1000
0000
,  // measure 44
1010
0110
1010
0110
,  // measure 45
1001
0000
0001
0000
0010
0100
1000
0001
,  // measure 46
1001
0110
1001
0110
,  // measure 47
1001
0010
0100
1000
0001
0000
1000
0000
,  // measure 48
0010
1000
0000
0000
0100
0010
0000
0000
,  // measure 49
0002
1000
1003
0000
,  // measure 50
0001
0000
0000
0010
0000
0000
1000
0000
0000
0010
0000
0000
0001
0000
0000
0000
,  // measure 51
1000
0100
1000
0001
0010
0100
1000
0000
,  // measure 52
0001
0000
0000
0100
0000
0000
1000
0000
0000
0100
0000
0000
0001
0000
1000
0000
,  // measure 53
0010
0000
0000
0100
0000
0000
0001
0000
0010
0000
0100
0000
1000
0000
0001
0000
,  // measure 54
1000
0000
0000
1000
0010
0000
0000
0010
0100
0000
0000
0100
0001
0000
0000
0001
,  // measure 55
1000
0000
0000
1000
0100
0000
0000
0100
0010
0000
0000
0010
0001
0000
0000
0000
,  // measure 56
0100
0010
0000
0000
1000
0010
0000
0000
,  // measure 57
1010
0000
0000
0010
0000
0000
0200
0000
0000
0000
0010
0000
0310
0000
1000
0000
,  // measure 58
1001
0000
0000
0001
0000
0000
0020
0000
0000
0000
0001
0000
0031
0000
0000
0000
,  // measure 59
0110
0000
0000
0010
0000
0000
2000
0000
0000
0000
0001
0000
3001
0000
1000
0000
,  // measure 60
1010
0000
0000
0010
0000
0000
0200
0000
0000
0000
0310
0000
1000
0000
0100
0000
,  // measure 61
0010
0000
0000
0010
0001
0000
1000
0000
0001
0000
0010
0000
1000
0000
0010
0000
,  // measure 62
0001
0000
0000
0001
1000
0000
0010
0000
1000
0000
0100
0000
0001
0000
0100
0000
,  // measure 63
1000
0000
0000
1000
0010
0000
0100
0000
0001
0000
0010
0000
1000
0000
0010
0000
,  // measure 64
0001
0000
0000
0001
1000
0000
0100
0000
0010
0000
0001
1000
0001
1000
0001
0000
,  // measure 65
1001
0000
0000
0000
0000
0010
0110
0000
,  // measure 66
0202
0000
0303
0000
;

//---------------dance-single - ----------------
#NOTES:
     dance-single:
     :
     Medium:
     10:
     0.510,0.522,0.528,0.209,0.000: // measure 1
1000
1000
0001
0001
,  // measure 2
1000
0100
0010
0001
,  // measure 3
0100
0001
0000
0000
0100
0001
0000
0000
,  // measure 4
1000
0000
0100
0010
0000
0010
0100
0000
,  // measure 5
1000
0000
0001
0100
0000
0100
0001
0000
,  // measure 6
0010
0000
0100
1000
0000
1000
0100
0000
,  // measure 7
0010
0000
0001
1000
0010
0100
0010
0100
,  // measure 8
0010
0000
1000
0100
0000
0100
0010
0000
,  // measure 9
0001
0000
0010
0001
0000
0001
1000
0000
,  // measure 10
0010
0000
0100
0001
0000
0001
1000
0000
,  // measure 11
0100
0000
0010
0100
0000
0100
1000
0000
,  // measure 12
2001
0000
0000
0000
0000
0001
3001
0000
,  // measure 13
1000
0000
0010
0000
0100
0000
0010
0100
,  // measure 14
0010
0000
0100
0000
0001
0000
0010
0100
,  // measure 15
0010
0000
0001
0010
0100
0000
1000
0000
,  // measure 16
1100
0000
0000
1100
0000
0010
0100
0000
,  // measure 17
0001
0000
0010
0000
0100
0000
0010
0001
,  // measure 18
0010
0000
0100
0000
1000
0000
0001
0100
,  // measure 19
0001
0000
0010
0100
1000
0000
0010
0000
,  // measure 20
0110
0000
0000
0110
0000
1000
0001
0000
,  // measure 21
0010
0001
0010
0000
0100
0010
0100
0000
,  // measure 22
1000
0100
0010
0001
1000
0000
0010
0000
,  // measure 23
0100
0010
0100
0000
0001
0010
0001
0000
,  // measure 24
0010
0100
1000
0001
0100
0000
0001
0000
,  // measure 25
1001
0000
0000
1100
0000
0000
0011
0000
,  // measure 26
0100
1000
0000
0001
0000
0001
0000
0000
,  // measure 27
0101
0000
0000
1010
0000
0000
0110
0000
,  // measure 28
1001
0000
0000
1001
0000
0001
1000
0000
,  // measure 29
1100
0000
0000
0011
0000
0000
1100
0000
,  // measure 30
0010
0001
0000
0100
0000
0100
0000
0000
,  // measure 31
1001
0000
0000
0101
0000
0000
1010
0000
,  // measure 32
1001
0000
0000
1001
0000
1000
0001
0000
,  // measure 33
0200
0001
0301
1000
,  // measure 34
0200
1000
1300
0001
,  // measure 35
0020
0100
0130
1000
,  // measure 36
1100
0000
0000
0100
1000
0100
1000
0000
,  // measure 37
0020
0100
0130
0001
,  // measure 38
0020
0001
0031
0100
,  // measure 39
2000
0001
3001
1000
,  // measure 40
0100
1000
0100
1000
0100
1000
0100
0000
,  // measure 41
0010
0001
1000
0000
0100
0010
0001
0000
,  // measure 42
0201
0310
0201
0310
,  // measure 43
1100
0011
1100
0000
,  // measure 44
1020
0130
1020
0130
,  // measure 45
0011
1100
0011
0000
,  // measure 46
0210
0301
0210
0301
,  // measure 47
1100
0011
1100
0000
,  // measure 48
0010
0100
0000
0000
0010
0100
0000
0000
,  // measure 49
2002
0000
0000
3003
,  // measure 50
0001
0000
0100
0001
0000
0010
0100
0000
,  // measure 51
1000
0010
1000
0010
0100
0000
0001
0000
,  // measure 52
0010
0000
0100
1000
0000
0001
0100
0000
,  // measure 53
0001
1000
0001
1000
0100
0000
0000
0000
,  // measure 54
1100
0110
0011
1001
,  // measure 55
1100
0110
0011
1001
,  // measure 56
1000
0001
0000
0000
1000
0001
0000
0000
,  // measure 57
0021
0000
0000
0001
0000
0000
0031
0000
,  // measure 58
0210
0000
0000
0010
0000
0000
0310
0000
,  // measure 59
2100
0000
0000
0100
0000
0000
3100
0000
,  // measure 60
1002
0000
0000
1000
0000
0000
1003
0000
,  // measure 61
0101
0000
0100
0010
0000
0010
1000
0000
,  // measure 62
0100
0000
0100
0010
0000
0010
0001
0000
,  // measure 63
0010
0000
0010
0100
0000
0100
1000
0000
,  // measure 64
0010
0000
0010
0100
0000
0100
0001
0000
,  // measure 65
1001
0000
0000
0000
0000
1000
1000
0000
,  // measure 66
2200
0000
3300
0000
;

//---------------dance-single - ----------------
#NOTES:
     dance-single:
     :
     Beginner:
     2:
     0.137,0.194,0.169,0.000,0.000:
1000
0000
0000
0000
,
0100
0000
0000
0000
,
1000
0000
1000
0000
,
1001
0000
0000
0000
,
0001
0000
0000
0000
,
1000
0000
0000
0000
,
0001
0000
0000
0000
,
0100
0000
0010
0000
,
0100
0000
0010
0000
,
0100
0000
0010
0000
,
0100
0000
0010
0000
,
0100
0000
0000
0000
,
1001
0000
0000
0000
,
0001
0000
0000
0000
,
1000
0000
0000
0000
,
1001
0000
0000
0000
,
0001
0000
0000
0000
,
0100
0000
0000
0000
,
0001
0000
0000
0000
,
1001
0000
0000
0000
,
1000
0000
0000
0000
,
0100
0000
0000
0000
,
0010
0000
0000
0000
,
0001
0000
0000
0000
,
1000
0000
0000
0000
,
1000
0000
0000
0000
,
0001
0000
0000
0000
,
1001
0000
0000
0000
,
1000
0000
0000
0000
,
1000
0000
0000
0000
,
0001
0000
0000
0000
,
1001
0000
0000
0000
,
0001
0000
0000
0000
,
0100
0000
0000
0000
,
0010
0000
0000
0000
,
0110
0000
0000
0000
,
1000
0000
0000
0000
,
0100
0000
0000
0000
,
0010
0000
0000
0000
,
0110
0000
0000
0000
,
0000
0000
0000
0000
,
1001
0000
0000
0000
,
1000
0000
0000
0000
,
1001
0000
0000
0000
,
0001
0000
0000
0000
,
1001
0000
0000
0000
,
1000
0000
0000
0000
,
1001
0000
0001
0000
,
0001
0000
0000
0000
,
1000
0000
0100
0000
,
1000
0000
0000
0000
,
0001
0000
1000
0000
,
0001
0000
0000
0000
,
0100
0000
0001
0000
,
0100
0000
0001
0000
,
0100
0000
0000
0000
,
0110
0000
0000
0000
,
1001
0000
0000
0000
,
0110
0000
0000
0000
,
1001
0000
0000
0000
,
0001
0000
0010
0000
,
0001
0000
0010
0000
,
0001
0000
1000
0000
,
0001
0000
1000
0000
,
0001
0000
0000
0000
,
1001
0000
0000
0000
;
