#TITLE:夜間行殺法;
#SUBTITLE:;
#ARTIST:オタッキースズキ;
#TITLETRANSLIT:YAKANKOU SAPPOU;
#SUBTITLETRANSLIT:;
#ARTISTTRANSLIT:OTAKKII SUZUKI;
#CREDIT:DigiMindAxel;
#BANNER:YAKANKOU SAPPOU.png;
#BACKGROUND:YAKANKOU SAPPOU-bg.png;
#LYRICSPATH:YAKANKOU SAPPOU.lrc;
#CDTITLE:pop'n music.png;
#MUSIC:YAKANKOU SAPPOU.ogg;
#METERTYPE:DDR X;
#OFFSET:-9.159;
#SAMPLESTART:53.120;
#SAMPLELENGTH:12.000;
#SELECTABLE:YES;
#BPMS:0.000=120.000;
#STOPS:;
#BGCHANGES:;

//---------------dance-single - ----------------
#NOTES:
     dance-single:
     :
     Easy:
     3:
     0.137,0.173,0.027,0.144,0.000:
0100
0000
0000
0000
,
0100
0000
0000
0000
,
1001
0000
0000
0000
,
2000
0000
3002
0000
,
1003
0100
0000
1000
,
0000
0010
0000
1000
,
0000
0001
0000
0100
,
0000
0001
0000
1000
,
0000
0001
0000
0010
,
0000
0001
0000
0100
,
0000
0010
0000
0100
,
0000
0010
0000
1000
,
0020
0000
0000
0000
,
0030
0000
0000
0000
,
0200
0000
0000
0000
,
0300
0000
0000
0000
,
0002
0000
0000
0000
,
0003
0000
0000
0000
,
2000
0000
0000
0000
,
3010
0010
0200
0000
,
0301
0010
0001
0000
,
1000
0100
1000
0001
,
0100
0001
0100
0000
,
0001
0100
0001
1000
,
0001
1000
0000
0010
,
0000
1000
0000
0010
,
0100
0001
0100
0010
,
0000
1000
0000
0010
,
1000
0001
1000
0000
,
0001
0000
1000
0000
,
0100
0010
0100
0000
,
1000
0000
0100
0010
,
0100
0010
0000
0001
,
0000
0010
0000
0100
,
0000
1000
0000
1001
,
0000
0001
1000
1000
,
1001
0000
0000
0000
,
0200
0000
0000
0000
,
0310
0000
0000
0000
,
2000
0000
0000
0000
,
3001
0000
0000
0000
,
2000
0000
0000
0000
,
3020
0000
0000
0030
,
2000
0000
0000
3000
,
0002
0000
0000
0003
,
0020
0000
0000
0030
,
0200
0000
0000
0000
,
2300
0000
0000
0000
0000
0000
0000
3000
;

//---------------dance-single - ----------------
#NOTES:
     dance-single:
     :
     Hard:
     11:
     0.442,0.475,0.280,0.108,0.438: // measure 1
2000
0000
0100
0000
0100
0100
0000
0000
,  // measure 2
3020
0000
0100
0000
0100
0100
0000
0030
,  // measure 3
2002
0000
0000
3003
,  // measure 4
0001
0000
0001
0000
0001
0000
0001
0000
0100
0010
0100
0010
0100
0000
0000
0000
,  // measure 5
1001
0000
0001
0000
0000
1000
0000
0000
0100
0000
0000
0001
0000
0000
0100
0000
,  // measure 6
1000
0000
1000
0000
0000
0010
0000
0000
0001
0000
0000
0010
0000
0000
1000
0000
,  // measure 7
0001
0000
0001
0000
0000
0100
0000
0000
1000
0000
0000
0100
0000
0000
0001
0000
,  // measure 8
1000
0000
1000
0000
0000
0100
0000
0000
0001
0000
0000
0100
0000
0000
1000
0000
,  // measure 9
0001
0000
0001
0000
0000
0010
0000
0000
1000
0000
0000
0010
0000
0000
0001
0000
,  // measure 10
1000
0000
1000
0000
0000
0010
0000
0000
0001
0000
0000
0010
0000
0000
1000
0000
,  // measure 11
0001
0000
1000
0000
0000
0100
0000
0000
0001
0000
0000
0100
0000
0000
1000
0000
,  // measure 12
0001
0000
1000
0000
0000
0010
0000
0000
0001
0000
0000
0010
0000
0000
1000
0000
,  // measure 13
2002
0000
0000
0000
,  // measure 14
3003
0000
0000
0000
,  // measure 15
0220
0000
0000
0000
,  // measure 16
0330
0000
0000
0000
,  // measure 17
0202
0000
0000
0000
,  // measure 18
0303
0000
0000
0000
,  // measure 19
2020
0000
0000
0000
0000
0000
0000
3030
,  // measure 20
0010
0000
0010
0000
0010
0000
0010
0000
1000
0001
1000
0001
0010
0100
0010
0100
,  // measure 21
0010
0000
0001
0010
0001
0000
0100
0010
0100
0010
1000
0000
0000
0000
0100
0010
,  // measure 22
0001
0011
0110
0000
1000
1100
0110
0000
,  // measure 23
0001
0000
1000
0100
1000
0000
0100
0010
0100
0010
0001
0000
0000
0000
0100
0010
,  // measure 24
1000
1010
0110
0000
0001
0101
0110
0000
,  // measure 25
1000
0001
0000
0000
0000
0000
0100
0001
0000
1000
0100
0000
0010
0000
0000
0000
,  // measure 26
0001
1000
0000
0000
0000
0000
0100
1000
0000
0001
0100
0000
0000
0000
0000
0000
,  // measure 27
0001
1000
0000
0000
0000
0000
0100
1000
0000
0100
0010
0000
0001
0000
0000
0000
,  // measure 28
1000
0001
0000
0000
0000
0000
0100
0001
0000
1000
0100
0000
0000
0000
0000
0000
,  // measure 29
1000
0000
0001
0100
0001
0000
0010
0100
0010
0100
1000
0000
0000
0000
0001
1000
,  // measure 30
0001
0011
0110
0000
1000
1100
0110
0000
,  // measure 31
0001
0000
1000
0010
1000
0000
0100
0010
0100
0010
0001
0000
0000
0000
1000
0001
,  // measure 32
1000
1010
0110
0000
0001
0101
0110
0000
,  // measure 33
1000
0001
0000
0000
0010
0000
0100
1000
0000
0001
0100
0000
0001
0000
0000
0000
,  // measure 34
1000
0001
0000
0000
1000
0000
0010
0100
0000
0001
0010
0000
0000
0000
0000
0000
,  // measure 35
0001
1000
0000
0000
0010
0000
0100
0001
0000
0010
0100
0000
1000
0000
0000
0000
,  // measure 36
0001
1000
0000
0000
0010
0000
0100
0001
1000
0001
1000
0001
1000
0001
1000
0001
,  // measure 37
1000
0000
0100
0000
0000
0001
0000
0000
0100
0000
0000
1000
0000
0000
0010
0000
,  // measure 38
1010
0000
1010
0000
0000
1001
0000
0000
0011
0000
0000
1001
0000
0000
1100
0000
,  // measure 39
1000
0000
0010
0000
0000
0001
0000
0000
0010
0000
0000
1000
0000
0000
0001
0000
,  // measure 40
1001
0000
1000
0000
0000
0100
0000
0000
0010
0000
0000
0001
0000
0000
1000
0000
,  // measure 41
1001
0000
0001
0000
0000
0100
0000
0000
1000
0000
0000
0100
0000
0000
0001
0000
,  // measure 42
1001
0000
1000
0000
0000
0100
0000
0000
0010
0000
0000
0001
0000
0000
1000
0000
,  // measure 43
0001
0000
0100
0001
0100
0001
0100
0010
0100
0010
0100
0000
0000
0000
0000
0000
,  // measure 44
0010
0000
1000
0001
1000
0001
1000
0100
1000
0100
1000
0000
0000
0000
0000
0000
,  // measure 45
0100
0000
0010
0001
0010
0001
0010
0100
0010
0100
0010
0000
0000
0000
0000
0000
,  // measure 46
0001
0000
0100
0001
0100
0001
0100
0010
0100
0010
0100
0000
0000
0000
0000
0000
,  // measure 47
0010
0000
1000
0000
0000
0001
0000
0000
0010
0000
0000
0100
0000
0000
1000
0000
,  // measure 48
0100
0000
1000
0000
0000
0010
0000
0000
0100
0000
0000
0001
0000
0000
0010
0000
;

//---------------dance-single - ----------------
#NOTES:
     dance-single:
     :
     Medium:
     7:
     0.277,0.324,0.171,0.171,0.009:
0020
0000
0000
0000
,
0000
0000
0000
0000
0000
0000
0000
0030
,
2002
0000
0000
3003
,
0100
0100
0100
0100
0010
0100
1001
0000
,
1000
0000
0010
0000
1000
0001
0010
0000
,
0100
0000
0010
0000
0001
1000
0010
0000
,
1000
0000
0001
0000
0010
0100
1000
0000
,
0100
0000
0010
0000
0100
1000
0010
0000
,
0100
0000
0001
0000
1000
0100
0010
0000
,
0100
0000
1000
0000
0010
0100
0001
0000
,
0100
0000
0001
0000
1000
0100
0010
0000
,
0100
0000
1000
0000
0001
1000
0010
1000
,
0002
0000
0000
0000
,
0003
0000
0000
0000
,
2000
0000
0000
0000
,
3000
0000
0000
0000
,
0002
0000
0000
0000
,
0003
0000
0000
0000
,
2000
0000
0000
0000
,
3001
0001
0001
0001
1000
0001
1000
0001
,
1000
0010
0100
0001
0010
0100
0000
0000
,
1000
1000
1001
0000
0001
0001
1001
0000
,
0001
0100
0010
1000
0100
0010
0000
0000
,
0001
0001
1001
0000
1000
1000
1001
0000
,
0001
1000
0100
0000
0010
0000
1001
0000
,
0002
0100
0100
0103
,
0001
1000
0100
0000
0010
0000
1001
0000
,
2000
0100
0100
3100
,
0010
0001
0100
0010
1000
0100
0000
0000
,
0010
0010
0110
0000
0100
0100
0110
0000
,
0001
1000
0010
0100
0001
1000
0000
0000
,
0100
0100
1100
0000
0010
0010
0110
0000
,
0001
1000
0100
0000
0010
0000
1001
0000
,
0002
0100
0100
0103
,
0001
1000
0010
0000
0100
0000
1001
0000
,
0002
0000
0010
0000
0013
0100
0010
0100
,
2002
0000
0000
3003
,
1000
0000
1000
0000
0000
0100
0000
0000
0010
0000
0000
0100
0000
0000
0010
0000
,
2002
0000
0000
3003
,
0110
0000
0000
0000
,
2002
0000
0000
3003
,
0110
0000
0000
0000
,
1000
0000
0100
0000
0010
0010
0000
0000
,
0001
0000
0010
0000
0100
0100
0000
0000
,
1000
0000
0010
0000
0100
0100
0000
0000
,
0001
0000
0100
0000
0010
0010
0000
0000
,
2000
0000
0000
0000
,
3002
0000
0000
0000
0000
0000
0000
0003
;

//---------------dance-single - ----------------
#NOTES:
     dance-single:
     :
     Beginner:
     1:
     0.061,0.106,0.045,0.000,0.000:
0000
0000
0000
0000
,
0000
0000
0000
0000
,
0000
0000
0000
0000
,
1000
0000
0001
0000
,
1000
0000
0000
0000
,
0001
0000
0000
0000
,
1000
0000
0000
0000
,
0010
0000
0000
0000
,
0100
0000
0000
0000
,
0010
0000
0000
0000
,
1000
0000
0000
0000
,
0001
0000
0000
0000
,
1000
0000
0000
0000
,
0000
0000
0000
0000
,
0100
0000
0000
0000
,
0000
0000
0000
0000
,
0010
0000
0000
0000
,
0000
0000
0000
0000
,
0001
0000
0000
0000
,
1000
0000
0001
0000
,
1000
0000
0000
0000
,
1001
0000
0000
0000
,
0001
0000
1000
0000
,
1001
0000
0000
0000
,
0001
0000
0000
0000
,
0000
0000
0000
0000
,
0010
0000
0000
0000
,
0000
0000
0000
0000
,
0001
0000
1000
0000
,
1001
0000
0000
0000
,
1000
0000
0001
0000
,
1001
0000
0000
0000
,
1000
0000
0000
0000
,
0000
0000
0000
0000
,
0100
0000
0000
0000
,
0010
0000
0001
0000
,
1001
0000
0000
0000
,
0000
0000
0000
0000
,
0100
0000
0000
0000
,
0000
0000
0000
0000
,
0010
0000
0000
0000
,
0000
0000
0000
0000
,
1000
0000
0000
0000
,
0001
0000
0000
0000
,
1000
0000
0000
0000
,
0001
0000
0000
0000
,
0100
0000
0000
0000
,
0010
0000
0000
0000
;
