#TITLE:XY&Z;
#SUBTITLE:;
#ARTIST:サトシ(CV:松本 梨香);
#TITLETRANSLIT:;
#SUBTITLETRANSLIT:;
#ARTISTTRANSLIT:SATOSHI (CV.RICA MATSUMOTO);
#CREDIT:DigiMindAxel;
#BANNER:XY&Z.png;
#BACKGROUND:XY&Z-bg.png;
#LYRICSPATH:XY&Z.lrc;
#CDTITLE:DigiMindAxel original simfile.png;
#MUSIC:XY&Z.ogg;
#METERTYPE:DDR X;
#OFFSET:-0.784;
#SAMPLESTART:44.462;
#SAMPLELENGTH:12.000;
#SELECTABLE:YES;
#BPMS:0.000=254.000;
#STOPS:;
#BGCHANGES:-4.000=XY&Z.avi=1.000=1=1=0,
99999=-nosongbg-=1.000=0=0=0 // don't automatically add -songbackground-
;

//---------------dance-single - ----------------
#NOTES:
     dance-single:
     :
     Easy:
     4:
     0.192,0.261,0.194,0.137,0.000:
0000
0000
0000
0000
,
0000
0000
0000
0000
,
0000
0000
0000
0000
,
2000
0000
0000
3100
,
0000
0000
0000
0000
,
0020
0000
0000
0130
,
0000
0000
0000
0000
,
2000
0000
0000
3001
,
0000
0000
0000
0000
,
1001
0000
0000
1001
,
0000
0000
1001
0000
,
0002
0000
0000
0000
,
1003
0000
0000
0000
,
0002
0000
0000
0000
,
1003
0000
0000
0000
,
0010
0000
0000
0000
,
0100
0000
0000
0000
,
0010
0000
0000
0000
,
0100
0000
0000
0000
,
0002
0000
0000
0000
,
1003
0000
0000
0000
,
0200
0000
0000
0000
,
1300
0000
0000
0000
,
0001
0000
0000
0000
,
1000
0000
0000
0000
,
0001
0000
0000
0000
,
0010
0000
0000
0000
,
1001
0000
0000
0000
,
0000
0000
0000
0000
,
1000
0000
0000
0000
,
0000
0000
0000
0000
,
1001
0000
0000
0000
,
0001
0000
0000
0000
,
1001
0000
0000
0000
,
0000
0000
0000
0000
,
0100
0000
0000
0000
,
0100
0000
0000
0000
,
0010
0000
0000
0000
,
0010
0000
0000
0000
,
0001
0000
0000
0000
,
0001
0000
0000
0000
,
1000
0000
0000
0000
,
1000
0000
0000
0000
,
1001
0000
0000
0000
,
0000
0000
0000
0000
,
0110
0000
0000
0000
,
0000
0000
0000
0000
,
1001
0000
0000
0000
,
0001
0000
0000
0000
,
1000
0000
0000
0000
,
0001
0000
0000
0000
,
0010
0000
0000
0000
,
0100
0000
0000
0000
,
1001
0000
0000
0000
,
0000
0000
0000
0000
,
0110
0000
0000
0000
,
0010
0000
0000
0000
,
0100
0000
0000
0000
,
0010
0000
0000
0000
,
1000
0000
0000
0000
,
0100
0000
0000
0000
,
1001
0000
0000
0000
,
0000
0000
0000
0000
,
0002
0000
0000
0000
,
1003
0000
0000
0000
,
0200
0000
0000
0000
,
1300
0000
0000
0000
,
0020
0000
0000
0000
,
0130
0000
0000
0000
,
1001
0000
0000
0000
,
0000
0000
0000
0000
,
1000
0000
0001
0000
,
1000
0000
0001
0000
,
1000
0000
0001
0000
,
1000
0000
0000
0000
,
0100
0000
1000
0000
,
0100
0000
1000
0000
,
0010
0000
0000
0000
,
0000
0000
0000
0000
,
0110
0000
0000
0000
,
0000
0000
0000
0000
,
1001
0000
0000
0000
,
0001
0000
1000
0000
,
0100
0000
0100
0000
,
0100
0000
0100
0000
,
0110
0000
0000
0000
,
0010
0000
0001
0000
,
0100
0000
0000
0000
,
0100
0000
0000
0010
,
0000
0000
0000
0000
,
0010
0000
0000
0220
,
0000
0000
0330
0000
;

//---------------dance-single - ----------------
#NOTES:
     dance-single:
     :
     Medium:
     10:
     0.523,0.626,0.422,0.194,0.000:
0000
0000
0000
0000
,
0000
0000
0000
0000
,
0000
0000
0000
0000
,
1000
0000
0100
0000
1000
0000
0000
1001
,
0000
0000
0100
0000
,
0010
0000
0100
0000
0010
0000
0000
0110
,
0000
0000
0100
0000
,
0001
0000
0010
0000
0001
0000
0000
1001
,
0000
0000
1000
0000
,
0010
0000
0000
0010
0000
0000
0100
0000
,
0000
0100
0000
0000
0001
0000
1000
0000
,
1001
0000
0001
0000
,
1000
0000
0001
0000
,
0010
0000
0100
0000
,
0010
0000
0100
0000
,
1000
0001
1000
0000
,
0100
0010
0100
0000
,
1000
0010
1000
0010
,
0100
0001
0010
0000
,
1001
0000
0001
1000
,
0001
0000
0100
0001
,
0100
0000
0001
1000
,
0100
0010
0001
1000
,
0010
0100
0010
0100
,
0001
0000
0000
0100
0000
0000
0010
0000
,
0000
1000
0100
0010
,
0100
1000
0001
0000
,
1001
0000
0000
0000
1000
0000
0000
0100
,
0000
0010
0010
0000
,
0001
0000
0000
0000
0010
0000
0000
0100
,
0000
1000
1000
0000
,
0110
0000
0000
0000
0010
0000
0000
0100
,
0000
0001
0001
0000
,
1001
0000
0000
1001
0000
0000
1001
0000
,
0000
0000
0010
0100
,
1001
0000
0001
0000
1000
0001
1000
0000
,
0100
0010
0001
0000
,
1000
0000
0001
0000
1000
0001
1000
0000
,
0010
0100
0001
0000
,
2000
0000
0000
0001
0000
0000
3001
0000
,
0000
1000
0100
0010
,
0200
0000
0000
1000
0000
0000
1300
0000
,
0000
0001
0100
0010
,
0110
0000
0000
0100
0000
0000
0100
0000
,
0000
0100
0000
0000
0100
0000
0001
0000
,
1000
0000
0000
1000
0000
0000
1000
0000
,
0010
0000
0000
0000
,
1001
0000
0010
0100
,
1000
0001
0010
0100
,
1000
0000
0001
0100
0000
0001
0000
1000
,
0000
0010
0100
0010
,
1001
0000
0100
1000
,
0010
0100
0001
1000
,
1001
0000
0000
0110
0000
0000
1001
0000
,
0000
0010
0100
0010
,
1001
0000
0010
0100
,
1000
0001
0100
0001
,
2000
0001
3002
1000
,
1003
0001
0100
0000
,
0001
0000
0010
0100
0000
1000
0000
0010
,
0000
0100
0001
1000
,
1001
0000
0000
0001
0000
0000
1000
0000
,
0000
1000
0000
0000
0010
0000
0100
0000
,
1001
0000
0000
0000
0002
0000
0000
1000
,
0000
1003
0000
0000
0100
0000
0000
0000
,
0010
0000
0000
0000
0002
0000
0000
0100
,
0000
0103
0000
0000
0010
0000
0000
0000
,
1001
0000
0000
0000
2000
0000
0000
0001
,
0000
3001
0000
0000
0100
0000
0000
0000
,
1001
0000
0000
0000
,
0000
0000
0100
0010
,
1001
0000
0001
1000
,
0010
1000
0001
0100
,
1000
0100
0001
0010
,
0100
1000
0100
0000
,
1000
0000
0001
0100
0000
0001
0000
1000
,
0000
0100
0010
0001
,
0100
0000
0000
0110
0000
0000
0110
0000
,
0000
0010
0100
0010
,
1001
0000
0000
1001
0000
0000
1001
0000
,
0000
0100
0010
0100
,
2002
3003
1000
0001
,
0100
0000
0001
1000
0000
0100
0000
1100
,
0000
1000
1001
0000
,
0101
0001
1001
0000
,
0220
0330
0100
0010
,
0001
0100
0000
0001
0000
1000
0000
0200
,
0000
0000
1000
0000
1300
0000
0000
0210
,
0000
0001
0301
2001
,
0000
0000
0100
0000
3100
0000
0000
0020
,
0000
0001
0031
0220
,
0000
0000
0330
0000
;

//---------------dance-single - ----------------
#NOTES:
     dance-single:
     :
     Hard:
     13:
     0.724,0.782,0.387,0.160,0.000: // measure 1
0000
0000
0000
0000
,  // measure 2
0000
0000
0000
0000
,  // measure 3
0000
0000
0000
0000
,  // measure 4
1000
0000
1000
0000
0001
0000
0010
0200
,  // measure 5
0000
1300
0010
1000
,  // measure 6
0001
0000
0001
0000
0010
0000
0001
2000
,  // measure 7
0000
3100
0010
0100
,  // measure 8
1000
0000
1000
0000
0010
0000
0100
0002
,  // measure 9
0000
0000
1003
0000
0001
0000
1000
0001
,  // measure 10
1000
0000
0100
1000
0000
0100
0010
0000
,  // measure 11
0001
0010
0000
0100
0010
0001
0010
0001
,  // measure 12
0200
0000
0310
1000
,  // measure 13
0010
0100
0010
1000
,  // measure 14
0100
0001
0010
0001
,  // measure 15
0100
1000
0001
1000
,  // measure 16
1001
0100
0010
0001
,  // measure 17
1000
0010
1000
0010
,  // measure 18
0001
0010
1000
0001
,  // measure 19
0010
0000
0100
0000
1000
0001
1000
0001
,  // measure 20
0100
0000
0001
1000
0001
0000
1000
0100
,  // measure 21
1000
0001
0010
0001
,  // measure 22
0100
0000
0010
0100
0010
0000
1000
0001
,  // measure 23
1000
0100
0010
0100
,  // measure 24
1000
0000
0001
0100
0001
0000
1000
0001
,  // measure 25
1000
0100
0010
0100
,  // measure 26
1000
0000
0001
1000
0001
0000
1000
0100
,  // measure 27
1000
0010
0100
0010
0100
0010
1000
0000
,  // measure 28
1001
0000
0001
0000
1000
0000
0001
0100
,  // measure 29
0000
0100
0010
0000
0100
0000
0000
0000
,  // measure 30
0001
0000
1000
0000
0001
0000
0010
0001
,  // measure 31
0000
0001
0100
0000
0010
0000
0000
0000
,  // measure 32
1001
0000
1000
0000
0001
0000
1000
0010
,  // measure 33
0000
0010
0100
0000
0001
0000
0000
0000
,  // measure 34
1001
0000
0001
1000
0000
0001
1000
0000
,  // measure 35
0100
0010
0100
0010
0001
0100
0001
0100
,  // measure 36
0001
0000
1000
0100
1000
0000
0001
1000
,  // measure 37
0001
0010
0100
0010
,  // measure 38
0001
0000
0100
0010
0100
0000
0001
1000
,  // measure 39
0001
1000
0001
0010
,  // measure 40
0100
0000
1000
0010
0000
1000
0002
0000
,  // measure 41
0000
0000
0013
0000
0100
1000
0010
0000
,  // measure 42
0100
0000
0001
1000
0000
0100
2000
0000
,  // measure 43
0000
0000
3100
0000
0010
0001
1000
0000
,  // measure 44
1001
0000
0000
1001
0000
0000
0101
0000
,  // measure 45
0000
1010
0000
0000
1001
0000
0000
0000
,  // measure 46
0001
1000
0001
1000
0100
0010
0001
0010
,  // measure 47
0100
0000
0000
0000
,  // measure 48
1001
0000
0001
0100
0001
0000
0100
0001
,  // measure 49
1000
0100
0001
0100
,  // measure 50
1000
0000
0010
1000
0000
0010
0000
0100
,  // measure 51
0000
0020
0200
0330
,  // measure 52
1001
0000
0001
0100
0001
0000
0010
0100
,  // measure 53
1000
0010
0001
0010
,  // measure 54
1001
0000
0000
1100
0000
0000
0011
0000
,  // measure 55
0001
1000
0001
0010
0100
1000
0001
0000
,  // measure 56
1001
0000
1000
0100
1000
0000
0010
1000
,  // measure 57
0100
0010
0001
0100
,  // measure 58
0001
0000
0010
0100
1000
0000
0001
1000
,  // measure 59
0001
0010
0100
0000
,  // measure 60
1000
0000
0001
1000
0000
0100
0000
0010
,  // measure 61
0000
0001
0100
0001
,  // measure 62
1000
0100
0000
0010
0100
0000
1000
0010
,  // measure 63
0000
1000
0100
0010
0001
1000
0010
0000
,  // measure 64
1001
0000
1000
0000
0010
0000
0100
0001
,  // measure 65
0000
0001
0010
0000
0100
0000
0000
0000
,  // measure 66
1000
0000
0001
0000
1000
0000
0100
1000
,  // measure 67
0000
1000
0010
0000
0100
0000
0000
0000
,  // measure 68
1001
0000
0001
0000
1000
0000
0001
0100
,  // measure 69
0000
0100
0010
0000
0100
0000
0000
0000
,  // measure 70
2002
0000
0000
0000
,  // measure 71
3003
0000
0000
0000
0001
1000
0001
1000
,  // measure 72
0100
0000
0010
0001
0100
0000
0010
0100
,  // measure 73
0010
1000
0001
0010
,  // measure 74
1001
0000
1000
0010
1000
0000
0100
0010
,  // measure 75
0001
0010
0001
0010
,  // measure 76
1001
0000
1000
0001
0000
0010
0000
0100
,  // measure 77
0000
1000
0010
1000
,  // measure 78
1001
0000
0000
1100
0000
0000
0011
0000
,  // measure 79
0000
0000
0001
0010
0001
0010
0100
0000
,  // measure 80
1010
0000
0000
0101
0000
0000
1001
0000
,  // measure 81
0000
0000
1000
0010
1000
0010
0100
0000
,  // measure 82
1001
0000
0001
0100
0001
0000
1000
0001
,  // measure 83
0010
0100
1000
0010
,  // measure 84
0100
0110
1001
0001
,  // measure 85
1000
1001
0110
0000
,  // measure 86
1001
0000
1000
0010
1000
0000
0100
0010
,  // measure 87
0001
0000
1000
0000
0010
0100
0000
1002
,  // measure 88
0000
0000
0100
0000
0103
0000
0010
0200
,  // measure 89
0000
0001
0301
1002
,  // measure 90
0000
0000
0010
0000
0013
0000
0100
1000
,  // measure 91
0010
0100
0010
0100
0001
0010
0200
0000
,  // measure 92
0000
0000
0300
0000
;

//---------------dance-double - ----------------
#NOTES:
     dance-double:
     :
     Easy:
     5:
     0.241,0.313,0.228,0.125,0.000:
00000000
00000000
00000000
00000000
,
00000000
00000000
00000000
00000000
,
00000000
00000000
00000000
00000000
,
10000000
00000000
00010000
00000000
,
10000000
00000000
01000000
00000000
,
10000000
00000000
00100000
00000000
,
10000000
00000000
00010000
00000000
,
01000000
00000000
00100000
00000000
,
01000000
00000000
00001000
00000000
,
00011000
00000000
00000000
00011000
,
00000000
00000000
00001000
00010000
,
00002000
00000000
00000000
00000000
,
00013000
00000000
00000000
00000000
,
00000020
00000000
00000000
00000000
,
00000130
00000000
00000000
00000000
,
00000002
00000000
00000000
00000000
,
00000013
00000000
00000000
00000000
,
00000200
00000000
00000000
00000000
,
00000310
00000000
00000000
00000000
,
00000001
00000000
00001000
00000000
,
00000001
00000000
00000000
00000000
,
00001000
00000000
00000100
00000000
,
00001000
00000000
00000000
00000000
,
00000010
00000000
00000100
00000000
,
00000010
00000000
00000000
00000000
,
00010000
00000000
00000100
00000000
,
00010000
00000000
00000000
00000000
,
00011000
00000000
00000000
00000000
,
00000000
00000000
00000000
00000000
,
01000000
00000000
00000000
00000000
,
00000000
00000000
00000000
00000000
,
01100000
00000000
00000000
00000000
,
00100000
00000000
00000000
00000000
,
10010000
00000000
00000000
00000000
,
00000000
00000000
00000000
00000000
,
00010000
00000000
01000000
00000000
,
00010000
00000000
01000000
00000000
,
00001000
00000000
00100000
00000000
,
00001000
00000000
00100000
00000000
,
00002000
00000000
00010000
00000000
,
00013000
00000000
00000000
00000000
,
00000020
00000000
00000100
00000000
,
00000130
00000000
00000000
00000000
,
00001001
00000000
00000000
00000000
,
00000000
00000000
00000000
00000000
,
00000110
00000000
00000000
00000000
,
00000000
00000000
00000000
00000000
,
01100000
00000000
00100000
00000000
,
01000000
00000000
00100000
00000000
,
10000000
00000000
01000000
00000000
,
00100000
00000000
00000000
00000000
,
10010000
00000000
00010000
00000000
,
10000000
00000000
00100000
00000000
,
01100000
00000000
00000000
00000000
,
00000000
00000000
00000000
00000000
,
00011000
00000000
00010000
00000000
,
00001000
00000000
00010000
00000000
,
00000010
00000000
00000100
00000000
,
00000010
00000000
00000100
00000000
,
00000001
00000000
00000010
00000000
,
00000001
00000000
00000100
00000000
,
00000110
00000000
00000000
00000000
,
00000000
00000000
00000000
00000000
,
00020000
00000000
00000000
00000000
,
00031000
00000000
00000000
00000000
,
02000000
00000000
00000000
00000000
,
03100000
00000000
00000000
00000000
,
20000000
00000000
00000000
00000000
,
30010000
00000000
00000000
00000000
,
01100000
00000000
00000000
00000000
,
00000000
00000000
00000000
00000000
,
10010000
00000000
00010000
00000000
,
01000000
00000000
00100000
00000000
,
01000000
00000000
00010000
00000000
,
00100000
00000000
00000000
00000000
,
00001000
00000000
00010000
00000000
,
00001000
00000000
00010000
00000000
,
00000010
00000000
00000000
00000000
,
00000000
00000000
00000000
00000000
,
00000110
00000000
00000000
00000000
,
00000000
00000000
00000000
00000000
,
00011000
00000000
00000000
00000000
,
00010000
00000000
00001000
00000000
,
01000000
00000000
01100000
00000000
,
01000000
00000000
01100000
00000000
,
10010000
00000000
00000000
00000000
,
10000000
00000000
00100000
00000000
,
01000000
00000000
00000000
00000000
,
00001000
00000000
00000000
01000000
,
00000000
00000000
00000000
00000000
,
00001000
00000000
00000000
00022000
,
00000000
00000000
00033000
00000000
;

//---------------dance-double - ----------------
#NOTES:
     dance-double:
     :
     Medium:
     10:
     0.500,0.521,0.410,0.148,0.000:
00000000
00000000
00000000
00000000
,
00000000
00000000
00000000
00000000
,
00000000
00000000
00000000
00000000
,
10000000
00000000
01000000
00000000
10000000
00000000
00000000
11000000
,
00000000
00000000
00100000
01000000
,
00010000
00000000
01000000
00000000
00010000
00000000
00000000
01010000
,
00000000
00000000
01000000
00100000
,
01000000
00000000
00001000
00000000
00010000
00000000
00000000
00011000
,
00000000
00000000
00010000
00000010
,
00010000
00000000
00000000
00000100
00000000
00000000
00000010
00000000
,
00000000
00000001
00000000
00000000
00000010
00000000
00000100
00000000
,
00000110
00000000
00000010
00000000
,
00000100
00000000
00000010
00000000
,
00000100
00000000
00000001
00000000
,
00000010
00000000
00000001
00000000
,
00001000
00000001
00001000
00000000
,
00000010
00001000
00000010
00000000
,
00010000
00001000
00010000
00001000
,
00100000
01000000
10000000
00000000
,
01100000
00000000
00100000
01000000
,
00100000
00000000
01000000
00100000
,
01000000
00000000
00010000
01000000
,
00010000
10000000
01000000
10000000
,
00100000
01000000
00001000
00010000
,
00000100
00000000
00000000
00000100
00000000
00000000
00000100
00000000
,
00000000
00000010
00000001
00000010
,
00000001
00000100
00000010
00000000
,
00000110
00000000
00000000
00000000
00000010
00000000
00000000
00010000
,
00000000
00001000
00001000
00000000
,
00100000
00000000
00000000
00000000
01000000
00000000
00000000
10000000
,
00000000
01000000
01000000
00000000
,
10010000
00000000
00000000
00000000
10000000
00000000
00000000
00010000
,
00000000
00100000
00100000
00000000
,
00011000
00000000
00000000
00011000
00000000
00000000
00011000
00000000
,
00000000
00000000
00000000
00000000
,
00000010
00000000
00000100
00000000
00000010
00000100
00000010
00000000
,
00001000
00000010
00001000
00000000
,
00000001
00000000
00001000
00000000
00000001
00001000
00000001
00000000
,
00000010
00000100
00010000
00000000
,
00002000
00000000
00000000
00100000
00000000
00000000
00103000
00000000
,
00000000
00010000
00100000
01000000
,
20000000
00000000
00000000
01000000
00000000
00000000
31000000
00000000
,
00000000
00100000
00010000
10000000
,
10010000
00000000
00000000
00010000
00000000
00000000
01000000
00000000
,
00000000
01000000
00000000
00000000
00001000
00000000
00010000
00000000
,
00000010
00000000
00000000
00000010
00000000
00000000
00000010
00000000
,
00000100
00000000
00000000
00000000
,
00000110
00000000
00000010
00000100
,
00000010
00000001
00000010
00000100
,
00010000
00000000
00001000
00010000
00000000
00001000
00000000
01000000
,
00000000
00100000
00100000
00000000
,
01100000
00000000
00100000
10000000
,
01000000
10000000
00100000
01000000
,
01100000
00000000
00000000
01001000
00000000
00000000
00011000
00000000
,
00000000
00010000
00010000
00000000
,
00011000
00000000
00010000
00000010
,
00000100
00000010
00010000
00000100
,
00000020
00000000
00000032
00000000
,
00001003
00000100
00001000
00000000
,
00000010
00000000
00000100
00000001
00000000
00000100
00000000
00000010
,
00000000
00010000
00001000
00010000
,
00001000
00000000
00000000
00001000
00000000
00000000
01000000
00000000
,
00000000
01000000
00000000
00000000
00100000
00000000
10000000
00000000
,
10010000
00000000
00200000
00000000
,
01300000
00000000
00001000
00000000
,
00010000
00000000
00000200
00000000
,
00000310
00000000
00000001
00000000
,
00000110
00000000
00020000
00000000
,
00031000
00000000
01000000
00000000
,
01100000
00000000
00000000
00000000
,
00000000
00000000
00010000
10000000
,
10010000
00000000
00100000
01000000
,
10000000
01000000
00100000
00001000
,
01000000
00001000
00010000
00000100
,
00000010
00000100
00010000
00000000
,
00000010
00000000
00000100
00000001
00000000
00000100
00000000
00000010
,
00000000
00001000
00010000
00100000
,
01100000
00000000
00000000
10100000
00000000
00000000
10010000
00000000
,
00000000
00100000
01000000
00100000
,
01100000
00000000
00000000
01001000
00000000
00000000
00011000
00000000
,
00000000
00010000
00000010
00010000
,
00010001
00000000
00000001
00000100
,
00000001
00000000
00010000
00001000
00000000
00100000
00000000
00000000
,
11000000
00000000
00110000
00000000
,
11000000
00000000
00110000
00000000
,
10010000
00000000
00010000
10000000
,
01000000
00100000
00000000
00001000
00000000
00000000
00000000
00020000
,
00000000
00000000
00001000
00000000
00031000
00000000
00000000
00010020
,
00000000
00000100
00000130
00000002
,
00000000
00000000
00000010
00000000
00000013
00000000
00000000
00000210
,
00000000
00000010
00000310
00002002
,
00000000
00000000
00003003
00000000
;

//---------------dance-double - ----------------
#NOTES:
     dance-double:
     :
     Hard:
     13:
     0.715,0.782,0.319,0.160,0.000:
00000000
00000000
00000000
00000000
,
00000000
00000000
00000000
00000000
,
00000000
00000000
00000000
00000000
,
10000000
00000000
10000000
00000000
00100000
00000000
10000000
00020000
,
00000000
01030000
00010000
00001000
,
00000010
00000000
00000010
00000000
00000100
00000000
00000001
00000200
,
00000000
00000301
00001000
00000001
,
00000010
00000000
00000010
00000000
00000100
00000000
00010000
00002000
,
00000000
00000000
01003000
00000000
00100000
00000000
01000000
00100000
,
01000000
00000000
00010000
01000000
00000000
00010000
10000000
00000000
,
00001000
00100000
00000000
00001000
00010000
00000010
00000100
00000010
,
00000200
00000000
00000301
00000100
,
00000001
00000100
00001000
00000100
,
00000001
00000010
00000100
00010000
,
00001000
00010000
00001000
01000000
,
01100000
00100000
01000000
00100000
,
10000000
01000000
00010000
01000000
,
10000000
00100000
01000000
00010000
,
00001000
00000000
00000010
00000000
00000100
00000010
00000100
00000010
,
00000100
00000000
00000001
00000100
00000001
00000000
00001000
00000001
,
00001000
00000100
00000010
00000100
,
00010000
00000000
00001000
00010000
00001000
00000000
01000000
00100000
,
01000000
00010000
01000000
00100000
,
01000000
00000000
00010000
10000000
00010000
00000000
10000000
01000000
,
10000000
00100000
01000000
00010000
,
00001000
00000000
00000010
00000100
00000010
00000000
00001000
00000001
,
00001000
00000100
00001000
00000100
00001000
00000100
00001000
00000100
,
00000010
00000000
00000001
00000000
00000010
00000000
00000001
00001000
,
00000000
00001000
00000100
00000000
00010000
00000000
00000000
00000000
,
00100000
00000000
01000000
00000000
10000000
00000000
00100000
01000000
,
00000000
01000000
00010000
00000000
01000000
00000000
00000000
00000000
,
00011000
00000000
00001000
00000000
00010000
00000000
00000100
00000010
,
00000000
00000010
00000001
00000000
00000100
00000000
00000000
00000000
,
00001001
00000000
00000001
00001000
00000000
00000001
00001000
00000000
,
00000001
00000100
00000001
00000100
00000010
00000100
00000010
00000100
,
00000001
00000000
00010000
00000100
00010000
00000000
00001000
00010000
,
00001000
01000000
00100000
01000000
,
00001000
00000000
10000000
01000000
10000000
00000000
00100000
01000000
,
00100000
10000000
00100000
01000000
,
00001000
00000000
00010000
00000010
00000000
00010000
00000020
00000000
,
00000000
00000000
00000130
00000000
00000001
00000010
00000001
00000000
,
00000010
00000000
00000100
00010000
00000000
00001000
00020000
00000000
,
00000000
00000000
00031000
00000000
01000000
00100000
01000000
00000000
,
01100000
00000000
00000000
01100000
00000000
00000000
11000000
00000000
,
00000000
00101000
00000000
00000000
00011000
00000000
00000000
00000000
,
00010000
00000010
00010000
00000010
00000100
00000001
00000100
00000001
,
00010000
00000000
00000000
00000000
,
01100000
00000000
00100000
01000000
00100000
00000000
10000000
01000000
,
00100000
00001000
00010000
00001000
,
00010000
00000000
00000010
00000100
00000000
00000001
00000000
00000010
,
00000000
00000002
00002000
00003003
,
00000110
00000000
00000100
00000010
00000100
00000000
00000001
00000010
,
00000100
00010000
00001000
00010000
,
00011000
00000000
00000000
01001000
00000000
00000000
10100000
00000000
,
00100000
01000000
00100000
10000000
01000000
00100000
00010000
00000000
,
10010000
00000000
10000000
00100000
10000000
00000000
00100000
01000000
,
00010000
01000000
00001000
00010000
,
00000100
00000000
00000010
00000001
00000100
00000000
00000010
00000100
,
00000010
00010000
00001000
00000000
,
01000000
00000000
00100000
01000000
00000000
00010000
00000000
10000000
,
00000000
00100000
01000000
00100000
,
10000000
00100000
00000000
10000000
00001000
00000000
00010000
00001000
,
00000000
00010000
00000010
00000100
00000010
00000100
00000001
00000000
,
00001001
00000000
00001000
00000000
00000001
00000000
00000100
00000010
,
00000000
00000010
00010000
00000000
00001000
00000000
00000000
00000000
,
01000000
00000000
00100000
00000000
01000000
00000000
00010000
01000000
,
00000000
01000000
00100000
00000000
10000000
00000000
00000000
00000000
,
10010000
00000000
00010000
00000000
10000000
00000000
01000000
00100000
,
00000000
00100000
00010000
00000000
00001000
00000000
00000000
00000000
,
00000220
00000000
00000000
00000000
,
00000330
00000000
00000000
00000000
00001000
00000001
00001000
00000001
,
00001000
00000000
00000010
00000100
00000001
00000000
00010000
00000100
,
00010000
00001000
00100000
01000000
,
10010000
00000000
00010000
01000000
00010000
00000000
01000000
00100000
,
10000000
01000000
00100000
00001000
,
00010000
00000000
00000010
00000100
00000000
00000001
00000000
00000010
,
00000000
00000001
00001000
00000001
,
00001001
00000000
00000000
00010010
00000000
00000000
00011000
00000000
,
00000000
00000000
00100000
01000000
00100000
01000000
10000000
00000000
,
11000000
00000000
00000000
01100000
00000000
00000000
00101000
00000000
,
00000000
00000000
00001000
00010000
00001000
00010000
00000010
00000000
,
00000110
00000000
00000100
00000001
00000100
00000000
00000001
00000010
,
00000100
00010000
00001000
01000000
,
00100000
10000000
10100000
10000000
,
00001000
00100000
00101000
00000000
,
00011000
00000000
00010000
00000010
00010000
00000000
00000010
00000100
,
00000001
00000000
00000010
00000000
00000100
00010000
00000000
00002000
,
00000000
00000000
01000000
00000000
01003000
00000000
00100000
02000000
,
00000000
00010000
03010000
20000000
,
00000000
00010000
30010000
10000000
,
00100000
01000000
00100000
01000000
00010000
00001000
00000200
00000000
,
00000000
00000000
00000300
00000000
;

//---------------dance-single - ----------------
#NOTES:
     dance-single:
     :
     Beginner:
     2:
     0.129,0.207,0.137,0.000,0.000:
0000
0000
0000
0000
,
0000
0000
0000
0000
,
0000
0000
0000
0000
,
1000
0000
0000
0000
,
0000
0000
0000
0000
,
0001
0000
0000
0000
,
0000
0000
0000
0000
,
1000
0000
0000
0000
,
0000
0000
0000
0000
,
0010
0000
0000
0000
,
0000
0000
0000
0000
,
0110
0000
0000
0000
,
0000
0000
0000
0000
,
0000
0000
0000
0000
,
0000
0000
0000
0000
,
0100
0000
0000
0000
,
0000
0000
0000
0000
,
0000
0000
0000
0000
,
0000
0000
0000
0000
,
0001
0000
0000
0000
,
1000
0000
0000
0000
,
0001
0000
0000
0000
,
1000
0000
0000
0000
,
0001
0000
0000
0000
,
1000
0000
0000
0000
,
0001
0000
0000
0000
,
1000
0000
0000
0000
,
0010
0000
0000
0000
,
0000
0000
0000
0000
,
0100
0000
0000
0000
,
0000
0000
0000
0000
,
0010
0000
0000
0000
,
0000
0000
0000
0000
,
0100
0000
0000
0000
,
0000
0000
0000
0000
,
0001
0000
0000
0000
,
0001
0000
0000
0000
,
1000
0000
0000
0000
,
1000
0000
0000
0000
,
0001
0000
0000
0000
,
0000
0000
0000
0000
,
0010
0000
0000
0000
,
0000
0000
0000
0000
,
0100
0000
0000
0000
,
0000
0000
0000
0000
,
1000
0000
0000
0000
,
0000
0000
0000
0000
,
1001
0000
0000
0000
,
0001
0000
0000
0000
,
1000
0000
0000
0000
,
0001
0000
0000
0000
,
1001
0000
0000
0000
,
1000
0000
0000
0000
,
0001
0000
0000
0000
,
0000
0000
0000
0000
,
0110
0000
0000
0000
,
0100
0000
0000
0000
,
0010
0000
0000
0000
,
0100
0000
0000
0000
,
0010
0000
0000
0000
,
0100
0000
0000
0000
,
0110
0000
0000
0000
,
0000
0000
0000
0000
,
1001
0000
0000
0000
,
0001
0000
0000
0000
,
1000
0000
0000
0000
,
0001
0000
0000
0000
,
1001
0000
0000
0000
,
1000
0000
0000
0000
,
0001
0000
0000
0000
,
0000
0000
0000
0000
,
0110
0000
0000
0000
,
0010
0000
0000
0000
,
0100
0000
0000
0000
,
0010
0000
0000
0000
,
1000
0000
0000
0000
,
0010
0000
0000
0000
,
0100
0000
0000
0000
,
0000
0000
0000
0000
,
1001
0000
0000
0000
,
0000
0000
0000
0000
,
1001
0000
0000
0000
,
0001
0000
0000
0000
,
1000
0000
0001
0000
,
1000
0000
0000
0000
,
1001
0000
0000
0000
,
0001
0000
0000
0000
,
1000
0000
0000
0000
,
0100
0000
0000
0010
,
0000
0000
0000
0001
,
0000
0000
0000
1001
;
