#TITLE:We are Disっ娘よっつ打ち命;
#SUBTITLE:;
#ARTIST:DANCE☆MAN feat. Disっ娘;
#TITLETRANSLIT:We are Diskko YOTTSU UCHI INOCHI;
#SUBTITLETRANSLIT:;
#ARTISTTRANSLIT:DANCE☆MAN feat. Diskko;
#CREDIT:DigiMindAxel;
#BANNER:We are Diskko YOTTSU UCHI INOCHI.png;
#BACKGROUND:We are Diskko YOTTSU UCHI INOCHI-bg.png;
#LYRICSPATH:We are Diskko YOTTSU UCHI INOCHI.lrc;
#CDTITLE:beatmania IIDX.png;
#MUSIC:We are Diskko YOTTSU UCHI INOCHI.ogg;
#METERTYPE:DDR X;
#OFFSET:-1.099;
#SAMPLESTART:77.354;
#SAMPLELENGTH:12.000;
#SELECTABLE:YES;
#BPMS:0.000=129.000;
#STOPS:;
#BGCHANGES:-2.000=We are Diskko YOTTSU UCHI INOCHI.avi=1.000=1=1=0,
99999=-nosongbg-=1.000=0=0=0 // don't automatically add -songbackground-
;

//---------------dance-single - ----------------
#NOTES:
     dance-single:
     :
     Easy:
     3:
     0.178,0.196,0.025,0.074,0.000:
0000
0000
0000
0000
,
0000
0000
0000
0000
,
0000
0000
0000
0000
,
0000
0000
0000
0000
,
1001
0000
0100
0000
,
0010
0001
0010
0001
,
0100
0000
0010
0000
,
1000
0001
1000
0001
,
0010
0000
0100
0000
,
1000
0010
1000
0010
,
0100
0000
0001
0000
,
0010
0100
0010
0100
,
2000
0000
3001
0000
,
1000
0001
1000
0001
,
0200
0000
0310
0000
,
1000
0100
1000
0100
,
0020
0000
0031
0000
,
0100
0010
0100
0010
,
2000
0000
3001
0000
,
1000
0100
1000
0100
,
0010
0000
0010
0000
,
0100
0000
0100
0000
,
1000
0000
1000
0000
,
0001
0000
0001
0000
,
0100
0000
0100
0000
,
0010
0000
0010
0000
,
0100
0000
0100
0000
,
0001
0000
0001
0000
,
1001
0000
0000
0000
,
0100
0000
0010
0000
,
0100
0000
0000
0000
,
1000
0000
0001
0000
,
1000
0000
0000
0000
,
0001
0000
0100
0000
,
0001
0000
0000
0000
,
1000
0000
0001
0000
,
2000
0000
0000
0000
,
3002
0000
0000
0000
,
0203
0000
0000
0000
,
0302
0000
0000
0000
,
1003
0000
0100
0000
,
0010
0001
0010
0001
,
0100
0000
0010
0000
,
1000
0001
1000
0001
,
0010
0000
0100
0000
,
1000
0010
1000
0010
,
0100
0000
0001
0000
,
1000
0100
1000
0100
,
0010
0000
0001
0000
,
0100
0010
0100
0010
,
1000
0000
0001
0000
,
0010
0100
0010
0100
,
1000
0000
0010
0000
,
1000
0001
1000
0001
,
0010
0000
0100
0000
,
1000
0010
1000
0010
,
0100
0000
0001
0000
,
0010
0100
0010
0100
,
2000
0000
0000
0000
,
3001
1000
0001
1000
,
0110
0000
0000
0000
;

//---------------dance-single - ----------------
#NOTES:
     dance-single:
     :
     Medium:
     8:
     0.356,0.368,0.368,0.033,0.000:
0000
0000
0000
0000
,
0000
0000
0000
0000
,
0000
0000
0000
0000
,
0000
0000
0000
0000
,
1001
1000
0001
1000
,
0100
0100
0100
0100
,
1000
0001
1000
0001
,
0010
0010
0010
0010
,
0001
0100
0010
1000
,
0001
1000
0001
0000
1000
0001
1000
0000
,
0100
0010
0001
0100
,
0010
0100
0010
0000
1000
0010
1000
0000
,
1001
0000
0000
0001
0100
0000
0001
0100
,
0010
0000
0010
0000
0010
0000
0010
1000
,
0100
0000
0010
0000
0000
1000
0100
0000
,
0010
0001
0100
0000
0100
0000
0100
0000
,
1001
0000
0000
1000
0100
0000
0010
0001
,
0100
0000
0100
0000
0100
0000
0100
0001
,
0010
0100
0000
0000
0000
1000
0001
0000
,
0100
0001
0100
0001
1000
0100
0010
0001
,
1001
0000
0100
0000
,
0011
0011
0011
0011
,
1000
0000
0100
0000
,
1010
1010
1010
1010
,
0100
0000
0001
0000
,
0110
0110
0110
0110
,
1000
0000
0010
0000
,
0101
0101
0101
0101
,
1001
0000
0000
1000
1000
0000
0000
0001
,
0001
0100
0010
1000
,
1001
0000
0000
0010
0010
0000
0000
0100
,
0100
0001
0010
0100
,
0010
0000
0000
0001
0001
0000
0000
0000
,
0100
0010
1000
0010
,
0110
0000
0000
0100
0100
0000
0000
0010
,
0010
1000
0100
0010
,
0002
0100
0100
0103
,
1001
1001
1001
1001
,
2000
0100
0100
3100
,
0110
0110
0110
0110
,
0002
0100
0100
0103
,
1001
1001
1001
1001
,
0010
0100
0010
0000
1000
0010
1000
0000
,
0001
1000
0001
1000
0001
1000
0001
1000
,
0001
0100
0010
1000
,
0001
0010
0001
0000
1000
0001
1000
0000
,
0100
0010
0001
0100
,
0010
0100
0010
0100
0010
0100
0010
0100
,
0010
1000
0100
0010
,
1001
1001
1001
1001
,
1000
0010
1000
0000
0001
1000
0001
0000
,
0100
0001
0100
0001
0100
0001
0100
0001
,
0100
0010
1000
0100
,
0010
0001
0010
0001
0010
0001
0010
0001
,
0010
0001
0100
0010
,
1000
0001
1000
0000
0010
1000
0010
0000
,
0200
0001
0001
0301
,
1000
0001
0100
0000
0001
0010
0100
0000
,
1010
0010
0100
0001
,
0110
0110
0110
0110
,
1100
0000
0000
0000
;

//---------------dance-single - ----------------
#NOTES:
     dance-single:
     :
     Hard:
     10:
     0.492,0.540,0.254,0.041,0.160: // measure 1
0000
0000
0000
0000
,  // measure 2
0000
0000
0000
0000
,  // measure 3
0000
0000
0000
0000
,  // measure 4
0000
0000
0000
0000
,  // measure 5
1001
0000
0000
0000
1000
0000
0010
0000
0100
0000
0000
0100
0000
0000
0000
0000
,  // measure 6
0011
0101
1001
0110
,  // measure 7
0100
0000
0001
0000
0010
0000
0001
0000
0100
0000
0000
0100
0000
0000
0000
0000
,  // measure 8
1010
1100
1001
0110
,  // measure 9
0010
0000
0001
0010
0000
0000
0000
0000
0100
0000
1000
0010
0000
0000
0000
0000
,  // measure 10
1010
0011
0110
1001
,  // measure 11
0001
0000
0100
0001
0000
0000
0000
0000
0010
0000
0100
0010
0000
0000
0000
0000
,  // measure 12
0001
0100
0001
0000
1000
0100
1000
0000
0010
0000
0100
0000
0001
0000
0010
0000
,  // measure 13
0012
0000
0000
0000
0000
0000
1003
0010
1000
0000
0100
0010
0100
0010
0001
0010
,  // measure 14
0001
0000
1000
0000
0100
0000
1000
0000
0001
0000
1000
0000
0100
0000
1000
0001
,  // measure 15
1000
0001
0100
0000
0010
0000
0000
0000
0010
0000
1000
0100
0010
0000
0000
0000
,  // measure 16
0001
0100
0001
0000
0100
0010
0100
0000
0001
0000
0010
0000
0100
0000
0000
0000
,  // measure 17
1020
0000
0000
0000
0000
0000
0130
0001
0100
0000
0010
1000
0010
1000
0100
0010
,  // measure 18
0100
0000
1000
0000
0001
0000
0100
0000
0001
0000
1000
0000
0100
0000
1000
0001
,  // measure 19
1000
0001
0100
0000
0010
0000
0000
0000
0010
0000
1000
0100
0010
0000
0000
0000
,  // measure 20
0001
0100
0001
0000
1000
0010
1000
0000
0100
0000
0010
0000
0001
0000
0100
0000
,  // measure 21
0110
0000
0000
0010
0000
0000
0000
0000
0100
0000
0000
0100
0000
0000
0000
0000
,  // measure 22
0001
0100
0010
0100
0001
0100
0010
0100
,  // measure 23
0001
0000
0000
0001
0000
0000
0000
0000
1000
0000
0000
1000
0000
0000
0000
0000
,  // measure 24
0100
0010
0001
0010
0100
0010
0001
0010
,  // measure 25
0100
0000
0000
0100
0000
0000
0000
0000
1000
0000
0000
1000
0000
0000
0000
0000
,  // measure 26
0010
0100
0001
0100
0010
0100
0001
0100
,  // measure 27
0010
0000
0000
0010
0000
0000
0000
0000
1000
0000
0000
1000
0000
0000
0000
0000
,  // measure 28
0001
0010
0100
0010
0001
0010
0100
0010
,  // measure 29
1001
0000
1000
0100
0001
0000
1000
0010
,  // measure 30
0001
0100
0001
1000
0100
0010
0001
0100
,  // measure 31
0010
0000
1000
0100
0001
0000
1000
0010
,  // measure 32
0001
0100
0010
0100
0001
1000
0100
1000
,  // measure 33
0001
0000
1000
0100
0001
0000
1000
0010
,  // measure 34
0001
1000
0100
1000
0001
0100
0001
1000
,  // measure 35
0001
0000
1000
0100
0001
0000
1000
0010
,  // measure 36
0001
0000
0100
0000
0001
0000
0010
0100
0010
0000
0001
1000
0001
0000
1000
0000
,  // measure 37
0200
0010
1000
0310
,  // measure 38
0001
0100
1000
0100
0001
0100
1000
0100
,  // measure 39
0002
0010
0100
0013
,  // measure 40
0001
0010
1000
0010
0001
0010
1000
0010
,  // measure 41
0002
0100
0010
0103
,  // measure 42
1100
1010
1001
0110
,  // measure 43
1000
0010
0100
1000
0100
0010
1000
0001
,  // measure 44
1000
0100
0001
0100
1000
0100
0001
0100
,  // measure 45
1000
0001
0100
0000
0001
0010
0100
1000
,  // measure 46
0001
1000
0100
0001
0100
1000
0010
0000
,  // measure 47
1000
0100
0010
1000
0010
0100
1000
0001
,  // measure 48
1000
0010
0001
0010
1000
0010
0001
0010
,  // measure 49
1000
0100
0010
0000
0100
1000
0001
0000
,  // measure 50
1100
1010
1001
0110
,  // measure 51
0001
0100
0010
0001
0010
0100
0001
1000
,  // measure 52
0001
0010
1000
0010
0001
0010
1000
0010
,  // measure 53
0001
1000
0010
0000
1000
0100
0010
0001
,  // measure 54
1000
0010
0001
0010
1000
0100
0001
0100
,  // measure 55
1000
0001
0010
0000
0001
0010
0100
1000
,  // measure 56
0001
0010
1000
0010
0001
0100
1000
0100
,  // measure 57
0001
0010
0100
0000
1000
0001
0100
0000
,  // measure 58
0001
0100
0001
0000
1000
0010
1000
0000
0100
0000
0010
0000
0001
0000
1000
0000
,  // measure 59
1010
0000
0000
0000
0010
0000
0000
0000
0100
0010
0100
0000
0010
0000
0000
0000
,  // measure 60
1100
1010
1001
0110
,  // measure 61
1001
0000
0000
0000
;

//---------------dance-single - ----------------
#NOTES:
     dance-single:
     :
     Beginner:
     1:
     0.075,0.123,0.057,0.000,0.000:
0000
0000
0000
0000
,
0000
0000
0000
0000
,
0000
0000
0000
0000
,
0000
0000
0000
0000
,
0001
0000
0000
0000
,
1000
0000
0000
0000
,
0001
0000
0000
0000
,
0010
0000
0000
0000
,
0001
0000
0000
0000
,
0100
0000
0000
0000
,
0010
0000
0000
0000
,
1000
0000
0000
0000
,
1001
0000
0000
0000
,
0001
0000
0000
0000
,
0100
0000
0000
0000
,
0001
0000
0000
0000
,
1000
0000
0000
0000
,
0010
0000
0000
0000
,
0100
0000
0000
0000
,
0010
0000
0000
0000
,
1001
0000
0000
0000
,
1000
0000
0000
0000
,
0001
0000
0000
0000
,
0001
0000
0000
0000
,
1000
0000
0000
0000
,
1000
0000
0000
0000
,
0001
0000
0000
0000
,
0001
0000
0000
0000
,
1001
0000
0000
0000
,
0100
0000
0000
0000
,
0100
0000
0000
0000
,
0010
0000
0000
0000
,
0010
0000
0000
0000
,
0100
0000
0000
0000
,
0100
0000
0000
0000
,
0010
0000
0000
0000
,
0010
0000
0000
0000
,
1000
0000
0000
0000
,
0001
0000
0000
0000
,
0010
0000
0000
0000
,
0001
0000
0000
0000
,
1001
0000
0000
0000
,
0100
0000
0000
0000
,
0010
0000
0000
0000
,
0001
0000
0000
0000
,
1000
0000
0000
0000
,
0100
0000
0000
0000
,
0010
0000
0000
0000
,
0001
0000
0000
0000
,
1000
0000
0000
0000
,
1001
0000
0000
0000
,
0001
0000
0000
0000
,
0010
0000
0000
0000
,
0100
0000
0000
0000
,
0010
0000
0000
0000
,
0100
0000
0000
0000
,
1000
0000
0000
0000
,
0001
0000
0000
0000
,
1001
0000
0000
0000
,
1000
0000
0000
0000
,
1001
0000
0000
0000
;

//---------------dance-double - ----------------
#NOTES:
     dance-double:
     :
     Easy:
     5:
     0.221,0.221,0.025,0.074,0.000:
00000000
00000000
00000000
00000000
,
00000000
00000000
00000000
00000000
,
00000000
00000000
00000000
00000000
,
00000000
00000000
00000000
00000000
,
10010000
00010000
10000000
00000000
,
01000000
00100000
01000000
00100000
,
00001000
00010000
00001000
00000000
,
00010000
00000100
00010000
00000100
,
00000010
00000001
00000010
00000000
,
00000001
00000010
00000001
00000010
,
00000100
00010000
00000100
00000000
,
00010000
00001000
00010000
00001000
,
02000000
00000000
03100000
10000000
,
01000000
00100000
01000000
00100000
,
00002000
00000000
00013000
00000010
,
00000100
00000001
00000100
00000001
,
00000020
00000000
00000130
00010000
,
00001000
01000000
00001000
01000000
,
00200000
00000000
01300000
00010000
,
10000000
01000000
10000000
01000000
,
00100000
00000000
00001000
00000000
,
00010000
00000010
00010000
00000010
,
00000100
00000000
00000001
00000000
,
00000010
00000100
00000010
00000100
,
00010000
00001000
00010000
00000000
,
00001000
01000000
00001000
01000000
,
00100000
01000000
00100000
00000000
,
10000000
00010000
10000000
00010000
,
10010000
00000000
10000000
00000000
,
00100000
01000000
00100000
01000000
,
00001000
00000000
00001000
00000000
,
00010000
00000100
00010000
00000100
,
00000010
00000000
00000010
00000000
,
00000001
00000100
00000001
00000100
,
00000010
00000000
00000010
00000000
,
00001000
00010000
00001000
00010000
,
02000000
00000000
00000000
00000000
,
03200000
00000000
00000000
00000000
,
20300000
00000000
00000000
00000000
,
30200000
00000000
00000000
00000000
,
01300000
00000000
00100000
00000000
,
10000000
00010000
10000000
00010000
,
01000000
00100000
01000000
00000000
,
00001000
00010000
00001000
00010000
,
00000010
00000100
00000010
00000000
,
00000100
00000001
00000100
00000001
,
00010000
00001000
00010000
00000000
,
00001000
01000000
00001000
01000000
,
00100000
01000000
00100000
00000000
,
10000000
01000000
10000000
01000000
,
00100000
00001000
00100000
00000000
,
00010000
00001000
00010000
00001000
,
00000010
00000100
00000010
00000000
,
00000100
00000001
00000100
00000001
,
00010000
00000100
00010000
00000000
,
00001000
00010000
00001000
00010000
,
00100000
00000000
01000000
00000000
,
10000000
00010000
10000000
00010000
,
02000000
00000000
00000000
00000000
,
03100000
01000000
00100000
01000000
,
10010000
00000000
00000000
00000000
;

//---------------dance-double - ----------------
#NOTES:
     dance-double:
     :
     Medium:
     8:
     0.370,0.393,0.467,0.033,0.000:
00000000
00000000
00000000
00000000
,
00000000
00000000
00000000
00000000
,
00000000
00000000
00000000
00000000
,
00000000
00000000
00000000
00000000
,
10010000
10000000
00100000
10000000
,
10010000
10010000
10010000
10010000
,
00100000
01000000
00100000
00001000
,
00011000
00011000
00011000
00011000
,
00010000
00000010
00010000
00000001
,
00000010
00000001
00000010
00000000
00000100
00000010
00000100
00000000
,
00011000
00011000
00011000
00011000
,
01000000
00100000
01000000
00000000
00100000
10000000
00100000
00000000
,
10010000
00000000
00000000
00010000
10000000
00000000
00010000
10000000
,
00100000
00000000
00100000
00000000
00100000
00000000
00100000
01000000
,
00001000
00000000
00010000
00000000
00000000
00000100
00000010
00000000
,
00000001
00000100
00000010
00000000
00000010
00000000
00000010
00000000
,
00000110
00000000
00000000
00010000
00001000
00000000
00010000
00001000
,
00100000
00000000
00100000
00000000
00100000
00000000
00100000
01000000
,
10000000
00010000
00000000
00000000
00000000
10000000
00010000
00000000
,
01000000
00100000
01000000
00100000
10000000
00010000
10000000
00010000
,
10010000
00000000
00100000
00000000
,
00011000
00011000
00011000
00011000
,
00010000
00000000
00000010
00000000
,
00001001
00001001
00001001
00001001
,
00000001
00000000
00000100
00000000
,
00011000
00011000
00011000
00011000
,
00001000
00000000
01000000
00000000
,
01100000
01100000
01100000
01100000
,
10010000
00000000
00000000
10000000
10000000
00000000
00000000
00100000
,
00100000
01000000
00001000
00010000
,
00011000
00000000
00000000
00001000
00001000
00000000
00000000
00000100
,
00000100
00000010
00000001
00000100
,
00000010
00000000
00000000
00000100
00000100
00000000
00000000
00000000
,
00000001
00000010
00000100
00001000
,
00011000
00000000
00000000
00010000
00010000
00000000
00000000
00100000
,
00100000
01000000
10000000
00010000
,
00200000
00010000
00010000
00310000
,
01100000
01100000
01100000
01100000
,
00002000
00010000
00010000
00013000
,
00010010
00010010
00010010
00010010
,
00000200
00000010
00000010
00000310
,
00001001
00001001
00001001
00001001
,
00000001
00000100
00000001
00000000
00010000
00000100
00010000
00000000
,
00001000
00010000
00001000
00010000
00001000
01000000
00100000
01000000
,
00100000
10000000
01000000
00100000
,
00001000
00010000
00001000
00000000
00010000
00000010
00010000
00000000
,
00000010
00000100
00000001
00000010
,
00000100
00010000
00000100
00010000
00000100
00010000
00001000
00010000
,
00001000
01000000
00100000
10000000
,
01100000
01100000
01100000
01100000
,
00001000
00010000
00001000
00000000
00010000
00000100
00010000
00000000
,
00000100
00000010
00000100
00000010
00000100
00001000
00000010
00001000
,
00000010
00000100
00000001
00000010
,
00000100
00010000
00000100
00010000
00000100
00001000
00010000
00001000
,
00010000
00100000
01000000
10000000
,
00010000
01000000
00010000
00000000
10000000
01000000
10000000
00000000
,
00002000
00010000
00010000
00013000
,
00000100
00000010
00000001
00000000
00000100
00000001
00001000
00000000
,
00001001
00000010
00000100
00010000
,
01001000
01001000
01001000
01001000
,
01100000
00000000
00000000
00000000
;

//---------------dance-double - ----------------
#NOTES:
     dance-double:
     :
     Hard:
     10:
     0.489,0.540,0.254,0.041,0.160:
00000000
00000000
00000000
00000000
,
00000000
00000000
00000000
00000000
,
00000000
00000000
00000000
00000000
,
00000000
00000000
00000000
00000000
,
10010000
00000000
00000000
00000000
10000000
00000000
00000000
00000000
00100000
00000000
00000000
01000000
00000000
00000000
00000000
00000000
,
00011000
00010010
00000110
00000101
,
00000001
00000000
00000000
00000000
00000100
00000000
00000000
00000000
00000010
00000000
00000000
00000010
00000000
00000000
00000000
00000000
,
00011000
01001000
01100000
10100000
,
01000000
00000000
00100000
01000000
00000000
00000000
00000000
00000000
00001000
00000000
01000000
00001000
00000000
00000000
00000000
00000000
,
00011000
00010100
00000110
00000011
,
00000100
00000000
00001000
00000100
00000000
00000000
00000000
00000000
00010000
00000000
00001000
00010000
00000000
00000000
00000000
00000000
,
00001000
01000000
00001000
00000000
01000000
00100000
01000000
00000000
00001000
00000000
10000000
00000000
01000000
00000000
00100000
00000000
,
10020000
00000000
00000000
00000000
00000000
00000000
10030000
00100000
10000000
00000000
00100000
01000000
00100000
01000000
00001000
01000000
,
00001000
00000000
00010000
00000000
00000010
00000000
00010000
00000000
00001000
00000000
00010000
00000000
00000010
00000000
00000100
00000010
,
00000100
00000010
00000100
00000000
00000001
00000000
00000000
00000000
00000001
00000000
00001000
00000010
00001000
00000000
00000000
00000000
,
00000010
00000100
00000010
00000000
00010000
00000010
00010000
00000000
00001000
00000000
00100000
00000000
01000000
00000000
00000000
00000000
,
20010000
00000000
00000000
00000000
00000000
00000000
30010000
01000000
00010000
00000000
10000000
00100000
10000000
00100000
01000000
00010000
,
01000000
00000000
00001000
00000000
00100000
00000000
00001000
00000000
01000000
00000000
00001000
00000000
00100000
00000000
00001000
00010000
,
00001000
00010000
00001000
00000000
00010000
00000000
00000000
00000000
00010000
00000000
00000010
00000100
00000001
00000000
00000000
00000000
,
00000100
00000010
00000100
00000000
00000001
00000100
00000001
00000000
00000010
00000000
00000100
00000000
00010000
00000000
00001000
00000000
,
00011000
00000000
00000000
00010000
00000000
00000000
00000000
00000000
01000000
00000000
00000000
01000000
00000000
00000000
00000000
00000000
,
00100000
10000000
00010000
10000000
00100000
10000000
00010000
10000000
,
01000000
00000000
00000000
01000000
00000000
00000000
00000000
00000000
00100000
00000000
00000000
00100000
00000000
00000000
00000000
00000000
,
00001000
00010000
00000010
00010000
00001000
00010000
00000010
00010000
,
00001000
00000000
00000000
00001000
00000000
00000000
00000000
00000000
00100000
00000000
00000000
00100000
00000000
00000000
00000000
00000000
,
00010000
10000000
01000000
10000000
00010000
10000000
01000000
10000000
,
00010000
00000000
00000000
00010000
00000000
00000000
00000000
00000000
00100000
00000000
00000000
00100000
00000000
00000000
00000000
00000000
,
01000000
10000000
00001000
10000000
01000000
10000000
00001000
10000000
,
11000000
00000000
00100000
00010000
00001000
00000000
00000010
00000100
,
00000001
00000100
00001000
00000100
00000001
00000010
00000100
00010000
,
00001000
00000000
01000000
00100000
10000000
00000000
01000000
00100000
,
00010000
01000000
10000000
01000000
00010000
00100000
01000000
00100000
,
00001000
00000000
00010000
00000100
00000010
00000000
00000100
00001000
,
00000001
00000010
00001000
00000010
00000001
00000100
00000010
00001000
,
00010000
00000000
00100000
01000000
10000000
00000000
00010000
01000000
,
00100000
00000000
10000000
00000000
01000000
00000000
00100000
00001000
00100000
00000000
00001000
00010000
00001000
00000000
00010000
00000000
,
00000020
00000100
00010000
00000130
,
00000001
00000010
00000100
00000010
00000001
00000010
00000100
00000010
,
00000002
00010000
00000010
00010003
,
00001000
00010000
00000100
00010000
00001000
00010000
00000100
00010000
,
00002000
01000000
00100000
01003000
,
01001000
01100000
10100000
10010000
,
10000000
00100000
10000000
00001000
10000000
00100000
10000000
01000000
,
00100000
00001000
00010000
00000010
00000100
00000010
00010000
00000010
,
00000100
00000010
00010000
00000000
00000010
00000100
00000001
00001000
,
00000001
00000010
00001000
00000010
00000001
00000100
00000010
00000000
,
00001000
00010000
00001000
00010000
00100000
01000000
10000000
00010000
,
01000000
00001000
00010000
00001000
01000000
00001000
00010000
00001000
,
01000000
00010000
00001000
00000000
00000100
00000010
00000001
00000000
,
00010001
00010100
00011000
01001000
,
01000000
00100000
10000000
00100000
10000000
01000000
00100000
00001000
,
00010000
00000010
00000100
00000010
00010000
00000010
00000100
00000010
,
00010000
00000100
00000010
00000000
00000001
00000100
00000001
00001000
,
00000001
00000010
00001000
00000010
00000001
00000100
00000010
00001000
,
00010000
00100000
01000000
00000000
10000000
00010000
10000000
00100000
,
01000000
00001000
00100000
00001000
10000000
01000000
00010000
01000000
,
10000000
00010000
10000000
00000000
00100000
01000000
00001000
00000000
,
00010000
00001000
00010000
00000000
00000010
00010000
00000010
00000000
00000100
00000000
00000010
00000000
00000100
00000000
00000001
00000000
,
00001001
00000000
00000000
00000000
00001000
00000000
00000000
00000000
00000010
00010000
00000010
00000000
00010000
00000000
00000000
00000000
,
00011000
01001000
01100000
11000000
,
10010000
00000000
00000000
00000000
;
