#TITLE:We Like To Party!;
#SUBTITLE:(THE VENGABUS);
#ARTIST:VENGABOYS;
#TITLETRANSLIT:;
#SUBTITLETRANSLIT:;
#ARTISTTRANSLIT:;
#CREDIT:DigiMindAxel;
#BANNER:We Like To Party! (THE VENGABUS).png;
#BACKGROUND:We Like To Party! (THE VENGABUS)-bg.png;
#LYRICSPATH:We Like To Party! (THE VENGABUS).lrc;
#CDTITLE:DigiMindAxel original simfile.png;
#MUSIC:We Like To Party! (THE VENGABUS).ogg;
#METERTYPE:DDR X;
#OFFSET:-0.450;
#SAMPLESTART:62.818;
#SAMPLELENGTH:12.000;
#SELECTABLE:YES;
#BPMS:0.000=136.000;
#STOPS:;
#BGCHANGES:2.000=We Like To Party! (THE VENGABUS).avi=1.000=1=1=0,
99999=-nosongbg-=1.000=0=0=0 // don't automatically add -songbackground-
;

//---------------dance-single - ----------------
#NOTES:
     dance-single:
     :
     Easy:
     5:
     0.204,0.246,0.042,0.000,0.000:
0000
0000
0000
0000
,
0000
0000
0000
0000
,
0000
0000
0000
0000
,
0000
0000
0000
0000
,
1000
0000
1000
0000
,
0001
0000
0001
0000
,
0010
0000
0010
0000
,
0100
0000
0100
0000
,
0010
0001
0010
0000
,
0000
0100
0010
0100
,
1000
0100
1000
0000
,
1001
0000
0000
0000
,
1001
0000
1000
0100
,
0010
0000
0001
0010
,
0100
0000
1000
0100
,
0010
0000
0001
1000
,
0010
0000
1000
0001
,
0100
0000
0001
0010
,
0100
0000
1000
0100
,
0010
0000
0000
0000
,
0001
0000
0001
0000
,
0100
0000
0100
0000
,
0010
0000
0010
0000
,
1000
0000
1000
0000
,
0100
0000
0010
0000
,
0100
0000
0010
0000
,
0001
0000
0100
0000
,
0001
0000
0100
0000
,
0001
0001
1000
1000
,
0000
0001
1000
0100
,
0010
0010
0100
0000
,
1000
0100
0010
0000
,
0001
0001
1000
1000
,
0100
0010
0100
0000
,
1000
1000
0010
0100
,
0001
0000
0000
0000
,
1001
0000
1000
0100
,
0010
0000
0010
0100
,
1000
0000
1000
0100
,
0010
0000
0100
0010
,
0001
0000
0001
0010
,
0100
0000
0100
0010
,
0001
0000
0100
0010
,
1000
0000
0001
0001
,
0001
0100
0010
0100
,
0001
0000
1000
0100
,
0010
0000
0100
1000
,
0100
0000
0010
0001
,
0100
0000
0010
1000
,
0001
0000
0010
0100
,
1000
0001
0010
0100
,
1000
0000
0001
0100
,
0110
0000
0000
0000
;

//---------------dance-single - ----------------
#NOTES:
     dance-single:
     :
     Medium:
     8:
     0.398,0.437,0.431,0.042,0.000: // measure 1
0000
0000
0000
0000
,  // measure 2
0000
0000
0000
0000
,  // measure 3
0000
0000
0000
0000
,  // measure 4
0000
0000
0000
0000
,  // measure 5
1000
1000
0100
0000
,  // measure 6
0000
0010
0000
0000
0010
0000
0100
0000
,  // measure 7
0010
0010
0001
0000
,  // measure 8
0000
0100
0000
0000
0100
0000
0010
0000
,  // measure 9
1000
1000
0001
0000
,  // measure 10
0000
0100
0000
0000
0001
0000
0010
0000
,  // measure 11
0100
0100
1000
0000
,  // measure 12
1001
0000
0000
0000
,  // measure 13
1001
0000
1000
0000
0100
0010
0001
0000
,  // measure 14
1000
0000
1000
0000
0100
0010
0001
0000
,  // measure 15
0100
0000
0100
0000
0010
1000
0001
0000
,  // measure 16
0010
0000
0010
0000
0001
0010
0100
0000
,  // measure 17
1000
0000
1000
0000
0001
0010
0100
0000
,  // measure 18
0010
0000
0010
0000
0001
1000
0010
0000
,  // measure 19
0100
0000
0100
0000
0010
1000
0001
0000
,  // measure 20
2002
0000
0000
3003
,  // measure 21
1001
0001
0100
0001
,  // measure 22
1000
0000
0100
0000
1000
0001
0000
1000
,  // measure 23
0000
0100
0000
0010
0000
0100
0000
1000
,  // measure 24
0000
0001
0000
0100
0000
0001
0100
0000
,  // measure 25
0010
1000
0100
0010
,  // measure 26
0100
0000
1000
0000
0001
0100
0000
0001
,  // measure 27
0000
1000
0000
0100
0000
0010
0000
0001
,  // measure 28
0000
1000
0000
0001
0000
0100
0100
0000
,  // measure 29
1001
0110
1001
0110
,  // measure 30
0000
0010
0100
0001
0010
0000
0010
0000
,  // measure 31
1001
1100
1001
0011
,  // measure 32
0100
1000
0010
0000
0100
0010
0100
0000
,  // measure 33
1001
0110
1001
0110
,  // measure 34
0000
0010
0001
0100
0010
0000
0010
0000
,  // measure 35
1001
0101
1001
0101
,  // measure 36
0220
0000
0000
0330
,  // measure 37
1100
0000
1100
0000
0010
0001
0100
0010
,  // measure 38
1000
0000
1010
0000
0010
1000
0100
0010
,  // measure 39
0001
0000
0011
0000
0010
0100
1000
0100
,  // measure 40
0010
0000
0110
0000
0100
0001
1000
0100
,  // measure 41
0010
0000
0110
0000
0100
0010
0001
0100
,  // measure 42
0001
0000
0101
0000
0100
0010
1000
0100
,  // measure 43
0010
0000
0110
0000
0010
0100
1000
0001
,  // measure 44
0010
0000
0011
0000
0001
1000
0100
0010
,  // measure 45
0001
0000
1001
0000
1000
0010
0100
0001
,  // measure 46
0010
0000
0011
0000
0001
0100
0010
1000
,  // measure 47
0100
0000
1100
0000
1000
0001
0100
0001
,  // measure 48
1000
0000
1001
0000
0001
0010
0100
0010
,  // measure 49
0001
0000
0011
0000
0010
0001
0100
0010
,  // measure 50
1000
0000
1010
0000
0010
0100
0001
1000
,  // measure 51
0100
1100
0011
1100
,  // measure 52
1001
0000
0000
1000
0001
0100
0010
1000
,  // measure 53
1001
0000
0000
0000
;

//---------------dance-single - ----------------
#NOTES:
     dance-single:
     :
     Hard:
     10:
     0.531,0.548,0.473,0.105,0.173:
0000
0000
0000
0000
,
0000
0000
0000
0000
,
0000
0000
0000
0000
,
0000
0000
0000
0000
,
1010
0000
0000
0000
0010
0000
0000
0010
0100
0000
0001
0000
0000
0000
0000
0000
,
0000
0000
0010
0000
0010
0000
0000
0000
0010
0100
0000
0010
0100
0000
1000
0000
,
0001
0000
0000
0000
0001
0000
0000
0001
0010
0000
0100
0000
0000
0000
0000
0000
,
0000
0000
0010
0000
0010
0000
0000
0000
0010
0001
0000
0010
0001
0000
1000
0000
,
0010
0000
0000
0000
0010
0000
0000
0010
0100
0000
0001
0000
1000
0000
0000
0000
,
1000
0000
0001
0000
0001
0000
0000
0000
0100
0010
0000
0100
0010
0000
1000
0000
,
0001
0000
0000
0000
0001
0000
0000
0001
1000
0000
0100
0000
1000
0000
0000
0000
,
2002
0000
0000
3003
,
0011
0000
0000
0010
0000
0000
0100
0000
1000
0000
0010
0000
0001
0000
0010
0000
,
0100
0000
0000
0100
0000
0000
0001
0000
0010
0000
1000
0000
0010
0000
0001
0000
,
0100
0000
0000
0100
0000
0000
0001
0000
1000
0000
0100
0000
0010
0000
0001
0000
,
1000
0000
0000
1000
0000
0000
0001
0000
1000
0000
0010
0000
0100
0000
0001
0000
,
1000
0000
0000
1000
0000
0000
0001
0000
1000
0000
0010
0000
0001
0000
0010
0000
,
0100
0000
0000
0100
0000
0000
0001
0000
1000
0000
0100
0000
0010
0000
0001
0000
,
0100
0000
0000
0100
0000
0000
0001
0000
1000
0000
0010
0000
0100
0000
0001
0000
,
0202
0000
0000
0303
,
1001
0000
1000
0000
0010
0001
0010
1000
,
0000
0010
0100
0000
0001
0000
0010
0000
,
1000
0000
1100
0000
0010
0001
0010
1000
,
0001
0000
0100
0000
0001
1000
0100
0010
,
0100
0000
1100
0000
0010
0001
0100
0010
,
0000
1000
0001
0000
0010
0000
1000
0010
,
0001
0000
1000
0001
0100
1000
0100
0001
,
1000
0000
0010
0000
0100
0010
0010
0000
,
0102
0000
1003
0010
0200
0000
0301
1000
,
0000
0001
0010
1000
0010
0000
0011
0000
,
1100
0000
1001
0000
0101
0000
0100
0010
,
0000
0010
0100
0001
0010
1000
0010
0000
,
0012
0000
1003
0100
0020
0000
0031
1000
,
0000
0001
1000
0010
0001
0010
1000
0000
,
1100
0000
1001
0000
0101
0000
0100
0010
,
2002
0000
0000
3003
,
0101
0000
0000
0110
0000
0000
0010
0000
0100
0000
0001
0000
1000
0000
0100
0000
,
0110
0000
0000
0011
0000
0000
0001
0000
1000
0000
0100
0000
0001
0000
0100
0000
,
1100
0000
0000
1001
0000
0000
1000
0000
0001
0000
0100
0000
1000
0000
0100
0000
,
0101
0000
0000
1001
0000
0000
1000
0000
0010
0000
0100
0000
1000
0000
0100
0000
,
0110
0000
0000
0101
0000
0000
0001
0000
0100
0000
0010
0000
0001
0000
0010
0000
,
0110
0000
0000
1010
0000
0000
1000
0000
0001
0000
0100
0000
1000
0000
0100
0000
,
0101
0000
0000
1001
0000
0000
0001
0000
1000
0000
0100
0000
0001
0000
0100
0000
,
1100
0000
0000
1001
0000
0000
0001
0000
0010
0000
0100
0000
1000
0000
0001
0000
,
0011
0000
0010
0100
0000
0000
1000
0000
0010
0000
0100
0000
0001
0000
0010
0000
,
0011
0000
0001
1000
0000
0000
0001
0000
1000
0000
0100
0000
0010
0000
0001
0000
,
0101
0000
0100
0010
0000
0000
1000
0000
0001
0000
0010
0000
0100
0000
1000
0000
,
1010
0000
0010
0100
0000
0000
0001
0000
0100
0000
1000
0000
0100
0000
0001
0000
,
1001
0000
1000
0010
0000
0000
1000
0000
0100
0000
0001
0000
0100
0000
1000
0000
,
1001
0000
0001
0100
0000
0000
0001
0000
1000
0000
0100
0000
0010
0000
0001
0000
,
0101
0000
1001
0000
1100
0100
0010
0001
,
1001
0000
0000
1000
0000
0000
0001
0000
1000
0000
0010
0000
0001
0000
0010
0000
,
1010
0000
0000
1001
0000
0000
0000
0000
0000
0000
0000
0000
0000
0000
0000
0000
;

//---------------dance-single - ----------------
#NOTES:
     dance-single:
     :
     Beginner:
     2:
     0.089,0.164,0.084,0.000,0.000:
0000
0000
0000
0000
,
0000
0000
0000
0000
,
0000
0000
0000
0000
,
0000
0000
0000
0000
,
1001
0000
0000
0000
,
0000
0000
0000
0000
,
1000
0000
0000
0000
,
0000
0000
0000
0000
,
1001
0000
0000
0000
,
0001
0000
0000
0000
,
0100
0000
0000
0000
,
0110
0000
0000
0000
,
1001
0000
0000
0000
,
1000
0000
0000
0000
,
0001
0000
0000
0000
,
0001
0000
0000
0000
,
0010
0000
0000
0000
,
0100
0000
0000
0000
,
0010
0000
0000
0000
,
0001
0000
0000
0000
,
1000
0000
0000
0000
,
0010
0000
0000
0000
,
1000
0000
0000
0000
,
0001
0000
0000
0000
,
1000
0000
0000
0000
,
0010
0000
0000
0000
,
1000
0000
0000
0000
,
0001
0000
0000
0000
,
1000
0000
0000
0000
,
0100
0000
0000
0000
,
0010
0000
0000
0000
,
0100
0000
0000
0000
,
1000
0000
0000
0000
,
0001
0000
0000
0000
,
0100
0000
0000
0000
,
1001
0000
0000
0000
,
0001
0000
0000
0000
,
0010
0000
0000
0000
,
0001
0000
0000
0000
,
0100
0000
0000
0000
,
0010
0000
0000
0000
,
1000
0000
0000
0000
,
0100
0000
0000
0000
,
1000
0000
0000
0000
,
1001
0000
0001
0000
,
0001
0000
0000
0000
,
1000
0000
1000
0000
,
1000
0000
0000
0000
,
0010
0000
0010
0000
,
0010
0000
0000
0000
,
0100
0000
0100
0000
,
0110
0000
0000
0000
,
1001
0000
0000
0000
;
