#TITLE:Wandering Gravity;
#SUBTITLE:;
#ARTIST:Nazzo-Non-Heat;
#TITLETRANSLIT:;
#SUBTITLETRANSLIT:;
#ARTISTTRANSLIT:;
#CREDIT:DigiMindAxel;
#BANNER:Wandering Gravity.png;
#BACKGROUND:Wandering Gravity-bg.png;
#LYRICSPATH:;
#CDTITLE:jubeat.png;
#MUSIC:Wandering Gravity.ogg;
#METERTYPE:DDR X;
#OFFSET:-6.180;
#SAMPLESTART:24.546;
#SAMPLELENGTH:12.000;
#SELECTABLE:YES;
#BPMS:0.000=170.000;
#STOPS:202.000=0.352941
,209.000=0.352941
,214.000=0.352941
,219.000=0.352941
;
#BGCHANGES:;

//---------------dance-single - ----------------
#NOTES:
     dance-single:
     :
     Easy:
     6:
     0.249,0.320,0.282,0.129,0.000:
1001
2002
0000
0000
,
0000
0000
3003
0000
,
1001
0000
0000
0001
0000
0000
0010
0000
,
0000
0100
0000
0000
0000
0000
0000
0000
,
1001
2002
0000
0000
,
0000
0000
3003
0000
,
1001
2002
0000
0000
,
0000
0000
3003
0000
,
1001
2002
0000
0000
,
0000
0000
3003
0000
,
1001
0000
0000
1000
0000
0000
0010
0000
,
0000
0100
0000
0000
0000
0000
0000
0000
,
0000
0000
0000
0000
,
1001
0000
0000
0001
0000
1000
0000
0001
,
0000
0000
0000
0100
0000
0000
0000
0000
,
1001
0000
0000
1000
0000
0001
0000
1000
,
0000
0000
0000
0010
0000
0000
0000
0000
,
1001
0000
0000
0001
0000
1000
0000
0001
,
0000
0000
0000
0010
0000
0000
0000
0000
,
1001
0000
0000
1000
0000
0000
0001
0000
,
0000
0100
0000
0000
0000
0000
0000
0000
,
1001
0000
0000
0001
0000
0000
0100
0000
,
0000
0010
0000
0000
0000
0000
0000
0000
,
1000
0000
0000
0001
0000
0000
0010
0000
,
0000
0001
0000
0000
0000
0000
0000
0000
,
0100
0000
0000
0010
0000
0000
0100
0000
,
0000
0001
0000
0000
0000
0000
0000
0000
,
0010
0000
0000
0100
0000
0000
0010
0000
,
0000
0100
0000
0000
0000
0000
0000
0000
,
1001
1001
0000
0000
,
0000
0000
0000
0000
0000
0110
0000
0000
,
1001
1001
0000
0000
,
0000
0000
0000
0000
0000
0110
0000
0000
,
1001
1001
0000
0000
,
0000
0000
0000
0000
0000
0110
0000
0000
,
1001
1001
0000
0000
,
0000
0000
0000
0000
0000
0110
0000
0000
,
1000
0100
1000
0100
,
1000
0001
1000
0001
,
0010
0000
0000
0010
0000
0000
0010
0000
,
0100
0000
0000
0100
0000
0000
0100
0000
,
1000
0010
1000
0010
,
1000
0001
1000
0001
,
0100
0000
0000
0100
0000
0000
0100
0000
,
0010
0000
0000
0010
0000
0000
0010
0000
,
0100
0001
0100
0001
,
0010
0100
0010
0100
,
1000
0000
0000
1000
0000
0000
1000
0000
,
0100
0000
0000
0100
0000
0000
0100
0000
,
1000
0000
0000
0001
0000
0000
1000
0000
,
0000
0001
0000
0000
0000
0000
0001
0000
,
0000
1000
0000
0000
0001
0000
0000
1000
,
0000
0000
0000
0000
0010
0000
0000
0100
,
0000
0010
0000
0100
,
0000
1000
0000
0000
0100
0000
0000
0000
,
1000
0000
0000
0001
0000
0000
1000
0000
,
2002
0000
0000
3003
,
0220
0000
0000
0330
,
2002
0000
0000
0000
,
0000
0000
0000
0000
,
0000
0000
0000
0000
,
3003
0000
0000
0000
,
1001
0000
0000
0001
0000
0100
0000
0001
,
0000
0000
0000
1000
0000
0000
0000
0000
,
1001
0000
0000
0001
0000
0100
0000
0001
,
0000
0000
0000
1000
0000
0000
0000
0000
,
1001
0000
0000
1000
0000
0001
0000
1000
,
0000
0000
0000
0100
0000
0000
0000
0000
,
1001
0000
0000
0001
0000
0000
0010
0000
,
0000
0100
0000
0000
0000
0000
0000
0000
,
0010
0000
0000
0001
0000
0000
0100
0000
,
0000
0010
0000
0000
1000
0000
0000
0000
,
0100
0000
0000
1000
0000
0000
0010
0000
,
0000
0100
0000
0000
0001
0000
0000
0000
,
0010
0000
0000
0100
0000
0000
1000
0000
,
0000
0001
0000
0000
0100
0000
0000
0000
,
0010
0000
0000
0010
0000
0000
0100
0000
,
0000
0100
0000
0000
0000
0001
0000
2002
,
0000
0000
0000
0000
,
0000
3003
0000
0000
;

//---------------dance-single - ----------------
#NOTES:
     dance-single:
     :
     Medium:
     10:
     0.423,0.416,0.662,0.121,0.040: // measure 1
1010
0000
1010
0000
0010
0000
0000
0100
,  // measure 2
0000
0000
0001
0000
0000
1001
0000
0000
,  // measure 3
1000
0000
0000
0001
0000
0000
1000
0000
0000
0001
0000
0000
0010
0000
0000
0010
,  // measure 4
0000
0010
0000
0000
0000
0110
0000
0000
,  // measure 5
0101
0000
0101
0000
0001
0000
0000
1000
,  // measure 6
0000
0000
0100
0000
0000
1001
0000
0000
,  // measure 7
0110
0000
0110
0000
0100
0000
0000
0001
,  // measure 8
0000
0000
1000
0000
0000
1100
0000
0000
,  // measure 9
0011
0000
0011
0000
0001
0000
0000
0100
,  // measure 10
0000
0000
0010
0000
0000
0110
0000
0000
,  // measure 11
1000
0000
0000
0001
0000
0000
1000
0000
0000
0001
0000
0000
0100
0000
0000
0010
,  // measure 12
0000
0200
0000
0000
0000
0000
0000
0000
,  // measure 13
0310
0000
1000
0000
0100
0010
0001
0010
,  // measure 14
0200
0000
0000
1000
0000
1000
0000
1300
,  // measure 15
0000
0000
0000
0110
0000
0100
0000
0000
,  // measure 16
0002
0000
0000
1000
0000
1000
0000
1003
,  // measure 17
0000
0000
0000
0101
0000
0100
0000
0000
,  // measure 18
2001
0000
0000
0100
0000
0100
0000
3100
,  // measure 19
0000
0000
0000
0011
0000
0010
0000
0000
,  // measure 20
0001
0000
0000
1000
0000
0000
0001
0000
0000
0000
0000
0000
0010
0000
0000
0100
,  // measure 21
0000
0010
0000
1001
0000
0000
0000
0000
,  // measure 22
1000
0010
0000
1000
0010
0000
1000
0001
,  // measure 23
0000
1000
0001
0000
0010
0100
1000
0000
,  // measure 24
0001
0100
0000
0001
0100
0000
0001
0000
,  // measure 25
1000
0100
1000
0100
0010
0001
0010
0000
,  // measure 26
0001
1000
0000
0001
1000
0000
0100
1000
,  // measure 27
0000
0100
1000
0000
0001
0100
0010
0000
,  // measure 28
1001
0000
0000
0110
0000
0000
1001
0000
,  // measure 29
0000
0110
0000
0110
0000
0000
0000
0000
,  // measure 30
1100
0000
1100
0000
1000
0000
0000
0100
,  // measure 31
0000
0000
0010
0000
0000
1001
0000
0000
,  // measure 32
0011
0000
0011
0000
0001
0000
0000
0010
,  // measure 33
0000
0000
0100
0000
0000
1001
0000
0000
,  // measure 34
1010
0000
1010
0000
1000
0000
0000
0010
,  // measure 35
0000
0000
0100
0000
0000
1001
0000
0000
,  // measure 36
0101
0000
0101
0000
0001
0000
0000
0100
,  // measure 37
0000
0000
0010
0000
0000
1001
0000
0000
,  // measure 38
1100
0000
0100
1000
0001
0000
0010
0100
,  // measure 39
0010
0000
0001
1000
0100
0000
0010
0100
,  // measure 40
0010
0000
0000
0011
0000
0000
1001
0000
,  // measure 41
0100
0000
0000
1100
0000
0000
1001
0000
,  // measure 42
1000
0001
0100
0000
0010
0100
0010
0000
,  // measure 43
0100
0001
1000
0000
0100
0010
0100
0000
,  // measure 44
0010
0000
0000
0011
0000
0000
1001
0000
,  // measure 45
0100
0000
0000
1100
0000
0000
1001
0000
,  // measure 46
0001
0100
0010
0100
0001
0000
1000
0100
,  // measure 47
1000
0000
0001
1000
0001
0000
0010
0000
,  // measure 48
1100
0000
0000
1100
0000
0000
1001
0000
,  // measure 49
0011
0000
0000
0011
0000
0000
1001
0000
,  // measure 50
0110
0000
0000
0110
0000
0000
0110
0000
,  // measure 51
0000
0110
0000
0000
0000
0000
1001
0000
,  // measure 52
0000
1001
0000
0000
1001
0000
0000
1001
,  // measure 53
0000
0000
0000
0000
0101
0000
0000
1010
,  // measure 54
0000
1001
0000
1100
,  // measure 55
0000
0011
0000
0000
1001
0000
0000
0000
,  // measure 56
0101
0000
0000
1010
0000
0000
1001
0000
,  // measure 57
2002
0000
0000
3003
,  // measure 58
0220
0000
0000
0330
,  // measure 59
2002
0000
0000
0000
,  // measure 60
0000
0000
0000
0000
,  // measure 61
0000
0000
0000
0000
,  // measure 62
3003
0000
0000
0000
,  // measure 63
1020
0000
0000
0100
0000
0100
0000
0130
,  // measure 64
0000
0000
0000
0101
0000
0001
0000
0000
,  // measure 65
0020
0000
0000
0100
0000
0100
0000
0130
,  // measure 66
0000
0000
0000
1100
0000
1000
0000
0000
,  // measure 67
1002
0000
0000
0100
0000
0100
0000
0103
,  // measure 68
0000
0000
0000
1010
0000
0010
0000
0000
,  // measure 69
1000
0000
0000
0001
0000
0000
1000
0000
0000
0000
0000
0000
0100
0000
0000
1000
,  // measure 70
0000
0010
0000
0110
0000
0000
0000
0000
,  // measure 71
0100
0001
0000
0100
0001
0000
0010
0100
,  // measure 72
0000
0010
0100
0000
1000
0000
0001
0000
,  // measure 73
0010
0001
0000
0010
0001
0000
0100
0010
,  // measure 74
1000
0100
0010
0001
,  // measure 75
1000
0010
0000
1000
0010
0000
1000
0001
,  // measure 76
0000
1000
0001
0000
0010
0100
1000
0000
,  // measure 77
1100
0000
0000
1100
0000
0000
0011
0000
,  // measure 78
0000
0011
0000
0100
0000
0110
0000
2002
,  // measure 79
0000
0000
0000
0000
,  // measure 80
0000
3003
0000
0000
;

//---------------dance-single - ----------------
#NOTES:
     dance-single:
     :
     Hard:
     12:
     0.659,0.640,0.759,0.694,0.105:
1001
0000
1001
0000
1000
0200
0000
0310
,
0002
0000
0013
0200
0000
0310
0001
1000
,
0100
0000
0000
1100
0000
0000
0010
0000
0000
0110
0000
0000
0001
0000
0000
0011
,
0000
0001
0100
0010
1000
1010
0000
0000
,
1001
0000
1001
0000
1000
0020
0000
0130
,
0002
0000
0013
0200
0000
0310
0001
1000
,
1001
0000
1001
0000
0001
0200
0000
0310
,
2000
0000
3100
0020
0000
0130
1000
0010
,
0110
0000
0110
0000
0100
0002
0000
1003
,
0200
0000
1300
0020
0000
0130
0001
0100
,
0010
0000
0000
1010
0000
0000
0100
0000
0000
0101
0000
0000
0010
0000
0000
0110
,
0000
1002
0000
0000
0000
0000
0000
0000
,
1003
0000
0000
1000
0000
0000
1000
0000
0001
0000
0010
0000
0100
0000
1000
0000
,
1002
0000
0000
0103
0000
0110
0000
2020
,
0000
0000
3030
1001
0000
1001
0000
0000
,
0021
0000
0000
0130
0000
1100
0000
2200
,
0000
0000
3300
1001
0000
1001
0000
0000
,
1020
0000
0000
0130
0000
0101
0000
0202
,
0000
0000
0303
1001
0000
1001
0000
0000
,
0011
0000
0000
0001
0000
0000
0010
0000
0100
0000
1000
0000
1001
0000
0000
0001
,
0000
0100
0010
1010
0000
1000
1000
1000
,
0001
0100
1000
0100
0001
0010
0100
0010
,
0001
1000
0001
0100
1000
0100
0001
0010
,
0100
1000
0010
0001
0010
1000
0010
0100
,
1000
0100
0010
1000
0001
0010
1000
0010
,
0001
1000
0100
0010
0100
1000
0001
1000
,
0010
1000
0001
1000
0010
0001
0010
1000
,
1002
0000
0010
0023
0000
0100
0230
0000
,
1000
1300
0000
2002
0000
0000
0000
3003
,
0101
0000
0101
0000
0002
0000
0100
0100
,
0000
1000
1000
0000
0103
2002
0000
3003
,
1010
0000
1010
0000
2000
0000
0010
0010
,
0000
0001
0001
0000
3010
2002
0000
3003
,
0011
0000
0011
0000
0002
0000
0010
0010
,
0000
1000
1000
0000
0013
2002
0000
3003
,
1100
0000
1100
0000
2000
0000
0100
0100
,
0000
0001
0001
0000
3100
2002
0000
3003
,
0001
0100
0010
0001
0010
0100
0001
1000
,
0001
0010
0100
0001
0100
0010
0001
1000
,
0010
0000
0000
0010
0000
0000
0100
0000
0000
0100
0000
0000
1001
0000
0000
0000
,
0010
0000
0000
0010
0000
0000
0100
0000
0000
0100
0000
0000
1001
0000
0000
0000
,
1000
0100
0010
1000
0010
0100
1000
0001
,
1000
0010
0100
1000
0100
0010
1000
0001
,
0010
0000
0000
0010
0000
0000
0100
0000
0000
0100
0000
0000
1001
0000
0000
0000
,
0010
0000
0000
0010
0000
0000
0100
0000
0000
0100
0000
0000
1001
0000
0000
0000
,
0001
0100
1000
0100
0001
1000
0100
1000
,
0001
0010
1000
0010
0001
1000
0010
1000
,
0001
0000
0000
0001
0000
0000
1000
0000
0000
1000
0000
0000
0110
0000
0000
0000
,
0001
0000
0000
0001
0000
0000
1000
0000
0000
1000
0000
0000
0110
0000
0000
0000
,
0202
0000
0303
2020
0000
3030
0220
0000
,
0330
2002
0000
3003
0000
0000
0022
0000
,
0033
2200
0000
3300
0220
0000
0330
2002
,
0000
3003
0000
0000
2020
0000
3030
0202
,
0000
0303
2002
0000
3003
0000
0022
0000
,
0033
0220
0000
0330
2200
0000
3300
0000
,
2020
0000
3030
0220
0000
0330
0101
0000
,
0102
0023
0230
2300
,
3002
0203
0320
2030
,
3020
0000
0000
0000
,
0200
0000
0000
0000
,
0000
0000
0000
0000
,
0330
0000
0000
0000
,
0012
0000
0000
1003
0000
1010
0000
0110
,
0000
0000
0000
0011
0000
1001
0000
0000
,
1200
0000
0000
0310
0000
0011
0000
1001
,
0000
0000
0000
1010
0000
0110
0000
0000
,
1002
0000
0000
0013
0000
0110
0000
1100
,
0000
0000
0000
0110
0000
0101
0000
0000
,
1001
0000
0000
0001
0000
0000
0010
0000
0100
0000
1000
0000
1001
0000
0000
0001
,
0000
0100
0010
1010
0000
1000
1000
1000
,
0001
0010
1000
0010
0001
1000
0010
0100
,
0010
1000
0001
0100
1000
0001
0010
1000
,
0001
0010
1000
0010
0001
1000
0100
0010
,
0100
1000
0001
0100
1000
0001
0010
1000
,
0001
0100
1000
0100
0001
1000
0010
1000
,
0001
0010
0001
0100
1000
0001
0010
1000
,
0001
0000
0100
0001
0100
0000
0001
0000
1000
0001
1000
0000
0001
0000
0100
0001
,
0100
1010
0000
1010
0000
0110
0000
0220
,
0000
0000
0000
0000
,
0000
0330
0000
0000
;

//---------------dance-single - ----------------
#NOTES:
     dance-single:
     :
     Challenge:
     17:
     0.926,0.927,0.395,0.387,0.964:
1100
0000
0000
0000
1100
0000
0000
0000
0010
0001
0010
0001
0010
0000
0100
0010
,
0100
0010
0100
0000
1000
0100
1000
0100
1000
0000
0001
0010
0100
1000
0001
0100
,
0001
0000
1000
0100
0000
0000
0010
0000
0100
1000
0000
0000
0010
0000
0100
0001
,
0000
0000
0010
0100
0010
0100
1000
0010
0100
0001
1000
0100
0010
0100
1000
0010
,
0100
0000
0000
0000
0110
0000
0000
0000
0010
1000
0010
1000
0010
0000
0100
0010
,
0100
0010
0100
0000
0001
0100
0001
0100
0001
0000
1000
0100
0010
0001
1000
0010
,
1000
0000
0000
0000
1010
0000
0000
0000
0100
0010
0100
0010
0100
0000
0001
1000
,
0001
1000
0001
0000
0010
0100
0010
0100
0010
0000
0001
0100
0010
1000
0001
0010
,
0001
0000
0000
0000
0011
0000
0000
0000
0100
1000
0100
1000
0100
0000
0010
0100
,
0010
0100
0010
0000
0001
0010
0001
0010
0001
0000
1000
0100
0010
0001
1000
0010
,
1000
0000
0010
0100
0000
0000
0001
0000
1000
0100
0000
0000
0010
0000
0001
0100
,
0010
0100
0002
0000
0000
0000
0000
0000
0000
0000
0000
0000
0000
0000
0000
0000
,
1003
0100
0000
1000
0100
0000
1000
0100
1000
0001
0010
0100
0010
0001
0100
0010
,
0200
0000
0301
1000
0000
0100
1000
0100
,
0020
0000
0000
0001
0000
0000
0031
0000
0000
0000
1001
0000
0000
0000
0000
0000
,
0002
0000
0103
0010
0000
0100
0001
1000
,
0200
0000
0000
1000
0000
0000
1300
0000
0000
0000
1001
0000
0000
0000
0000
0000
,
0102
0000
1003
0100
0000
0010
0001
1000
,
0020
0000
0000
0100
0000
0000
0130
0000
0000
0000
1001
0000
0000
0000
0000
0000
,
1001
0000
0000
1100
0000
0000
1001
0000
0010
0000
0100
0000
1001
0000
0000
0011
,
0000
0000
1100
0000
0010
0000
1001
0000
0000
0000
1000
0001
1000
0001
1000
0001
,
1000
0000
0001
0010
0100
0000
1000
0000
0001
0100
0010
0000
1000
0000
0001
0010
,
0100
0000
1000
0000
0001
0100
0010
1000
0010
1000
0010
0100
0001
0010
0100
1000
,
0001
0000
1000
0010
0100
0000
0001
0000
1000
0100
0010
0000
0001
0000
1000
0010
,
0100
0001
0100
0001
1000
0100
0010
0100
1000
0100
1000
0001
0100
0010
1000
0100
,
1000
0000
0100
1000
0010
0000
0100
0000
0010
1000
0100
0000
0010
0000
0100
1000
,
0010
0000
0100
0000
0010
1000
0100
0010
0100
0010
0001
1000
0010
0100
0001
0010
,
0100
0010
0100
1000
0001
0000
0010
0100
0010
0100
1000
0000
0010
0100
0010
0100
,
0001
0000
0100
0010
0100
0010
1000
0100
0010
0001
0100
0010
0100
0010
0100
0010
,
0100
0000
0000
0000
1001
0000
0000
0000
1000
0100
0010
0100
1000
0100
0010
0100
,
1000
0100
0010
0100
1000
0100
0010
0100
1000
0000
0220
0000
0000
0000
0330
0000
,
1001
0000
0000
0000
1001
0000
0000
0000
0001
0010
0100
0010
0001
0010
0100
0010
,
0001
0010
0100
0010
0001
0010
0100
0010
0001
0000
0220
0000
0000
0000
0330
0000
,
1001
0000
0000
0000
1001
0000
0000
0000
1000
0010
0100
0010
1000
0010
0100
0010
,
1000
0010
0100
0010
1000
0010
0100
0010
1000
0000
0220
0000
0000
0000
0330
0000
,
1001
0000
0000
0000
1001
0000
0000
0000
0001
0100
0010
0100
0001
0100
0010
0100
,
0001
0100
0010
0100
0001
0100
0010
0100
0001
0000
0220
0000
0000
0000
0330
0000
,
1001
0000
1000
0000
0001
0000
0100
0000
0001
1000
0001
0000
0100
0000
0010
0000
,
0100
0000
0001
0000
1000
0000
0100
0000
1000
0001
1000
0000
0010
0100
0010
0100
,
0001
0000
1000
0100
0000
0000
0010
0000
0100
1000
0000
0000
2001
0000
0000
0000
,
3001
0000
0100
0001
0000
0000
0010
0000
0100
1000
0000
0000
1002
0000
0000
0000
,
1003
0000
0010
0000
0100
0000
0001
0000
1000
0001
1000
0000
0100
0000
0010
0000
,
0100
0000
1000
0000
0010
0000
0001
0000
0010
0000
1000
0001
1000
0010
0100
0010
,
1000
0000
0010
0100
0000
0000
0001
0000
0010
0100
0000
0000
2001
0000
0000
0000
,
3001
0000
0100
0001
0000
0000
1000
0000
0100
1000
0000
0000
0001
1000
0001
1000
,
0001
0000
1000
0000
0100
0000
0010
0000
0001
1000
0001
0000
1000
0000
0010
0000
,
0001
0000
0010
0000
1000
0000
0100
0000
0010
0000
0001
0000
0100
0001
0100
0001
,
1000
0000
0100
1000
0000
0000
0010
0000
0100
0001
0000
0000
2001
0000
0000
0000
,
3001
0000
1000
0100
0000
0000
0010
0000
0100
1000
0000
0000
0001
0010
0100
1000
,
0001
0100
0010
0100
0001
0000
1000
0010
0100
0010
1000
0000
0001
0010
0100
0010
,
0001
0000
1000
0100
0010
0100
1000
0000
0000
0000
0000
0000
0001
1000
0100
1000
,
0001
0000
0100
0001
0010
0001
0100
0000
0001
1000
0100
1000
0001
0000
0100
0001
,
0010
0001
0100
0000
0000
0000
0000
0000
2020
0000
0000
0000
3000
0000
0200
0000
,
0000
0300
2000
0000
3030
0000
0202
0000
,
0003
0020
0000
0030
0002
0000
0303
0000
,
2002
0000
0000
0000
3000
0000
0200
0000
0000
0000
0003
0000
0310
1000
0100
0010
,
0002
0203
2300
3200
,
0302
0023
2030
3020
,
0032
0000
0000
0000
,
2000
0000
0000
0000
,
0000
0000
0000
0000
0000
0000
0000
3003
,
1000
0001
0100
0001
1000
0000
0001
0000
0010
0100
0010
0100
0010
0001
1000
0000
,
2010
0000
0000
0010
0000
0000
3010
0000
1000
0000
0100
0000
0001
0000
0100
0000
,
2000
0000
0000
0010
0000
0000
3010
0000
0000
0000
1001
0000
0000
0000
0000
0000
,
0012
0000
0000
0010
0000
0000
0013
0000
0001
0000
0100
0000
1000
0000
0100
0000
,
0002
0000
0000
0010
0000
0000
0013
0000
0000
0000
1001
0000
0000
0000
0000
0000
,
2010
0000
0000
0010
0000
0000
3010
0000
1000
0000
0100
0000
0001
0000
0100
0000
,
2000
0000
0000
0001
0000
0000
3001
0000
0000
0000
0101
0000
0000
0000
0000
0000
,
1001
0000
0000
1100
0000
0000
0011
0000
0100
0000
1000
0000
1001
0000
0000
0101
,
0000
0000
1010
0000
0100
0000
1001
0000
0000
0000
0001
0100
0010
0100
0001
1000
,
0100
0000
1000
0100
0010
0000
0100
0000
1000
0100
0010
0000
0100
0000
1000
0001
,
0010
0000
0100
0000
1000
0001
0010
0100
0010
0100
1000
0001
0100
0001
1000
0100
,
0010
0000
0001
0100
0010
0000
1000
0000
0001
0100
0010
0000
0100
0000
0001
1000
,
0010
1000
0010
0100
0001
0100
0001
0010
0100
1000
0001
0010
0100
0010
0001
1000
,
0010
0000
1000
0100
0010
0000
0001
0000
1000
0010
0100
0000
0001
0000
1000
0100
,
0010
0000
0001
0000
1000
0010
0100
0001
0010
0100
0010
0100
1000
0001
0100
0001
,
1000
0100
0001
0100
1000
0000
0001
0100
1000
0100
0001
0000
1000
0010
0001
0010
,
1000
0000
0001
0010
1000
0010
0001
0010
0100
1000
0010
0000
0000
0000
2002
0000
,
0000
0000
0000
0000
,
0000
3003
0000
0000
;

//---------------dance-single - ----------------
#NOTES:
     dance-single:
     :
     Beginner:
     2:
     0.093,0.156,0.145,0.000,0.000:
1001
0000
0000
0000
,
0000
0000
0000
0000
,
1001
0000
0000
0000
,
0000
0000
0000
0000
,
1001
0000
0000
0000
,
0000
0000
0000
0000
,
1001
0000
0000
0000
,
0000
0000
0000
0000
,
1001
0000
0000
0000
,
0000
0000
0000
0000
,
1001
0000
0000
0000
,
0000
0000
0000
0000
,
0000
0000
0000
0000
,
0001
0000
0000
0000
,
0010
0000
0000
0000
,
0001
0000
0000
0000
,
0010
0000
0000
0000
,
0100
0000
0000
0000
,
1000
0000
0000
0000
,
0100
0000
0000
0000
,
0000
0000
0000
0000
,
1000
0000
0000
0000
,
0001
0000
0000
0000
,
0100
0000
0000
0000
,
0010
0000
0000
0000
,
1000
0000
0000
0000
,
0001
0000
0000
0000
,
1001
0000
0000
1001
,
0000
0000
0000
0000
,
1000
0000
0000
0000
,
0000
0000
0000
0000
,
1000
0000
0000
0000
,
0000
0000
0000
0000
,
0001
0000
0000
0000
,
0000
0000
0000
0000
,
0001
0000
0000
0000
,
0000
0000
0000
0000
,
1000
0000
0000
0000
,
0100
0000
0000
0000
,
0110
0000
0000
0000
,
0110
0000
0000
0000
,
0001
0000
0000
0000
,
0010
0000
0000
0000
,
0110
0000
0000
0000
,
0110
0000
0000
0000
,
1000
0000
0000
0000
,
0010
0000
0000
0000
,
0110
0000
0000
0000
,
0110
0000
0000
0000
,
0001
0000
0000
0000
,
0000
0000
0000
0100
,
0000
0000
0000
0000
,
0000
0000
0010
0000
,
0000
0000
0000
0100
,
0000
0000
0000
0000
,
0010
0000
0000
0000
,
0100
0000
0000
0000
,
1001
0000
0000
0000
,
1001
0000
0000
0000
,
0000
0000
0000
0000
,
0000
0000
0000
0000
,
0001
0000
0000
0000
,
1001
0000
0000
0000
,
1000
0000
0000
0000
,
0010
0000
0000
0000
,
0100
0000
0000
0000
,
1001
0000
0000
0000
,
0010
0000
0000
0000
,
0100
0000
0000
1000
,
0000
0000
0000
0000
,
0001
0000
0000
0000
,
0100
0000
0000
0000
,
0010
0000
0000
0000
,
0100
0000
0000
0000
,
0001
0000
0000
0000
,
1000
0000
0000
0000
,
0100
0000
0000
0010
,
0000
0000
0001
0000
;
