#TITLE:WISH;
#SUBTITLE:(EUROBEAT MIX);
#ARTIST:DJ YOSHITAKA feat.杉村ことみ;
#TITLETRANSLIT:;
#SUBTITLETRANSLIT:;
#ARTISTTRANSLIT:DJ YOSHITAKA feat.KOTOMI SUGIMURA;
#CREDIT:DigiMindAxel;
#BANNER:WISH (EUROBEAT MIX).png;
#BACKGROUND:WISH (EUROBEAT MIX)-bg.png;
#LYRICSPATH:WISH (EUROBEAT MIX).lrc;
#CDTITLE:beatmania IIDX.png;
#MUSIC:WISH (EUROBEAT MIX).ogg;
#METERTYPE:DDR X;
#OFFSET:-0.439;
#SAMPLESTART:49.550;
#SAMPLELENGTH:12.000;
#SELECTABLE:YES;
#BPMS:0.000=155.000;
#STOPS:;
#BGCHANGES:-4.000=WISH (EUROBEAT MIX).avi=1.000=1=1=0,
99999=-nosongbg-=1.000=0=0=0 // don't automatically add -songbackground-
;

//---------------dance-single - ----------------
#NOTES:
     dance-single:
     :
     Easy:
     3:
     0.138,0.176,0.083,0.000,0.000:
0000
0000
0000
0000
,
0000
0000
0000
0000
,
0000
0000
0000
0000
,
0000
0000
0000
0000
,
1000
0000
0001
0000
,
1000
0000
0001
0000
,
1000
0000
0001
0000
,
1001
0000
0000
0000
,
0010
0000
0010
0000
,
0010
0000
0010
0000
,
0100
0000
0100
0000
,
0100
0000
0000
0000
,
1000
0000
1000
0000
,
1000
0000
1000
0000
,
0001
0000
0001
0000
,
0001
0000
0000
0000
,
0010
0000
0000
0000
,
0000
0000
0000
0000
,
0100
0000
0000
0000
,
1000
0000
1001
0000
,
0001
0000
0000
0000
,
0100
0000
0000
0000
,
0010
0000
0000
0000
,
1000
0000
0000
0000
,
1001
0000
0001
0000
,
0100
0000
0001
0000
,
1000
0000
0100
0000
,
0010
0000
0001
0000
,
1000
0000
0010
0000
,
1000
0000
0001
0000
,
0100
0000
0100
0000
,
0110
0000
0000
0000
,
0010
0000
1000
0000
,
0010
0000
0100
0000
,
0001
0000
0010
0000
,
0100
0000
0000
0000
,
0010
0000
0001
0000
,
0100
0000
0010
0000
,
0100
0000
0001
0000
,
1000
0000
0000
0000
,
0100
0000
0100
0000
,
0010
0000
0010
0000
,
0001
0000
0001
0000
,
1000
0000
0000
0000
,
0010
0000
0010
0000
,
1000
0000
1000
0000
,
0001
0000
0001
0000
,
0100
0000
0100
0000
,
0110
0000
0000
0000
,
0000
0000
0000
0000
,
0000
0000
0000
0000
,
0000
0000
0000
0000
,
0010
0000
1000
0000
,
0010
0000
0100
0000
,
0010
0000
1000
0000
,
1001
0000
0000
0000
,
0001
0000
0010
0000
,
0001
0000
0100
0000
,
0010
0000
1000
0000
,
1001
0000
0000
0000
,
0100
0000
1000
0000
,
0010
0000
0100
0000
,
0001
0000
1000
0000
,
1001
0000
0000
0000
,
0110
0000
0000
0000
;

//---------------dance-single - ----------------
#NOTES:
     dance-single:
     :
     Medium:
     8:
     0.355,0.382,0.083,0.037,0.000:
0000
0000
0000
0000
,
0000
0000
0000
0000
,
0000
0000
0000
0000
,
0000
0000
0000
0000
,
1000
0001
1000
0001
,
1000
0001
1000
0001
,
1000
0001
1000
0001
,
1001
0000
0000
0000
,
0010
0100
0010
0000
1000
0010
1000
0000
,
0100
0010
0001
0100
,
0010
0100
0010
0000
1000
0001
1000
0000
,
1001
0000
0000
0000
,
0001
0100
0001
0000
0100
0010
0100
0000
,
0001
0010
0100
0010
,
0001
0100
0001
0000
1000
0001
1000
0000
,
1001
0000
0000
0000
,
0100
0100
0100
0100
,
0010
0010
0010
0010
,
0001
0001
0001
0001
,
1001
0000
0000
0000
1000
0001
1000
0001
,
1000
1000
1000
1000
,
0100
0100
0100
0100
,
0010
0010
0010
0010
,
0100
0100
0100
0100
,
1000
0001
1000
0000
0001
0100
0001
0000
,
1000
0001
1000
0000
0001
0100
0001
0000
,
0010
0100
0010
0000
0001
0100
0001
0000
,
0010
0100
0010
0000
0001
0100
0001
0000
,
1000
0100
1000
0000
0001
1000
0001
0000
,
1000
0100
1000
0000
0001
1000
0001
0000
,
0100
0010
0100
0000
0001
0100
0001
0000
,
0010
0100
1000
0000
,
0001
0100
0010
0000
0100
0010
0100
0000
,
0001
0100
0010
0000
0100
0010
0100
0000
,
0001
1000
0100
0000
1000
0001
1000
0000
,
1001
0000
0000
0000
,
0100
1000
0010
0000
0100
0010
0100
0000
,
0010
1000
0100
0000
1000
0001
1000
0000
,
0001
0100
0010
0000
0100
0010
0100
0000
,
1001
0000
0000
0000
,
0100
0000
0010
0000
0001
0100
0001
0000
,
0010
0100
1000
0000
0010
0000
0000
0000
,
0100
0001
0100
0000
0001
1000
0100
0000
,
0010
0000
0000
0000
,
0001
1000
0001
0000
0100
0001
0010
0000
,
0100
0000
1000
0000
0010
0100
0010
0000
,
1000
0100
0010
0000
0001
0100
0001
0000
,
1000
0000
0010
0000
0100
0000
0001
1000
,
0002
0000
0000
0000
,
2003
0000
0000
0000
,
3002
0000
0000
0000
,
2003
0000
0000
0000
,
3001
1000
0001
1000
,
0001
1000
0001
1000
,
0001
1000
0001
1000
,
1001
0000
0000
0000
,
0010
0000
0100
0000
1000
0100
0010
0000
,
0001
0000
0100
0000
0010
0100
0001
0000
,
1000
0000
0100
0000
0010
0100
1000
0000
,
0001
1000
0001
1000
0000
0010
0100
0000
,
0001
0000
1000
0000
0100
0010
0001
0000
,
1000
0000
0100
0000
0010
0001
0100
0000
,
0010
0000
1000
0000
0001
0010
0100
0000
,
1001
0000
0010
0010
,
1001
0000
0000
0000
;

//---------------dance-single - ----------------
#NOTES:
     dance-single:
     :
     Hard:
     11:
     0.507,0.646,0.092,0.496,0.110:
0000
0000
0000
0000
,
0000
0000
0000
0000
,
0000
0000
0000
0000
,
0000
0000
0000
0000
,
0000
1000
0000
0001
0000
1000
0000
0001
,
0000
0010
0000
0100
0000
0010
0000
0100
,
0000
1000
0001
1000
0001
1000
0100
0010
,
2002
0000
0000
3003
,
1000
0001
0001
1000
0010
0010
0100
0000
,
0001
0010
1000
0010
0001
0100
0001
0001
,
1000
0100
0100
1000
0010
0010
0100
0000
,
2002
0000
0000
3003
,
0010
0001
0001
0010
0100
0100
0010
0000
,
0001
0100
1000
0100
0001
1000
0010
0010
,
1000
0001
0001
0010
0100
0100
0010
0000
,
2002
0000
0000
3003
,
0001
0100
0001
0000
0010
0100
0010
0000
,
0001
1000
0001
0000
0100
1000
0100
0000
,
0001
1000
0001
0000
0010
0100
0010
0000
,
0110
0000
0000
0000
0100
0100
0100
0100
,
0001
0100
0001
0000
1000
0100
1000
0000
,
0001
1000
0001
0000
0010
1000
0010
0000
,
0001
1000
0001
0000
1000
0100
1000
0000
,
0100
0001
0100
0000
1000
0100
0010
0001
,
1000
0010
0100
0001
0010
0100
0100
0100
,
0010
0001
0100
0010
1000
0001
0001
0001
,
1000
0100
0010
0100
1000
0010
0010
0010
,
1000
0001
0100
0001
1000
0001
0010
0100
,
2000
0000
0100
0000
3001
0100
0010
1000
,
0100
0001
0100
0000
1000
0100
0010
0100
,
1000
0001
0001
0000
0010
0100
1000
0001
,
0101
0000
0100
0000
0110
0000
0010
0100
,
0001
0000
0000
0010
0000
0000
0200
0000
0000
0000
1000
0000
1300
0000
0000
0000
,
0010
0000
0000
0001
0000
0000
0200
0000
0000
0000
0010
0000
0310
0000
0000
0000
,
1000
0000
0000
0001
0000
0000
0020
0000
0000
0000
0100
0000
0130
0000
0000
0000
,
1000
0010
0001
0020
0000
1000
1030
0000
,
0001
0000
0000
0100
0000
0000
0020
0000
0000
0000
1000
0000
1030
0000
0000
0000
,
0001
0000
0000
0010
0000
0000
0200
0000
0000
0000
1000
0000
1300
0000
0000
0000
,
0010
0000
0000
0001
0000
0000
0200
0000
0000
0000
0010
0000
0310
0000
0000
0000
,
2002
0000
0000
3003
,
0001
0000
0100
0000
0001
0000
1000
0000
0200
0000
0000
0320
0000
0000
0031
0000
,
0200
0000
0000
0320
0000
0000
2030
0000
0000
0000
3002
0000
0000
0203
0000
0000
,
0320
0000
0000
0230
0000
0302
0000
2003
,
0000
0000
0000
0000
0001
0000
3001
0100
,
0002
0000
0000
0023
0000
0000
0032
0000
0000
2003
0000
0000
3002
0000
0000
0023
,
0000
0000
0032
0000
0000
2003
0000
0000
3200
0000
0000
0320
0000
0000
0031
0000
,
0200
0000
0000
0320
0000
0000
1030
0000
0200
0000
0000
0320
0000
0000
0031
0000
,
2000
0000
0000
3200
0000
0000
0310
0000
0200
0000
0000
2300
0000
0000
3001
0000
,
0200
0000
0000
0300
,
0020
0000
0000
0030
,
0200
0000
0000
0300
,
0020
0000
0000
0030
,
0000
1000
0000
0001
0000
0100
0000
0001
,
0000
1000
0000
0100
0000
0010
0000
0001
,
1000
0001
1000
0001
0100
0010
1000
0010
,
0220
0000
0000
0330
,
0100
0000
0000
0001
0100
0000
0010
0000
1000
0000
0001
0000
0001
0000
0010
0000
,
0100
0000
0000
1000
0010
0000
1000
0000
0001
0000
0010
0000
0010
0000
0001
0000
,
0100
0000
0000
0100
0010
0000
1000
0000
0100
0000
0010
0000
0001
0000
1000
0000
,
0001
0100
1000
0200
0000
0001
0301
0000
,
0100
0000
0000
0001
1000
0000
0001
0000
0010
0000
1000
0000
0010
0000
0001
0000
,
0100
0000
0000
0100
0010
0000
1000
0000
0100
0000
0001
0000
0100
0000
1000
0000
,
0001
0000
0000
0001
1000
0000
0001
0000
0010
0000
1000
0000
0010
0000
0001
0000
,
0220
0000
0000
0330
,
1001
0000
0000
0000
;

//---------------dance-single - ----------------
#NOTES:
     dance-single:
     :
     Challenge:
     14:
     0.713,0.705,0.257,0.083,0.418:
0000
0000
0000
0000
,
0000
0000
0000
0000
,
0000
0000
0000
0000
,
0000
0000
0000
0000
,
1000
0100
1000
0010
1000
0100
1000
0000
,
0100
0010
0001
0010
0100
0010
0001
0000
,
1000
0000
0001
0000
0010
0000
0100
0000
1000
0001
1000
0001
1000
0001
1000
0001
,
2000
0000
0001
3001
,
1000
0100
0010
0000
0010
0000
0001
0100
0010
0000
1000
0000
1000
0000
0000
0000
,
0001
0100
0010
0000
1000
0000
0100
0000
0001
0000
0100
0000
1000
0000
1000
0000
,
0010
0100
0001
0000
0001
0000
0010
0100
1000
0000
0001
0000
0001
0000
0000
0000
,
0010
0100
1000
0002
0000
1000
1000
1003
,
0001
0010
0100
0000
0100
0000
1000
0010
0100
0000
0001
0000
0001
0000
0000
0000
,
1000
0100
0010
0000
0001
0000
0100
0000
0010
0000
1000
0000
0001
0000
0001
0000
,
0010
0100
1000
0000
1000
0000
0100
0010
0001
1000
0001
1000
0001
1000
0001
1000
,
0001
0010
0100
2000
0000
0010
0010
3010
,
1000
0010
1000
0010
0100
0001
0100
0001
,
0010
0100
0010
0100
1000
0001
1000
0001
,
0100
0010
0100
0010
1000
0100
0010
0001
,
0100
0000
0000
0000
1001
1001
1001
1001
,
0001
0010
0001
0010
0100
1000
0100
1000
,
0010
0100
0010
0100
0001
1000
0001
1000
,
0100
0010
0100
0010
0001
0100
0001
0100
,
0010
1000
0010
1000
0001
0100
1000
0100
,
0001
0000
1000
0100
1000
0100
1000
0100
1000
0000
0010
0000
0100
0000
0001
0000
,
0010
0000
0100
1000
0100
1000
0100
1000
0100
0000
1000
0000
0010
0000
0100
0000
,
0001
0000
0100
0010
0100
0010
0100
0010
0100
0000
0001
0000
1000
0000
0100
0000
,
0010
0000
0001
1000
0001
1000
0001
1000
0001
0100
0000
0100
0010
0000
1000
0000
,
0001
0000
0100
0001
0100
0001
1000
0100
1000
0000
0001
0000
0010
0000
0100
0000
,
0010
0000
0001
0100
0001
0100
0001
1000
0100
0000
0010
0000
0001
0000
0100
0000
,
0010
0000
1000
0001
1000
0001
0010
0001
0010
0000
0100
0000
1000
0000
0010
0000
,
0100
0000
0000
0100
0001
0000
0000
0001
1000
0000
0000
0000
0010
1000
0010
1000
,
0001
0000
0000
0100
0001
0000
1000
0000
0100
0000
0010
0000
0011
0000
0000
0000
,
0100
0000
0000
0100
1000
0000
0010
0000
0100
0000
0001
0000
1001
0000
0000
0000
,
0010
0000
0000
0010
0001
0000
1000
0000
0100
1000
0100
1000
0001
1000
0001
1000
,
0001
0010
0100
0110
0000
1000
1100
0000
,
0010
0000
0000
0010
0001
0000
0100
0000
0010
0000
1000
0000
1100
0000
0000
0000
,
0010
0000
0000
0010
0100
0000
0001
0000
1000
0000
0100
0000
0110
0000
0000
0000
,
0001
0000
0000
0001
1000
0000
0100
0000
0010
0000
0100
0000
1100
0000
0000
0000
,
0010
0001
0100
0010
0000
1000
0100
0010
,
0001
0100
0010
0000
0010
0000
1000
0100
0010
0000
0001
0000
0101
0000
0000
0000
,
0100
0010
1000
0000
1000
0000
0100
0000
0010
0000
0001
0000
0101
0000
0101
0000
,
0010
0100
1000
0000
1000
0000
0001
0100
0010
0000
1000
0000
1000
0000
0001
0000
,
0010
0000
0100
0000
1000
0000
0001
0000
1000
0001
0000
0001
0100
0000
0100
0000
,
0001
1000
0100
0000
0100
0000
1000
0010
0100
0000
0001
0000
1001
0000
0000
0000
,
0010
0100
1000
0000
1000
0000
0001
0100
0010
0000
1000
0000
1001
0000
1001
0000
,
0100
0010
0001
0000
0001
0000
0100
0010
1000
0000
0001
0000
1001
0000
0000
0000
,
0010
0100
1000
0002
0000
1000
1003
0000
,
1001
0000
0000
0010
0000
0000
0200
0000
0000
0000
1300
0000
0001
0000
0000
0000
,
0100
0000
0000
0001
0000
0000
2000
0000
0000
0000
3100
0000
0010
0000
0000
0000
,
0100
0000
0000
1000
0000
0000
0020
0000
0000
0000
0130
0000
0001
0000
0000
0000
,
0010
0100
1000
0001
0000
1000
0001
0000
,
1000
0000
0000
0010
0000
0000
0200
0000
0000
0000
0001
0000
0301
0000
0000
0000
,
1000
0000
0000
0100
0000
0000
0020
0000
0000
0000
0001
0000
0031
0000
0000
0000
,
1000
0000
0010
0000
0100
0000
0010
0000
1000
0001
1000
0001
1000
0001
1000
0001
,
1000
0000
0100
0000
0010
0000
0001
0000
0100
0010
0000
0010
1000
0000
1000
0000
,
0001
0000
0010
0001
0010
0000
0100
0000
1000
0000
0010
0000
0110
0000
0100
0000
,
0001
0000
1000
0100
1000
0000
0001
0000
0010
0000
0100
0000
1100
0000
1000
0000
,
0001
0000
0100
0010
0100
0000
0001
0000
1000
0100
1000
0100
1000
0001
1000
0001
,
1000
0010
0100
0110
0000
1000
1100
0000
,
0010
0000
0001
0100
0001
0000
1000
0000
0100
0000
0010
0000
0011
0000
0001
0000
,
0100
0000
0010
0100
0010
0000
1000
0000
0100
0000
0010
0000
0110
0000
0100
0000
,
0001
0000
1000
0100
1000
0000
0001
0000
0010
0000
0100
0000
1100
0000
1000
0000
,
1001
0000
0010
0000
0100
0000
1000
0000
0001
0100
0000
0100
0010
0000
1000
0000
,
1010
0000
0000
0000
;

//---------------dance-double - ----------------
#NOTES:
     dance-double:
     :
     Easy:
     5:
     0.215,0.294,0.101,0.174,0.000:
00000000
00000000
00000000
00000000
,
00000000
00000000
00000000
00000000
,
00000000
00000000
00000000
00000000
,
00000000
00000000
00000000
00000000
,
10000000
00000000
01000000
00000000
,
10000000
00000000
01000000
00000000
,
00100000
00000000
00010000
00000000
,
20020000
00000000
00000000
30030000
,
10000000
00100000
10000000
00100000
,
01000000
00100000
01000000
00000000
,
00001000
00010000
00001000
00010000
,
00000020
00000000
00000030
00000000
,
00000100
00000001
00000100
00000001
,
00010000
00001000
00010000
00000000
,
00000010
00010000
00000010
00010000
,
00002000
00000000
00000000
00003000
,
00010000
00000000
00000000
00000000
,
00001000
00000000
00000000
00000000
,
00100000
00000000
00000000
00000000
,
01000000
00000000
10010000
00000000
,
00010000
00000000
00000000
00000000
,
01000000
00000000
00000000
00000000
,
00001000
00000000
00000000
00000000
,
00010000
00000000
00000000
00000000
,
00011000
00000000
00001000
00000000
,
00010000
00000000
00001000
00000000
,
00010000
00000000
00000010
00000000
,
00010000
00000000
00000010
00000000
,
00000100
00000000
00000001
00000000
,
00000100
00000000
00000010
00000000
,
00010000
00000000
00001000
00000000
,
00022000
00000000
00000000
00033000
,
00001000
01000000
00100000
00000000
,
01000000
00100000
10000000
00000000
,
01000000
10000000
00100000
00000000
,
20020000
00000000
00000000
30030000
,
10000000
01000000
00100000
00000000
,
00001000
00010000
00000010
00000000
,
00000100
00000001
00000010
00000000
,
00002002
00000000
00000000
00003003
,
00000001
00000010
00000001
00000010
,
00000100
00010000
00001000
00000000
,
01000000
00001000
01000000
00001000
,
20000000
00000000
00000000
30000000
,
01000000
10000000
01000000
10000000
,
00100000
01000000
00001000
00000000
,
01000000
00001000
01000000
00001000
,
00010000
00000100
00000010
00000000
,
00002002
00000000
00000000
00000000
,
00000000
00000000
00000000
00000000
,
00003003
00000000
00000000
00000000
,
00000000
00000000
00000000
00000000
,
00000010
00000000
00000100
00000000
,
00000010
00000000
00000100
00000000
,
00000010
00000000
00000100
00000000
,
00002002
00000000
00000000
00003003
,
00000001
00000010
00000001
00000010
,
00000100
00001000
00010000
00000000
,
01000000
00100000
01000000
00100000
,
20020000
00000000
00000000
30030000
,
10000000
00100000
10000000
00100000
,
01000000
00001000
00010000
00000000
,
00000100
00000010
00000001
00000100
,
00000220
00000000
00000000
00000330
,
00001001
00000000
00000000
00000000
;

//---------------dance-double - ----------------
#NOTES:
     dance-double:
     :
     Medium:
     8:
     0.406,0.441,0.101,0.193,0.000:
00000000
00000000
00000000
00000000
,
00000000
00000000
00000000
00000000
,
00000000
00000000
00000000
00000000
,
00000000
00000000
00000000
00000000
,
10000000
00010000
10000000
00010000
,
10000000
00010000
10000000
00010000
,
10000000
00010000
10000000
00010000
,
20020000
00000000
00000000
30030000
,
10000000
01000000
10000000
00000000
00100000
01000000
00001000
00000000
,
00010000
00000000
00000100
00000000
00000010
00000000
00000001
00001000
,
00000010
00000100
00000010
00000000
00010000
00000100
00010000
00000000
,
00022000
00000000
00000000
00033000
,
00001000
00100000
00001000
00000000
00100000
01000000
10000000
00000000
,
00100000
01000000
00001000
00010000
,
00000100
00000010
00000100
00000000
00010000
00000010
00000100
00000000
,
00000220
00000000
00000000
00000330
,
00001001
00000001
00001000
00000001
,
00010000
00000100
00010000
00000100
,
00001000
00010000
00001000
00010000
,
00011000
00000000
00000000
00000000
01000000
00100000
01000000
00100000
,
01000000
00010000
01000000
00010000
,
10000000
00001000
10000000
00001000
,
00010000
00000100
00010000
00000100
,
00000010
00000001
00000010
00000001
,
00000100
00000010
00000100
00000010
00001000
00000000
00010000
00000000
,
01000000
00100000
01000000
00100000
10000000
00000000
01000000
00000000
,
00100000
00010000
00100000
00001000
00010000
00000000
00000100
00000000
,
00000010
00000001
00000010
00000001
00000100
00000000
00000010
00000000
,
00001000
00010000
00001000
00010000
00100000
00000000
01000000
00000000
,
10000000
00010000
10000000
00010000
00100000
00000000
01000000
00000000
,
10000000
00100000
10000000
00100000
01000000
00000000
00001000
00000000
,
00011000
00010000
00000010
00000000
,
00000100
00000001
00000100
00000001
00000010
00000100
00001000
00000000
,
00010000
00100000
00010000
00100000
01000000
10000000
00100000
00000000
,
10000000
00100000
10000000
00100000
01000000
00001000
00010000
00000000
,
00022000
00000000
00000000
00033000
,
00010000
00000100
00010000
00000100
00000010
00000001
00001000
00000000
,
00000010
00010000
00000010
00010000
00001000
00100000
01000000
00000000
,
10000000
00100000
10000000
00100000
01000000
00010000
00001000
00000000
,
00022000
00000000
00000000
00033000
,
00010000
00000100
00010000
00000000
00000100
00000010
00000001
00000000
,
00000100
00000010
00000100
00000001
00002000
00000000
00000000
00000000
,
00003010
00000100
00000010
00000000
00001000
00010000
00100000
00000000
,
02000000
00000000
00000000
03000000
,
10000000
01000000
10000000
00000000
00100000
01000000
00001000
00000000
,
00010000
00001000
00010000
00000010
00000200
00000000
00000000
00000000
,
00000301
00001000
00000001
00000000
00000010
00000100
00001000
00000000
,
00010000
01000000
00100000
10000000
00000000
00010000
10000000
00000000
,
00200000
00000000
00000000
00000000
,
02300000
00000000
00000000
00000000
,
03002000
00000000
00000000
00000000
,
00023000
00000000
00000000
00000000
,
00030001
00000010
00000001
00000010
,
00000100
00010000
00000100
00010000
,
00001000
00010000
00001000
00010000
,
00022000
00000000
00000000
00033000
,
00001000
01000000
00100000
01000000
00100000
01000000
00001000
00000000
,
10000000
01000000
00100000
01000000
00100000
01000000
10000000
00000000
,
00001000
01000000
00100000
01000000
00100000
01000000
00001000
00000000
,
00010000
00000100
00000010
00000001
00000000
00000010
00000100
00000000
,
00010000
00001000
00010000
00001000
01000000
00100000
10000000
00000000
,
01000000
00100000
01000000
00100000
00001000
00010000
00000100
00000000
,
00000010
00000001
00000010
00000001
00000100
00000010
00010000
00000000
,
00022000
00000000
00000000
00033000
,
01001000
00000000
00000000
00000000
;

//---------------dance-double - ----------------
#NOTES:
     dance-double:
     :
     Hard:
     11:
     0.476,0.499,0.101,0.266,0.055:
00000000
00000000
00000000
00000000
,
00000000
00000000
00000000
00000000
,
00000000
00000000
00000000
00000000
,
00000000
00000000
00000000
00000000
,
00000000
10000000
00000000
01000000
00000000
10000000
00000000
01000000
,
00000000
10000000
00000000
00010000
00000000
10000000
00000000
00010000
,
00000000
01000000
00001000
01000000
00001000
01000000
00010000
00001000
,
00000220
00000000
00000000
00000330
,
00000100
00000001
00000001
00001000
00000100
00000100
00010000
00000000
,
00001000
01000000
10000000
01000000
00001000
00010000
00000010
00000010
,
00000100
00000001
00000001
00000010
00000100
00000100
00010000
00000000
,
00022000
00000000
00000000
00033000
,
00001000
01000000
01000000
00100000
10000000
10000000
01000000
00000000
,
10000000
01000000
00010000
01000000
10000000
00010000
01000000
01000000
,
00010000
00001000
00001000
00000010
00000100
00000100
00000001
00000000
,
00002002
00000000
00000000
00003003
,
00000110
00000100
00000001
00000010
,
00000100
00010000
00001000
00100000
,
10000000
00000000
00100000
00000000
00001000
00010000
00001000
00000000
,
00011000
00000000
00000000
00000000
00010000
00010000
00010000
00010000
,
00000010
00000100
00000001
00000010
,
00001000
00000010
00000001
00000100
,
00000010
00020000
00000000
00000000
00031000
00200000
00000000
00000000
,
01300000
20000000
00000000
00000000
30010000
01000000
10000000
01000000
,
00010000
10000000
00100000
01000000
00001000
00010000
00010000
00010000
,
00000100
00000010
00000001
00000100
00000010
00001000
00001000
00001000
,
00010000
01000000
00100000
01000000
00010000
10000000
10000000
10000000
,
01000000
00100000
00001000
00010000
00000100
00000010
00000100
00010000
,
00000002
00000000
00000100
00000000
00000103
00000010
00010000
00001000
,
00100000
01000000
00100000
00000000
00001000
10000000
00001000
00100000
,
01000000
10000000
10000000
00000000
01000000
00100000
00001000
00010000
,
00010100
00000000
00000100
00000000
00000110
00000000
00000010
00000001
,
00000100
00000000
00000000
00000010
00000000
00000000
00020000
00000000
00000000
00000000
00001000
00000000
00031000
00000000
00000000
00000000
,
00100000
00000000
00000000
01000000
00000000
00000000
20000000
00000000
00000000
00000000
00010000
00000000
30010000
00000000
00000000
00000000
,
10000000
00000000
00000000
00100000
00000000
00000000
02000000
00000000
00000000
00000000
00001000
00000000
03001000
00000000
00000000
00000000
,
00010000
00000010
00000100
00000002
00000000
00000010
00000013
00000000
,
00000100
00000000
00000000
00010000
00000000
00000000
00002000
00000000
00000000
00000000
01000000
00000000
01003000
00000000
00000000
00000000
,
00100000
00000000
00000000
10000000
00000000
00000000
02000000
00000000
00000000
00000000
00100000
00000000
03100000
00000000
00000000
00000000
,
00010000
00000000
00000000
00001000
00000000
00000000
00000020
00000000
00000000
00000000
00000100
00000000
00000130
00000000
00000000
00000000
,
00002002
00000000
00000000
00003003
,
00000100
00000001
00000001
00000010
00000100
00000100
00010000
00001000
,
00100000
10000000
00100000
00001000
01000000
00100000
01000000
00000000
,
00010000
10000000
10000000
00100000
01000000
01000000
00001000
00001000
,
00020000
00000000
00001000
00031000
,
00000100
00000010
00000010
00000001
00000100
00000100
00000010
00010000
,
00001000
00100000
10000000
00100000
00001000
01000000
00100000
00000000
,
10000000
00100000
00100000
01000000
00001000
00001000
00010000
00000100
,
00000010
00000001
00000100
00001000
00000000
00000100
00000001
00000010
,
00000200
00000000
00000000
00000300
,
00020000
00000000
00000000
00030000
,
00002000
00000000
00000000
00003000
,
02000000
00000000
00000000
03000000
,
00000000
00100000
00000000
01000000
00000000
00100000
00000000
01000000
,
00000000
00001000
00000000
00100000
00000000
00001000
00000000
00010000
,
00001000
00010000
00001000
00010000
00000010
00000100
00000010
00001000
,
00002002
00000000
00000000
00003003
,
00000001
00000000
00000000
00000010
00000001
00000000
00000100
00000000
00000010
00000000
00010000
00000000
00010000
00000000
00000000
00000000
,
00001000
00000000
00000000
01000000
00100000
00000000
10000000
00000000
01000000
00000000
00100000
00000000
00100000
00000000
00000000
00000000
,
00001000
00000000
00000000
00010000
00000100
00000000
00000010
00000000
00000001
00000000
00000100
00000000
00000010
00000000
00000100
00000000
,
00000001
00000010
00000100
00020000
00000000
00001000
00031000
00000000
,
00100000
00000000
00000000
01000000
10000000
00000000
00010000
00000000
01000000
00000000
00010000
00000000
10000000
00000000
01000000
00000000
,
00100000
00000000
00000000
00001000
00010000
00000000
00000100
00000000
00000010
00000000
00000100
00000000
00010000
00000000
00000010
00000000
,
00000100
00000000
00000000
00000001
00000010
00000000
00000100
00000000
00010000
00000000
00001000
00000000
01000000
00000000
00100000
00000000
,
02200000
00000000
00000000
03300000
,
10010000
00000000
00000000
00000000
;

//---------------dance-double - ----------------
#NOTES:
     dance-double:
     :
     Challenge:
     14:
     0.691,0.676,0.220,0.138,0.399:
00000000
00000000
00000000
00000000
,
00000000
00000000
00000000
00000000
,
00000000
00000000
00000000
00000000
,
00000000
00000000
00000000
00000000
,
10000000
01000000
10000000
01000000
00100000
00001000
00100000
00001000
,
00010000
00000010
00010000
00000010
00000100
00000001
00000100
00000001
,
00000010
00000000
00000100
00000000
00001000
00000000
00010000
00000000
01000000
00100000
01000000
00100000
01000000
00100000
01000000
00100000
,
02000000
00000000
00000000
03000000
,
00010000
01000000
00010000
00000000
10000000
00000000
01000000
00100000
00001000
00000000
00010000
00000000
00010000
00000000
00000000
00000000
,
00000010
00000100
00000001
00000000
00000010
00000000
00000100
00000000
00010000
00000000
00001000
00000000
00010000
00000000
00010000
00000000
,
00000010
00000100
00000010
00000000
00000100
00000000
00000001
00000010
00000100
00000000
00010000
00000000
00010000
00000000
00000000
00000000
,
00001000
00100000
01000000
20000000
00000000
00010000
00010000
30010000
,
10000000
01000000
10000000
00000000
00100000
00000000
01000000
00001000
00010000
00000000
00001000
00000000
00001000
00000000
00000000
00000000
,
00010000
00000010
00010000
00000000
00000010
00000000
00000100
00000000
00000001
00000000
00000100
00000000
00000010
00000000
00000010
00000000
,
00001000
00000001
00001000
00000000
00000100
00000000
00010000
00001000
00100000
01000000
00100000
01000000
00100000
01000000
00100000
01000000
,
00100000
00001000
01000000
00200000
00000000
10000000
10000000
10300000
,
00010000
01000000
00010000
01000000
00010000
00001000
00010000
00001000
,
00000010
00000100
00000010
00000100
00000001
00001000
00000001
00001000
,
00000010
00010000
00000010
00010000
00001000
00100000
10000000
00100000
,
00001000
00000000
00000000
00000000
00011000
00011000
00011000
00011000
,
00010000
00000010
00010000
00000010
00000100
00000001
00000100
00000001
,
00000010
00000100
00000010
00000100
00010000
00001000
00010000
00001000
,
01000000
00100000
01000000
00100000
10000000
00010000
10000000
00010000
,
01000000
00001000
01000000
00001000
00010000
00000010
00000100
00000001
,
00000010
00000000
00000100
00010000
00000100
00010000
00000100
00010000
00000100
00000000
00000000
00000000
00001000
00000000
00010000
00000000
,
00100000
00000000
01000000
10000000
01000000
10000000
01000000
10000000
01000000
00000000
10000000
00000000
00100000
00000000
00000000
00000000
,
01000000
00000000
00010000
10000000
00010000
10000000
00010000
10000000
00010000
00000000
00100000
00000000
01000000
00000000
00000000
00000000
,
00100000
00000000
00001000
00010000
00001000
00010000
00001000
00010000
00001000
00000000
00010000
00000000
00000010
00000000
00000100
00000000
,
00000001
00000000
00000010
00000100
00000010
00000100
00010000
00000100
00010000
00000000
00001000
00000000
01000000
00000000
00100000
00000000
,
01000000
00000000
00010000
10000000
00010000
10000000
00010000
01000000
00010000
00000000
00100000
00000000
01000000
00000000
10000000
00000000
,
00001000
00000000
01000000
00001000
01000000
00001000
00010000
00001000
00010000
00000000
00000100
00000000
00000010
00000000
00000001
00000000
,
00000100
00000000
00000000
00000000
00000100
00000000
00000000
00000000
00000110
00000000
00000000
00000000
00000100
00000001
00000100
00000001
,
00000200
00000000
00000000
00000010
00000000
00000000
00000310
00000000
00010000
00000000
00001000
00000000
01001000
00000000
00000000
00000000
,
00200000
00000000
00000000
01000000
00000000
00000000
01300000
00000000
00010000
00000000
10000000
00000000
11000000
00000000
00000000
00000000
,
00200000
00000000
00000000
00001000
00000000
00000000
00301000
00000000
00010000
00000010
00010000
00000010
00000100
00000010
00000100
00000010
,
00000100
00000001
00000010
00000110
00000000
00010000
00011000
00000000
,
00200000
00000000
00000000
01000000
00000000
00000000
01300000
00000000
10000000
00000000
00010000
00000000
01010000
00000000
00000000
00000000
,
00200000
00000000
00000000
00001000
00000000
00000000
00301000
00000000
00010000
00000000
00000010
00000000
00000110
00000000
00000000
00000000
,
00000200
00000000
00000000
00000001
00000000
00000000
00000301
00000000
00001000
00000000
00000100
00000000
00000110
00000000
00000000
00000000
,
00000001
00000010
00000100
00001000
00000000
00010000
01000000
00100000
,
10000000
00010000
10000000
00000000
01000000
00000000
00100000
00010000
00001000
00000000
00000010
00000000
00000110
00000000
00000000
00000000
,
00010010
00000001
00000010
00000000
00000100
00000000
00010000
00000000
00001000
00000000
00100000
00000000
01100000
00000000
01100000
00000000
,
10000000
01000000
10000000
00000000
00100000
00000000
01000000
00001000
00010000
00000000
00000100
00000000
00000100
00000000
00000010
00000000
,
00000001
00000000
00000100
00000000
00000001
00000000
00001000
00000000
00000100
00010000
00000000
00010000
00001000
00000000
00100000
00000000
,
01000000
10000000
01000000
00000000
00100000
00000000
00001000
00010000
00000010
00000000
00000100
00000000
00000110
00000000
00000000
00000000
,
00000001
00000100
00000001
00000000
00000010
00000000
00000100
00001000
00010000
00000000
01000000
00000000
01100000
00000000
01100000
00000000
,
10000000
00100000
10000000
00000000
01000000
00000000
00100000
00001000
00010000
00000000
00000100
00000000
00010100
00000000
00000000
00000000
,
00000010
00000001
00000100
00000020
00000000
00000100
00000130
00000000
,
00001001
00000000
00000000
00000001
00000000
00000000
00000020
00000000
00000000
00000000
00000100
00000000
00000130
00000000
00000000
00000000
,
00001000
00000000
00000000
00010000
00000000
00000000
02000000
00000000
00000000
00000000
00100000
00000000
03100000
00000000
00000000
00000000
,
00010000
00000000
00000000
01000000
00000000
00000000
00200000
00000000
00000000
00000000
10000000
00000000
10300000
00000000
00000000
00000000
,
00010000
00100000
01000000
00100000
00000000
00001000
00010000
00000000
,
00000010
00000000
00000000
00000100
00000000
00000000
00000002
00000000
00000000
00000000
00000010
00000000
00000013
00000000
00000000
00000000
,
00000100
00000000
00000000
00010000
00000000
00000000
00002000
00000000
00000000
00000000
00100000
00000000
00103000
00000000
00000000
00000000
,
01000000
00000000
10000000
00000000
00010000
00000000
00100000
00000000
00001000
00010000
00001000
00010000
00001000
00010000
00001000
00010000
,
00001000
00000000
00010000
00000000
00000010
00000000
00000100
00000000
00000001
00000100
00000000
00000100
00000001
00000000
00000000
00000000
,
00000010
00000000
00000000
00000010
00000001
00000000
00000100
00000000
00000010
00000000
00001000
00000000
00010000
00000000
00100000
00000000
,
01000000
00000000
00000000
01000000
10000000
00000000
00100000
00000000
01000000
00000000
00001000
00000000
00010000
00000000
00000100
00000000
,
00000010
00000000
00000000
00000010
00000001
00000000
00000100
00000000
00000010
00010000
00000010
00010000
00001000
00010000
00001000
00010000
,
00001000
01000000
00100000
10100000
00000000
01000000
01100000
00000000
,
00001000
00000000
00000000
00001000
00010000
00000000
00000100
00000000
00000010
00000000
00000001
00000000
00000100
00000000
00000010
00000000
,
00000100
00000000
00000000
00000100
00000001
00000000
00000010
00000000
00000100
00000000
00010000
00000000
00001000
00000000
00100000
00000000
,
01000000
00000000
00000000
01000000
10000000
00000000
00100000
00000000
01000000
00000000
00001000
00000000
00010000
00000000
00000100
00000000
,
00000010
00000000
00000100
00000000
00010000
00000000
00000001
00000000
00000010
00000001
00000000
00000001
00000100
00000000
00000010
00000000
,
00000110
00000000
00000000
00000000
;

//---------------dance-single - ----------------
#NOTES:
     dance-single:
     :
     Beginner:
     2:
     0.081,0.117,0.083,0.000,0.000: // measure 1
0000
0000
0000
0000
,  // measure 2
0000
0000
0000
0000
,  // measure 3
0000
0000
0000
0000
,  // measure 4
0000
0000
0000
0000
,  // measure 5
0001
0000
0000
0000
,  // measure 6
0000
0000
0000
0000
,  // measure 7
1000
0000
0000
0000
,  // measure 8
1001
0000
0000
0000
,  // measure 9
0010
0000
0000
0000
,  // measure 10
0100
0000
0000
0000
,  // measure 11
0010
0000
0000
0000
,  // measure 12
0100
0000
0000
0000
,  // measure 13
1000
0000
0000
0000
,  // measure 14
0010
0000
0000
0000
,  // measure 15
1000
0000
0000
0000
,  // measure 16
0001
0000
0000
0000
,  // measure 17
1001
0000
0000
0000
,  // measure 18
0000
0000
0000
0000
,  // measure 19
0100
0000
0000
0000
,  // measure 20
0000
0000
0000
0000
,  // measure 21
0010
0000
0000
0000
,  // measure 22
0000
0000
0000
0000
,  // measure 23
0001
0000
0000
0000
,  // measure 24
0000
0000
0000
0000
,  // measure 25
1001
0000
0000
0000
,  // measure 26
1000
0000
0000
0000
,  // measure 27
0001
0000
0000
0000
,  // measure 28
1000
0000
0000
0000
,  // measure 29
0100
0000
0000
0000
,  // measure 30
1000
0000
0000
0000
,  // measure 31
1000
0000
0000
0000
,  // measure 32
1001
0000
0000
0000
,  // measure 33
0001
0000
0000
0000
,  // measure 34
0100
0000
0000
0000
,  // measure 35
0010
0000
0000
0000
,  // measure 36
0100
0000
0000
0000
,  // measure 37
0001
0000
0000
0000
,  // measure 38
1000
0000
0000
0000
,  // measure 39
0100
0000
0000
0000
,  // measure 40
1001
0000
0000
0000
,  // measure 41
0010
0000
0000
0000
,  // measure 42
0100
0000
0000
0000
,  // measure 43
0010
0000
0000
0000
,  // measure 44
1000
0000
0000
0000
,  // measure 45
0001
0000
0000
0000
,  // measure 46
0010
0000
0000
0000
,  // measure 47
0001
0000
0000
0000
,  // measure 48
1000
0000
0000
0000
,  // measure 49
1001
0000
0000
0000
,  // measure 50
0000
0000
0000
0000
,  // measure 51
0000
0000
0000
0000
,  // measure 52
0000
0000
0000
0000
,  // measure 53
0100
0000
0000
0000
,  // measure 54
0010
0000
0000
0000
,  // measure 55
0100
0000
0000
0000
,  // measure 56
0010
0000
0000
0000
,  // measure 57
1001
0000
0000
0000
,  // measure 58
1000
0000
0000
0000
,  // measure 59
0010
0000
0000
0000
,  // measure 60
0100
0000
0000
0000
,  // measure 61
1001
0000
0000
0000
,  // measure 62
0001
0000
0000
0000
,  // measure 63
0010
0000
0000
0000
,  // measure 64
0100
0000
0000
0000
,  // measure 65
1001
0000
0000
0000
;
