#TITLE:WHITE BIRDS;
#SUBTITLE:(Mirage Mix);
#ARTIST:T-Bone;
#TITLETRANSLIT:;
#SUBTITLETRANSLIT:;
#ARTISTTRANSLIT:;
#CREDIT:DigiMindAxel;
#BANNER:WHITE BIRDS (Mirage Mix).png;
#BACKGROUND:WHITE BIRDS (Mirage Mix)-bg.png;
#LYRICSPATH:WHITE BIRDS (Mirage Mix).lrc;
#CDTITLE:pop'n music.png;
#MUSIC:WHITE BIRDS (Mirage Mix).ogg;
#METERTYPE:DDR X;
#OFFSET:-9.012;
#SAMPLESTART:12.900;
#SAMPLELENGTH:12.000;
#SELECTABLE:YES;
#BPMS:0.000=122.000;
#STOPS:196.500=0.491803
;
#BGCHANGES:;

//---------------dance-single - ----------------
#NOTES:
     dance-single:
     :
     Easy:
     5:
     0.178,0.242,0.094,0.136,0.000:
1001
0000
0000
1001
0000
0000
0000
0000
,
0200
0000
0000
0300
2002
0000
0000
3003
,
1000
0010
1000
0010
,
0100
0001
0010
0100
,
1000
0001
1000
0001
,
0100
0010
0110
0000
,
0010
1000
0010
1000
,
0100
0010
0001
1000
,
0001
0100
0001
0100
,
0001
0010
0100
1000
,
0002
0000
0000
0000
,
0203
0000
0300
0000
,
0020
0000
2030
0000
,
3200
0000
0300
0000
,
1001
0000
0000
0000
,
0001
0000
0000
0000
,
0010
0000
0000
0000
,
0100
0000
0000
0000
,
1000
0000
0000
0000
,
0001
0000
0000
0000
,
0100
0000
0000
0000
,
0010
0000
0100
0100
,
0110
0000
0000
0000
,
0010
0000
0000
0000
,
1000
0000
0000
0000
,
0100
0000
0000
0000
,
0010
0000
0100
0000
,
1000
0000
0010
0000
,
0200
0000
0310
0000
,
0220
0000
0000
0330
,
0001
0010
0001
1000
,
0001
0100
0010
1000
,
0001
0100
0010
1000
,
0100
0010
0100
0000
,
1000
0010
0100
0010
,
1000
0100
0010
0001
,
1000
0100
0010
0001
,
1000
0010
0010
0010
,
0200
0000
0310
0000
,
0000
0000
0000
0000
,
0110
0000
0010
0000
,
1000
0000
0000
0000
,
0001
0100
0010
0100
,
0001
0100
0010
1000
,
0100
0010
0001
1000
,
0200
0000
2300
0000
,
3001
0000
0000
0001
0000
0000
0000
0000
,
0100
0000
0000
0100
0000
0000
0000
0000
,
1001
0000
0000
1001
0000
0000
0000
0000
,
0010
0220
0000
0000
,
0000
0000
0000
0000
,
0000
0000
0000
0330
;

//---------------dance-single - ----------------
#NOTES:
     dance-single:
     :
     Medium:
     8:
     0.353,0.374,0.238,0.187,0.055: // measure 1
1001
0000
0000
1001
0000
0000
0000
0000
,  // measure 2
0001
0000
0010
0000
0100
0000
1000
0000
1001
0000
0000
1001
0000
0000
1001
0000
,  // measure 3
0001
0100
0010
0100
0001
1000
0100
0000
,  // measure 4
0001
0100
1000
0001
0010
0100
0010
0000
,  // measure 5
0001
1000
0010
1000
0001
0010
0100
0000
,  // measure 6
2000
0000
0010
0000
0000
0000
3010
0000
1001
0000
0000
1000
0000
0000
0001
0000
,  // measure 7
1000
0010
0100
0010
1000
0100
0001
0000
,  // measure 8
0100
1000
0001
0010
0100
0010
0001
0000
,  // measure 9
1000
0001
0100
0001
1000
0001
0010
0000
,  // measure 10
0200
1000
0000
1000
0000
1000
0000
1300
,  // measure 11
1002
0000
0103
0000
0001
1000
0100
1000
,  // measure 12
0001
0000
0100
0000
0010
0000
0000
0000
0110
0000
0000
0100
0000
0000
0100
0000
,  // measure 13
2001
0000
3100
0000
0010
0001
1000
0000
,  // measure 14
0010
0100
0001
0000
0101
0000
0110
0000
,  // measure 15
1020
0000
0000
0130
,  // measure 16
0002
0000
0000
1003
,  // measure 17
0200
0000
0000
0310
,  // measure 18
0002
0000
0000
0000
0000
1000
1003
0000
,  // measure 19
0020
0000
0000
0130
,  // measure 20
0002
0000
0000
0013
,  // measure 21
0200
0000
0000
0310
,  // measure 22
0002
0000
1003
1001
,  // measure 23
1001
0000
0000
0001
0000
0000
0100
0000
,  // measure 24
0010
0000
0000
0010
0000
0000
1000
0000
,  // measure 25
0100
0000
0000
0100
0000
0000
0010
0000
,  // measure 26
0001
0000
0000
0001
0000
0000
0010
0000
,  // measure 27
0100
0000
0000
0100
0000
0000
1000
0000
,  // measure 28
0010
0000
0000
0010
0000
0000
0100
0000
,  // measure 29
2002
0000
3003
0000
1000
0100
0010
0001
,  // measure 30
1001
0000
0000
1001
0000
0000
1001
0000
0000
0000
0000
0000
1001
0000
0000
0000
,  // measure 31
1000
0100
0010
0100
1100
0000
0010
0000
,  // measure 32
0001
0100
0010
0100
0001
0100
1000
0100
,  // measure 33
0001
0100
0010
0100
0002
0000
1000
0000
,  // measure 34
2003
0000
0100
0000
0000
0000
3100
0000
1001
0000
0000
1000
0000
0000
1000
0000
,  // measure 35
0001
0100
0010
0100
0001
0000
0100
0000
,  // measure 36
0001
0010
1000
0010
0001
1000
0100
0010
,  // measure 37
0200
0000
1000
0000
1300
0001
0100
0001
,  // measure 38
2000
0100
0000
3100
0010
0001
1000
0010
,  // measure 39
0210
0000
0310
0000
,  // measure 40
0000
0000
0000
0000
,  // measure 41
1100
0000
0100
1000
0000
0010
0100
0000
,  // measure 42
0000
1001
0000
0000
1000
0000
0000
0001
0000
0000
1000
0000
0001
0000
0010
0000
,  // measure 43
0100
1000
0001
1000
1100
0000
0010
0000
,  // measure 44
0001
0100
0010
0100
0001
0010
1000
0010
,  // measure 45
0001
1000
0100
1000
0001
0100
0001
0000
,  // measure 46
0200
0010
0000
0010
0000
0310
1000
0100
,  // measure 47
0010
0000
0000
0010
0000
0000
0001
0000
0000
0001
0000
0000
1000
0000
0000
0000
,  // measure 48
0010
0000
0000
0010
0000
0000
0100
0000
0000
0100
0000
0000
0001
0000
0000
0000
,  // measure 49
1001
0000
0000
1000
0000
0000
0110
0000
0000
0010
0000
0000
0100
0000
0001
0000
,  // measure 50
1000
2002
0000
0000
,  // measure 51
0000
0000
0000
0000
,  // measure 52
0000
0000
0000
3003
;

//---------------dance-single - ----------------
#NOTES:
     dance-single:
     :
     Hard:
     13:
     0.574,0.595,0.562,0.119,0.498: // measure 1
1001
0000
1000
0010
0100
0000
0220
0000
0000
0000
0000
0000
0330
0000
0000
0000
,  // measure 2
0001
1000
0001
0000
1000
0100
1000
0000
1100
0000
0000
0011
0000
0000
1100
0000
,  // measure 3
1001
0000
0001
0000
0100
0010
0100
0000
0001
1000
0100
0000
1000
0100
0010
0000
,  // measure 4
0001
0000
1000
0000
0100
1000
0100
0000
1000
0001
0100
0000
0001
0100
0010
0000
,  // measure 5
1000
0000
0001
0000
0100
0001
0100
0000
0001
0010
0100
0000
0010
0001
1000
0000
,  // measure 6
0010
0000
0110
0000
0000
0000
0110
0000
0101
0000
0000
0110
0000
0000
1010
0000
,  // measure 7
1001
0000
0001
0000
0100
0001
0100
0000
0001
1000
0100
0000
1000
0100
0010
0000
,  // measure 8
0100
0000
1000
0000
0010
0100
0010
0000
1000
0001
0100
0000
0001
0100
0010
0000
,  // measure 9
0100
0000
0001
0000
0010
0100
0010
0000
0001
1000
0010
0000
1000
0010
0100
0000
,  // measure 10
0001
0000
1001
0000
0000
0000
1001
0000
1000
0000
0100
0010
0100
0010
0001
0010
,  // measure 11
0200
0000
0000
0000
1000
0000
0000
0000
1300
0000
0010
0100
0000
0100
0001
0000
,  // measure 12
0010
0100
0010
0100
1000
0000
0000
0000
1010
0000
0000
0110
0000
0000
0101
0000
,  // measure 13
1002
0000
0000
0000
1000
0000
0000
0000
1003
0000
0001
0100
0000
0100
0010
0000
,  // measure 14
1000
0001
1000
0001
1000
0001
1000
0000
1100
0000
0000
0000
0011
0000
0000
0000
,  // measure 15
1001
0000
0000
1000
0000
0000
0010
0000
0000
0000
0000
0000
0110
0000
0000
0000
,  // measure 16
0100
0000
0000
0001
0000
0000
0010
0000
0000
0000
0000
0000
0110
0000
0000
0000
,  // measure 17
0010
0000
0000
0100
0000
0000
1000
0000
0000
0000
0000
0000
1001
0000
0000
0000
,  // measure 18
0001
0000
0000
0010
0000
0000
0100
0000
0000
0000
0010
0000
0010
0000
0000
0000
,  // measure 19
0001
0000
0000
0100
0000
0000
0010
0000
0000
0000
0000
0000
0110
0000
0000
0000
,  // measure 20
0010
0000
0000
0100
0000
0000
0001
0000
0000
0000
0000
0000
1001
0000
0000
0000
,  // measure 21
0001
0000
0000
0100
0000
0000
0010
0000
0000
0000
1000
0000
0100
0000
0010
0000
,  // measure 22
0100
1000
0001
0100
0101
0000
0101
0000
,  // measure 23
1002
0000
0000
1000
0000
0000
1003
0000
0000
0000
0001
0000
0100
0000
0010
0000
,  // measure 24
0200
0000
0000
0001
0000
0000
0301
0000
0000
0000
1000
0000
0100
0000
0010
0000
,  // measure 25
0200
0000
0000
1000
0000
0000
1300
0000
0001
0100
0000
0010
0000
0100
0001
0000
,  // measure 26
0020
0000
0000
0100
0000
0000
0130
0000
0000
0000
1000
0000
0001
0000
0010
0000
,  // measure 27
0100
0000
1000
0001
0000
1000
0001
0000
0000
0000
0100
0000
0010
0000
1000
0000
,  // measure 28
0100
0000
0010
0001
0000
0010
0001
0000
0100
0010
0000
0100
0010
0000
0000
0000
,  // measure 29
1100
0000
0000
0100
0000
0000
0100
0000
1001
0000
0001
1000
0001
1000
0010
0100
,  // measure 30
0001
0000
0000
0101
0000
0000
2002
0000
0000
0000
3003
0000
1001
0000
0000
0000
,  // measure 31
1000
0010
0100
0000
0001
0100
0001
0000
1000
0000
0100
0010
0001
0010
0100
0000
,  // measure 32
1000
0001
0010
0000
0100
0010
0100
0000
1000
0000
0010
0100
0001
0100
0010
0000
,  // measure 33
0100
0010
1000
0000
0100
0010
0100
0000
1000
0000
0100
0010
0001
0010
0100
0000
,  // measure 34
1000
0000
1001
0000
0000
0000
1001
0000
0011
0000
0000
0110
0000
0000
1100
0000
,  // measure 35
1000
0001
0100
0000
0001
0100
0001
0000
1000
0000
0100
0010
0001
0010
0100
0000
,  // measure 36
1000
0001
0100
0000
0001
0010
0100
0000
0010
0000
0001
1000
0010
1000
0001
0000
,  // measure 37
0010
0100
1000
0000
0100
0010
0100
0000
1000
0000
0010
0100
0001
0100
0010
0000
,  // measure 38
1000
0000
1001
0000
0000
0000
1001
0000
0001
1000
0001
1000
0100
0010
0001
1000
,  // measure 39
0020
0000
0000
0000
2000
0000
0000
3030
,  // measure 40
0000
0000
0000
0000
,  // measure 41
0101
0000
0000
0100
0010
0000
1000
0000
0000
1000
0001
0000
0010
0000
0100
0000
,  // measure 42
0000
1100
0000
0000
0110
0000
0000
0011
0000
0000
1001
0000
1010
0000
0101
0000
,  // measure 43
0001
0010
0100
0000
1000
0100
0010
0000
0001
0100
0010
0100
0010
0100
0001
0000
,  // measure 44
1000
0010
0100
0000
0010
0100
0001
0000
1000
0100
0010
0100
0010
0100
1000
0000
,  // measure 45
0001
1000
0100
0000
0010
0001
1000
0000
0001
0100
0010
0100
0010
0100
0001
0000
,  // measure 46
1000
1001
0000
1001
0000
1001
0001
0100
,  // measure 47
0110
0000
0000
1010
0000
0000
0101
0000
0000
0110
0000
0000
1001
0000
1000
0000
,  // measure 48
1100
0000
0000
0011
0000
0000
1001
0000
0000
0110
0000
0000
1001
0000
0000
0000
,  // measure 49
0101
0000
0000
0110
0000
0000
1010
0000
0000
1001
0000
0000
0001
0010
1000
0010
,  // measure 50
0001
2002
0000
0000
,  // measure 51
0000
0000
0000
0000
,  // measure 52
0000
0000
0000
3003
;

//---------------dance-single - ----------------
#NOTES:
     dance-single:
     :
     Beginner:
     1:
     0.074,0.105,0.085,0.000,0.000:
1001
0000
0000
0000
,
1000
0000
0000
0000
,
0001
0000
0000
0000
,
0100
0000
0000
0000
,
0001
0000
0000
0000
,
1000
0000
0000
0000
,
0001
0000
0000
0000
,
0010
0000
0000
0000
,
0001
0000
0000
0000
,
0100
0000
0000
0000
,
1001
0000
0000
0000
,
0000
0000
1000
0000
,
1001
0000
0000
0000
,
0000
0000
0001
0000
,
1001
0000
0000
0000
,
1000
0000
0000
0000
,
0100
0000
0000
0000
,
1000
0000
0000
0000
,
0001
0000
0000
0000
,
1000
0000
0000
0000
,
0001
0000
0000
0000
,
0100
0000
0000
0000
,
0001
0000
0000
0000
,
0001
0000
0000
0000
,
1000
0000
0000
0000
,
1000
0000
0000
0000
,
1001
0000
0000
0000
,
0001
0000
0000
0000
,
0100
0000
0000
0000
,
0110
0000
0000
0000
,
0010
0000
0000
0000
,
1000
0000
0000
0000
,
0010
0000
0000
0000
,
1000
0000
0000
0000
,
0001
0000
0000
0000
,
0010
0000
0000
0000
,
0001
0000
0000
0000
,
0010
0000
0000
0000
,
0110
0000
0000
0000
,
0000
0000
0000
0000
,
1000
0000
0000
0000
,
0001
0000
0000
0000
,
1000
0000
0100
0000
,
0010
0000
0000
0000
,
0001
0000
0010
0000
,
0100
0000
0000
0000
,
1001
0000
0000
0000
,
0001
0000
0000
0000
,
1001
0000
0000
0000
,
0000
1001
0000
0000
;
