#TITLE:うぇるかむUNKNOWN;
#SUBTITLE:;
#ARTIST:平野綾、茅原実里、後藤邑子;
#TITLETRANSLIT:WELCOME UNKNOWN;
#SUBTITLETRANSLIT:;
#ARTISTTRANSLIT:AYA HIRANO, MINORI CHIHARA, YUUKO GOTOU;
#CREDIT:DigiMindAxel;
#BANNER:WELCOME UNKNOWN.png;
#BACKGROUND:WELCOME UNKNOWN-bg.png;
#LYRICSPATH:;
#CDTITLE:DigiMindAxel original simfile.png;
#MUSIC:WELCOME UNKNOWN.ogg;
#METERTYPE:DDR X;
#OFFSET:-0.981;
#SAMPLESTART:48.934;
#SAMPLELENGTH:12.000;
#SELECTABLE:YES;
#BPMS:0.000=170.000;
#STOPS:;
#BGCHANGES:-1.000=WELCOME UNKNOWN.avi=1.000=1=1=0,
99999=-nosongbg-=1.000=0=0=0 // don't automatically add -songbackground-
;

//---------------dance-single - ----------------
#NOTES:
     dance-single:
     :
     Easy:
     6:
     0.292,0.339,0.077,0.175,0.000:
0000
0000
0000
0000
,
0000
0000
0000
0000
,
0000
0000
0000
0000
,
0000
0000
0000
0000
,
0000
0000
0000
0000
,
1000
1000
0001
0001
,
0010
0100
1000
0000
,
0001
0001
1000
1000
,
0001
0100
0010
0000
,
1000
1000
0001
0001
,
0010
0100
1000
0000
,
0010
0010
0100
0100
,
2002
0000
0000
3003
,
0100
0100
0010
0000
,
1000
0001
1000
0000
,
0010
0100
0010
0000
,
2002
0000
0000
3003
,
1000
0001
1000
0000
,
0001
1000
0001
0000
,
0220
0000
0000
0000
0000
0330
0000
1000
,
0000
0000
0000
0001
0000
0000
0000
0000
,
1000
1000
0001
0001
,
1001
0000
1001
0000
,
1000
0001
0000
1000
,
0001
0000
0010
0000
,
0100
0000
1000
0000
,
0002
0000
1000
0000
,
2003
0000
3010
0000
,
0100
0000
0001
0000
,
1000
0000
0100
0000
,
0010
0000
0001
0000
,
0200
0000
0310
0000
,
1000
0100
0010
0001
,
2000
0000
0000
3000
,
1001
0010
0100
0000
,
1000
0100
0010
0000
,
0001
0100
0010
0100
,
0001
0010
0100
0000
,
2000
0000
3002
0000
,
2003
0000
3020
0000
,
0130
0000
0100
0000
,
0100
0010
0100
0010
,
1000
0100
0010
0000
,
0001
0100
0010
0000
,
1000
0001
0100
0010
,
0100
0001
1000
0000
,
0002
0000
0100
0000
,
0203
0000
0010
0000
,
0310
1000
0100
0010
,
1001
0001
1000
0001
,
1000
0000
0000
0100
0000
0000
0010
0000
,
0001
1000
0001
0000
,
0100
0100
0001
0001
,
0010
0100
1000
0000
,
0010
0010
0100
0100
,
0001
1000
0100
0000
,
1000
1000
0001
0001
,
0010
0100
1000
0000
,
0010
0010
1000
1000
,
0010
0000
0000
0010
0000
0000
0010
0000
,
0100
0000
0000
0100
0000
0000
0100
0000
,
0001
0000
0000
0001
0000
0000
1000
0000
,
0000
1000
0000
0000
0000
0000
0000
0000
;

//---------------dance-single - ----------------
#NOTES:
     dance-single:
     :
     Hard:
     10:
     0.564,0.579,0.590,0.262,0.000:
0000
0000
0000
0000
,
0000
0000
0000
0000
,
0000
0000
0000
0000
,
0000
0000
0000
0000
,
0000
0000
0000
0000
,
0101
1001
1100
1001
,
1000
0100
0010
0001
1000
0000
1000
0000
,
1010
0110
0101
1001
,
0001
0010
0100
1000
0010
0000
0010
0000
,
1001
1100
0110
0011
,
0100
1000
0010
0100
0001
0000
0001
0000
,
1001
0011
0110
1100
,
0010
0100
0001
0020
0000
0000
0030
0000
,
0100
1000
0010
0100
0000
0000
0001
0000
,
0010
0001
0100
0010
0000
0000
1000
0000
,
0100
0010
0100
0000
1000
0001
0100
0001
,
2000
0000
0000
3000
0000
0000
0000
0000
,
0001
0010
0100
1000
0000
0000
0010
0000
,
1000
0100
0010
0001
0000
0000
0100
0000
,
0001
1000
0100
1000
0000
0100
0010
0001
,
0000
0100
0010
1000
0000
0000
0000
0000
,
1001
1100
0011
1001
,
0202
0303
2020
3030
,
0010
0001
0010
0100
0000
1000
1001
0000
,
0010
0001
0100
0000
0100
0010
0100
0000
,
0001
1000
0100
0000
0100
0010
0100
0000
,
1000
0002
0203
0320
,
2030
0000
0000
0001
0000
0000
3001
0000
,
0010
0001
0100
0000
0100
0010
0100
0000
,
0001
0010
0100
0000
0100
1000
0100
0000
,
0010
0002
0203
0320
,
0230
0000
0302
0000
,
1003
0100
1000
0001
1000
0100
1000
0010
,
0100
0000
0100
0000
0000
0001
1001
0000
,
0010
0100
1000
0001
0000
0000
0110
0000
,
0100
0001
0010
0100
0000
0000
1001
0000
,
0010
1000
0000
0002
0000
0013
0100
1000
,
0000
0001
0100
0001
0000
0000
0100
0010
,
2000
0000
0000
0100
0000
0000
3010
0000
,
0002
0000
0000
0100
0000
0000
1003
0000
,
2200
3300
0022
0033
,
1001
0110
0011
1100
,
0010
0001
0100
0010
0000
0000
1100
0000
,
0010
0001
1000
0010
0000
0000
0101
0000
,
0010
0001
0100
0010
0000
0100
0001
1000
,
0000
0010
0000
0100
0000
0000
0001
1000
,
0020
0000
0000
0100
0000
0000
1030
0000
,
0002
0000
0000
0100
0000
0000
0013
0000
,
1100
0110
0011
1001
,
1000
0010
0001
0010
1000
0100
0001
0100
,
1000
1000
0100
0010
0010
0001
0100
0100
,
0001
0010
0100
1000
0000
0000
0000
0000
,
1010
0101
1001
0110
,
0010
0001
0100
0010
1000
0000
1000
0000
,
1100
0011
0110
1001
,
0010
0001
0100
0010
1000
0000
1000
0000
,
1001
0101
1100
0110
,
0100
1000
0010
0100
0001
0000
0001
0000
,
0110
1100
0011
1001
,
0001
0001
0100
0010
1000
0100
0010
0001
,
1000
1000
0001
0010
0100
0010
0001
1000
,
0010
0010
0100
0001
0010
0100
1000
0100
,
0010
0100
1000
0001
0000
0000
0000
0000
;

//---------------dance-single - ----------------
#NOTES:
     dance-single:
     :
     Challenge:
     13:
     0.650,0.720,0.339,0.120,0.120:
0000
0000
0000
0000
,
0000
0000
0000
0000
,
0000
0000
0000
0000
,
0000
0000
0000
0000
,
0000
0000
0000
0000
,
0001
0100
0010
0100
0101
0000
1001
0000
,
1000
0100
0001
0100
1000
0000
1001
0000
,
1000
0100
0010
0100
1100
0000
0101
0000
,
0001
0100
1000
0100
0001
0000
1001
0000
,
0010
0100
1000
0100
0110
0000
0101
0000
,
0001
0100
1000
0100
0001
0000
1001
0000
,
1000
0010
0100
0001
0011
0000
0110
0000
,
0010
1000
0010
0000
1000
0001
1000
0000
0001
0010
0001
0000
1000
0001
1000
0000
,
0100
0010
0001
0100
0000
0000
0001
0000
,
0010
0100
1000
0001
0000
0000
0100
0000
,
0010
1000
0100
0000
0010
0001
0010
0100
,
2000
0000
0000
0001
0000
0000
3001
0000
0000
0000
0000
0000
0000
0000
0000
0000
,
0001
0100
0001
1000
0000
0000
0100
0000
,
0010
0001
1000
0010
0000
0000
0100
0000
,
0001
0001
1000
1000
0000
0010
0100
0020
,
0000
1030
0001
1000
0100
1000
0001
0010
,
0100
1000
0010
0001
0010
1000
0100
0000
,
1001
0100
1001
0100
,
0001
0100
0001
0000
1000
0001
1000
0000
0100
1000
0100
0000
1000
0001
1000
0000
,
0001
0100
0010
0100
0001
1000
0100
0000
,
0010
0001
1000
0100
0010
0100
1000
0000
,
0001
0200
0010
0001
,
0320
1000
0100
1030
,
0001
0010
0100
0000
1000
0001
0100
0000
,
0001
0010
0100
0010
0001
0100
1000
0100
,
0001
0200
0001
0010
,
0302
1000
0100
1003
,
0001
0010
0100
0010
0001
0100
0010
1000
,
0001
0001
1000
1000
0000
0100
0110
0000
,
0001
0100
1000
0100
0001
0000
0110
0000
,
1000
0100
0001
0100
1000
0000
0110
0000
,
0100
0001
0010
0100
1000
0001
0100
0001
,
1000
0000
0100
0000
0010
0000
0001
0000
1000
0000
0000
0000
0010
0100
0010
0100
,
0020
1000
0100
1030
,
0002
1000
0010
1003
,
0001
0100
0010
1000
0100
1000
0001
0000
,
1000
1000
0001
0001
0000
0100
0110
0000
,
1000
0010
0001
0010
1000
0000
0110
0000
,
0001
0010
1000
0010
0001
0000
0110
0000
,
1000
0010
0100
0001
0000
1000
0100
1000
,
0001
0000
0010
0000
0100
0000
0010
0000
0001
0000
0000
0000
0100
0010
0100
0010
,
0200
0001
0010
0301
,
2000
0010
0100
3010
,
1001
0110
1001
0110
,
0100
0001
0100
0000
0001
1000
0001
0000
1000
0100
1000
0000
0001
1000
0001
0000
,
1000
0100
0001
1000
0010
0001
1000
0100
,
0001
1000
0010
0001
1000
0000
0000
0000
,
1000
0100
0010
0100
1100
0000
1001
0000
,
0001
0100
0010
1000
0100
0001
0100
0000
,
1000
0010
0100
0010
1010
0000
1001
0000
,
0001
0010
0100
1000
0010
0001
0010
0000
,
1000
0001
0100
0001
1001
0000
1100
0000
,
1000
0100
0010
0001
0100
1000
0100
0000
,
0001
0100
0010
0100
0101
0000
1001
0000
,
1000
0100
0001
0100
1000
0010
0001
0010
,
1000
0001
0100
1000
0100
0001
1000
0010
,
1000
0000
0001
0000
0010
0000
1000
0000
0010
0000
0001
0000
1000
0010
1000
0010
,
1000
0010
1000
0010
1000
0010
2000
0000
0000
0000
0001
0000
3001
0000
0000
0000
;

//---------------dance-single - ----------------
#NOTES:
     dance-single:
     :
     Medium:
     8:
     0.443,0.511,0.361,0.131,0.000:
0000
0000
0000
0000
,
0000
0000
0000
0000
,
0000
0000
0000
0000
,
0000
0000
0000
0000
,
0000
0000
0000
0000
,
1000
0100
0001
0100
,
1000
0000
0001
0100
0010
0000
0010
0000
,
1000
0100
0001
0100
,
1000
0000
0010
0100
0001
0000
0001
0000
,
1000
0100
0001
0100
,
1000
0000
0001
0010
0100
0000
0100
0000
,
1000
0010
0001
0010
,
2000
0001
0001
3001
,
1001
1000
0000
0001
,
0100
0010
0000
0100
,
0001
0010
0100
1000
,
2002
0000
0000
3003
0000
0000
0000
0000
,
1000
0001
0000
0100
,
0001
0010
0000
0100
,
1000
0001
1000
0001
0000
0000
0000
1001
,
0000
0000
0100
0000
1000
0100
1000
0000
,
1100
1100
0011
0011
,
1001
0000
1001
0000
,
1001
0000
1001
0000
0000
0010
0100
0000
,
0011
0000
0100
0000
1000
0010
0100
0000
,
0010
1000
0100
0000
0010
0000
0001
0000
,
0100
0002
1000
1000
,
2003
0000
0000
0100
0000
0000
3001
0000
,
0100
0001
0100
0000
0001
1000
0100
0000
,
0010
0000
0001
0000
0100
0000
0010
1000
,
0100
1000
0100
0010
,
0002
0000
1003
0000
,
0010
0100
0010
0100
0001
0010
0100
0000
,
1000
0000
1000
0000
0000
0010
0100
0000
,
0001
0010
0001
0010
0000
0000
1001
0000
,
1000
0010
1000
0010
0000
0000
0110
0000
,
0001
0100
1000
0100
,
0001
0000
0100
0000
0010
0100
0010
0100
,
0002
0000
0000
0010
0000
0000
0013
0000
,
0200
0000
0000
1000
0000
0000
1300
0000
,
0010
0100
0010
0000
1000
0001
1000
0000
,
0110
0110
0011
0011
,
0100
1000
0010
0100
0000
0000
0011
0000
,
0010
0001
0100
0010
0000
0000
1100
0000
,
0010
0001
0010
0000
0100
0000
1000
0001
,
0100
0000
0010
0100
0001
0000
1000
0000
,
0020
0000
0000
0100
0000
0000
0130
0000
,
0002
0000
0000
0010
0000
0000
0013
0000
,
0100
1000
0100
0000
0010
0100
0010
0000
,
0001
0010
0001
0010
0100
1000
0010
0000
,
1010
0000
0000
1010
0000
0000
0101
0000
,
0000
0202
0000
0000
0303
0000
0000
0000
,
0001
0100
1000
0100
,
0001
0000
0010
0100
1000
0000
1000
0000
,
0001
0010
1000
0010
,
0001
0000
0100
0010
1000
0000
1000
0000
,
0001
0100
1000
0100
,
0001
0000
0100
0010
1000
0000
1000
0000
,
0001
0010
1000
0010
,
0101
0000
0000
0101
0000
0000
0101
0000
,
1001
0000
0000
1001
0000
0000
1001
0000
,
1100
0000
0000
1100
0000
0000
1100
0000
,
0010
0000
0001
1000
0000
0000
0000
0000
;

//---------------dance-double - ----------------
#NOTES:
     dance-double:
     :
     Easy:
     6:
     0.289,0.306,0.033,0.230,0.000:
00000000
00000000
00000000
00000000
,
00000000
00000000
00000000
00000000
,
00000000
00000000
00000000
00000000
,
00000000
00000000
00000000
00000000
,
00000000
00000000
00000000
00000000
,
10000000
01000000
10000000
01000000
,
20000000
00000000
30100000
00000000
,
01000000
00001000
01000000
00001000
,
02000000
00000000
03100000
00000000
,
00001000
00010000
00001000
00010000
,
00000020
00000000
00000130
00000000
,
00000001
00000010
00000001
00000010
,
00000200
00000000
00000000
00000300
,
00010000
00001000
00010000
00000000
,
00000010
00010000
00000010
00000000
,
00000100
00000010
00000100
00000010
,
00020000
00000000
00000000
00000000
00000000
00030000
00000000
00000000
,
00001000
00010000
00001000
00000000
,
01000000
00010000
01000000
00000000
,
02200000
00000000
00000000
00000000
00000000
03300000
00000000
10010000
,
00000000
00000000
00000000
10010000
00000000
00000000
00000000
00000000
,
10000000
01000000
00100000
00010000
,
00001000
00000000
00001000
00000000
,
00010000
00020000
00000000
00030010
,
00000100
00000000
00000001
00000000
,
00000010
00000100
00001000
00010000
,
02000000
00000000
00100000
00000000
,
03020000
00000000
10030000
00000000
,
00010000
00000000
01000000
00000000
,
00001000
00000000
00010000
00000000
,
00000100
00000000
00000010
00000000
,
00000002
00000000
00001003
00000000
,
00000010
00000100
00000001
00010000
,
00002000
00000000
00000000
00003000
,
01000000
00100000
10000000
00000000
,
01000000
00100000
00010000
00000000
,
00001000
00010000
00000010
00010000
,
00000100
00000010
00000001
00000000
,
00000200
00000000
00000320
00000000
,
00000230
00000000
00000320
00000000
,
00010030
00000000
00010000
00000000
,
00001000
01000000
00001000
01000000
,
00010000
00100000
01000000
00000000
,
10000000
00010000
10000000
00000000
,
00010000
10000000
01000000
00100000
,
00001000
00010000
00000100
00000000
,
00000020
00000000
00000001
00000000
,
00000032
00000000
00001000
00000000
,
00001003
00000100
00000010
00000100
,
00010000
00001000
01000000
00100000
,
10000000
00000000
00000000
10000000
00000000
00000000
10000000
00000000
,
01000000
00100000
00010000
00000000
,
01000000
00100000
01000000
00100000
,
20000000
00000000
31000000
00000000
,
00100000
00001000
00100000
00001000
,
00020000
00000000
00030100
00000000
,
00000010
00000001
00000010
00000001
,
00000200
00000000
00000310
00000000
,
00010000
00000010
00010000
00000010
,
00010000
00000000
00000000
00010000
00000000
00000000
00001000
00000000
,
01000000
00000000
00000000
01000000
00000000
00000000
01000000
00000000
,
00100000
00000000
00000000
00100000
00000000
00000000
10000000
00000000
,
00000000
10000000
00000000
00000000
00000000
00000000
00000000
00000000
;

//---------------dance-double - ----------------
#NOTES:
     dance-double:
     :
     Medium:
     8:
     0.490,0.511,0.350,0.470,0.000:
00000000
00000000
00000000
00000000
,
00000000
00000000
00000000
00000000
,
00000000
00000000
00000000
00000000
,
00000000
00000000
00000000
00000000
,
00000000
00000000
00000000
00000000
,
20000000
30200000
02300000
03002000
,
00013000
00000000
00001000
00010000
00000010
00000000
00000010
00000000
,
00000200
00000302
00000023
00000230
,
00010300
00000000
00001000
00100000
01000000
00000000
01000000
00000000
,
20000000
30200000
02300000
03002000
,
00013000
00000000
00000100
00000010
00000001
00000000
00000001
00000000
,
00000020
00000230
00020300
00032000
,
01003000
00100000
01000000
00200000
00000000
00000000
01300000
00000000
,
10010000
00010000
00000000
00100000
,
01000000
10000000
00000000
00010000
,
00100000
00001000
00010000
00000010
,
00000220
00000000
00000000
00000330
00000000
00000000
00000000
00000000
,
00001000
00000001
00000000
00000010
,
00000100
00010000
00000000
00001000
,
01000000
00100000
01000000
00100000
00000000
00000000
00000000
01100000
,
00000000
00000000
00100000
00000000
01000000
10000000
01000000
00000000
,
11000000
11000000
01001000
01001000
,
00011000
00000000
00011000
00000000
,
00000110
00000000
00000110
00000000
00000000
00000010
00000100
00000000
,
00000001
00000100
00000001
00000000
00000010
00000000
00000100
00000000
,
00010000
00001000
00100000
00000000
01000000
00000000
00100000
00000000
,
00001000
00020000
00001000
00001000
,
00030020
00000000
00000000
00000130
00000000
00000000
00000000
00000000
,
00000001
00000100
00000001
00000000
00000010
00000100
00010000
00000000
,
00001000
00000000
01000000
00000000
00100000
00000000
10000000
01000000
,
10000000
01000000
00100000
00010000
,
00002000
00000000
00013000
00000000
,
00000100
00000010
00000100
00000010
00000001
00000100
00000001
00000000
,
00010000
00000000
00010000
00000000
00000000
00001000
00010000
00000000
,
00001000
01000000
00001000
01000000
00000000
00000000
01100000
00000000
,
01000000
10000000
01000000
10000000
00000000
00000000
10010000
00000000
,
01000000
00100000
00010000
00001000
,
00000100
00000000
00000010
00000000
00000001
00000100
00000001
00000100
,
00000020
00000000
00000000
00000100
00000000
00000000
00000130
00000000
,
00020000
00000000
00000000
00001000
00000000
00000000
00031000
00000000
,
01000000
00100000
01000000
00000000
00100000
01000000
00100000
00000000
,
10100000
10100000
01001000
01001000
,
00001000
00010000
00001000
00010000
00000000
00000000
00010010
00000000
,
00000100
00000001
00000100
00000001
00000000
00000000
00000110
00000000
,
00000010
00000001
00000010
00000000
00000100
00000000
00010000
00001000
,
00100000
00000000
01000000
10000000
01000000
00000000
00100000
00000000
,
00002000
00000000
00000000
00010000
00000000
00000000
00013000
00000000
,
00000020
00000000
00000000
00000100
00000000
00000000
00000130
00000000
,
00000001
00000010
00000001
00000000
00000100
00000010
00000100
00000000
,
00000010
00010000
00000010
00010000
00001000
00100000
01000000
00000000
,
01100000
00000000
00000000
11000000
00000000
00000000
00110000
00000000
,
00000000
20020000
00000000
00000000
30030000
00000000
00000000
00000000
,
20000000
30200000
02300000
03002000
,
00013000
00000000
00000100
00000010
00000001
00000000
00000001
00000000
,
00000200
00000302
00000023
00000230
,
00010300
00000000
00001000
01000000
00100000
00000000
00100000
00000000
,
20000000
32000000
03200000
00302000
,
00013000
00000000
00000100
00000010
00000001
00000000
00000001
00000000
,
00000200
00000302
00020003
00031000
,
00011000
00000000
00000000
00011000
00000000
00000000
00011000
00000000
,
01001000
00000000
00000000
01001000
00000000
00000000
01001000
00000000
,
01100000
00000000
00000000
11000000
00000000
00000000
00101000
00000000
,
00001000
00000000
00010000
00000100
00000000
00000000
00000000
00000000
;

//---------------dance-double - ----------------
#NOTES:
     dance-double:
     :
     Hard:
     10:
     0.559,0.579,0.590,0.175,0.000:
00000000
00000000
00000000
00000000
,
00000000
00000000
00000000
00000000
,
00000000
00000000
00000000
00000000
,
00000000
00000000
00000000
00000000
,
00000000
00000000
00000000
00000000
,
01001000
01100000
11000000
01100000
,
10000000
01000000
00100000
00010000
00001000
00000000
00000010
00000000
,
00010010
00000110
00000101
00000110
,
00000001
00000010
00000100
00001000
00010000
00000000
00100000
00000000
,
01100000
11000000
01100000
00101000
,
00001000
00010000
00000010
00000100
00000001
00000000
00000100
00000000
,
00000101
00010010
00011000
01001000
,
01000000
00100000
10000000
02000000
00000000
00000000
03000000
00000000
,
10000000
01000000
10000000
00100000
00000000
00000000
01000000
00000000
,
00001000
00010000
00000100
00000010
00000000
00000000
00000001
00000000
,
00000010
00000001
00000010
00000000
00000001
00000010
00000100
00010000
,
00002000
00000000
00000000
00013000
00000000
00000000
00000000
00000000
,
00001000
01000000
00001000
10000000
00000000
00000000
01000000
00000000
,
10000000
01000000
00100000
00010000
00000000
00000000
01000000
00000000
,
00001000
00010000
00001000
00010000
00000000
00000100
00000010
00000001
,
00000000
00000100
00000001
00000010
00000000
00000000
00000000
00000000
,
00001001
00010100
00011000
01001000
,
01100000
00000000
01100000
00000000
,
01000000
01000000
00100000
00100000
00000000
10000000
10010000
00000000
,
00100000
01000000
00100000
01000000
00001000
00000000
00010000
00000000
,
00000100
00000010
00000100
00000010
00000001
00000000
00000100
00000000
,
00000010
00020000
00032000
00203000
,
02300000
00000000
00000000
13000000
00000000
00000000
00100000
00000000
,
10000000
01000000
10000000
01000000
00100000
00000000
00001000
00000000
,
00010000
00000010
00010000
00000010
00000100
00000000
00000001
00000000
,
00000010
00000200
00002300
00023000
,
02030000
00000000
03200000
00000000
,
10300000
01000000
10000000
00010000
10000000
01000000
10000000
00100000
,
01000000
01000000
00010000
00010000
00000000
10000000
10010000
00000000
,
00100000
01000000
10000000
00001000
00000000
00000000
00011000
00000000
,
00010000
00000010
00000100
00000001
00000000
00000000
00000110
00000000
,
00000010
00000001
00000100
00000020
00000000
00010030
00001000
00100000
,
00000000
01000000
10000000
01000000
00000000
00000000
10000000
00010000
,
20000000
00000000
00000000
01000000
00000000
00000000
30100000
00000000
,
02000000
00000000
00000000
00100000
00000000
00000000
03001000
00000000
,
00011000
00000000
00011000
00000000
,
00010010
00000110
00000101
00001001
,
00000001
00000010
00000001
00000100
00000000
00000000
00000110
00000000
,
00010000
00001000
00100000
01000000
00000000
00000000
01100000
00000000
,
00100000
10000000
01000000
00100000
00000000
00001000
00010000
00000010
,
00000000
00000100
00000001
00000010
00000000
00000000
00000001
00001000
,
00000002
00000000
00000000
00000010
00000000
00000000
00000103
00000000
,
00000020
00000000
00000000
00000100
00000000
00000000
00010030
00000000
,
00011000
00101000
01100000
11000000
,
10000000
01000000
00001000
01000000
10000000
00100000
00001000
00100000
,
10000000
10000000
01000000
00100000
00100000
00010000
00001000
00001000
,
00000100
00000010
00000001
00000100
00000000
00000000
00000000
00000000
,
00000101
00000110
00010010
00011000
,
00001000
00100000
01000000
10000000
00100000
00000000
00100000
00000000
,
10100000
01001000
00011000
00010010
,
00000010
00000100
00000001
00000010
00000100
00000000
00000100
00000000
,
00010100
00011000
01001000
01100000
,
01000000
10000000
01000000
00100000
00001000
00000000
00001000
00000000
,
00011000
00010010
00000110
00000011
,
00000001
00000001
00000010
00000100
00010000
00001000
00100000
01000000
,
10000000
10000000
00100000
01000000
00001000
00010000
00000100
00000010
,
00000001
00000001
00000100
00000001
00000010
00000100
00001000
00010000
,
00100000
01000000
10000000
00100000
00000000
00000000
00000000
00000000
;

//---------------dance-double - ----------------
#NOTES:
     dance-double:
     :
     Challenge:
     13:
     0.660,0.720,0.393,0.120,0.120:
00000000
00000000
00000000
00000000
,
00000000
00000000
00000000
00000000
,
00000000
00000000
00000000
00000000
,
00000000
00000000
00000000
00000000
,
00000000
00000000
00000000
00000000
,
10000000
00100000
10000000
00001000
00101000
00000000
00011000
00000000
,
00010000
00000100
00000001
00000100
00010000
00000000
00010001
00000000
,
00000001
00000010
00000001
00000100
00000110
00000000
00010010
00000000
,
00010000
00000100
00000001
00000100
00010000
00000000
00010001
00000000
,
00000100
00000010
00010000
00001000
00011000
00000000
01001000
00000000
,
00001000
01000000
10000000
01000000
00001000
00000000
10001000
00000000
,
10000000
00100000
01000000
00010000
00110000
00000000
01100000
00000000
,
00100000
10000000
00100000
00000000
10000000
00001000
10000000
00000000
00001000
00100000
00001000
00000000
00010000
00001000
00010000
00000000
,
00000100
00000010
00000001
00000100
00000000
00000000
00000010
00000000
,
00000100
00000001
00000010
00000100
00000000
00000000
00001000
00000000
,
00010000
00100000
01000000
00000000
10000000
00100000
01000000
00100000
,
20000000
00000000
00000000
00010000
00000000
00000000
30010000
00000000
00000000
00000000
00000000
00000000
00000000
00000000
00000000
00000000
,
10000000
00100000
10000000
00001000
00000000
00000000
00010000
00000000
,
00000100
00000010
00000001
00000100
00000000
00000000
01000001
00000000
,
00010010
00010010
10000100
10000100
00000000
00010000
00000100
00020000
,
00000000
00031000
00100000
01000000
00100000
00001000
10000000
00100000
,
10000000
01000000
00010000
01000000
10000000
00100000
01000000
00000000
,
00022000
00033000
00022000
00033000
,
00010000
00000010
00010000
00000000
00000010
00000100
00000010
00000000
00000100
00000001
00000100
00000000
00000001
00001000
00000001
00000000
,
00000010
00000001
00000100
00000010
00001000
00010000
00100000
00000000
,
00010000
10000000
01000000
00100000
01000000
10000000
00100000
00000000
,
01000000
00020000
01000000
00130000
,
00002000
00010000
01000000
00013000
,
00000100
00000010
00000001
00000000
00000100
00000001
00000010
00000000
,
00000001
00000010
00001000
00000010
00000001
00010000
00000100
00010000
,
00001000
02000000
00001000
00010000
,
03002000
10000000
01000000
10003000
,
00100000
10000000
01000000
00010000
01000000
10000000
00100000
01000000
,
00001000
00001000
00010000
00010000
00000000
00000100
00000110
00000000
,
00000001
00000010
00001000
00000010
00000001
00000000
00000110
00000000
,
00010000
00000100
00000010
00000100
00010000
00000000
00011000
00000000
,
00001000
01000000
00100000
01000000
00001000
10000000
01000000
00010000
,
10000000
00000000
00100000
00000000
00010000
00000000
10000000
00000000
01000000
00000000
00000000
00000000
10000000
00010000
10000000
00010000
,
10000000
00000000
00100000
01000000
00000000
00001000
00010000
00000000
,
00000100
00000000
00000010
00000001
00000000
00000010
00000100
00000000
,
00010000
00000100
00000010
00000100
00010000
00001000
00100000
00000000
,
01000000
01000000
10000000
10000000
00000000
00100000
01100000
00000000
,
10000000
00100000
00010000
00100000
10000000
00000000
01100000
00000000
,
00001000
00100000
01000000
00100000
00001000
00000000
00011000
00000000
,
00010000
00000010
00000100
00000001
00000000
00000010
00000100
00000010
,
00000001
00000000
00000100
00000000
00001000
00000000
00000100
00000000
00000001
00000000
00000000
00000000
00001000
00000001
00001000
00000001
,
00001000
00000000
00000010
00000100
00000000
00000001
00000010
00000000
,
00000100
00000000
00010000
00001000
00000000
00100000
01000000
00000000
,
10010000
01100000
10010000
01100000
,
01000000
10000000
01000000
00000000
10000000
00010000
10000000
00000000
00001000
01000000
00001000
00000000
00010000
00001000
00010000
00000000
,
00000100
00000010
00000001
00000100
00001000
00000001
00000010
00001000
,
00000001
00000010
00000100
00010000
00001000
00000000
00000000
00000000
,
00100000
01000000
10000000
00001000
01001000
00000000
00011000
00000000
,
00010000
00000010
00000001
00000010
00010000
00000100
00000010
00000000
,
00000001
00000100
00000010
00010000
00011000
00000000
01001000
00000000
,
01000000
00010000
10000000
01000000
00010000
01000000
10000000
00000000
,
01000000
00100000
00001000
00010000
00011000
00000000
00010010
00000000
,
00000010
00000100
00000001
00000010
00001000
00000010
00000001
00000000
,
00000010
00000100
00010000
00001000
01001000
00000000
01100000
00000000
,
10000000
01000000
00010000
01000000
10000000
00100000
01000000
00001000
,
00010000
00000100
00000001
00000100
00010000
00000010
00000100
00000001
,
00000010
00000000
00010000
00000000
00000010
00000000
00000001
00000000
00000010
00000000
00000100
00000000
00010000
00001000
00010000
00001000
,
00010000
00001000
00010000
00001000
00010000
00001000
00020000
00000000
00000000
00000000
00000010
00000000
00030010
00000000
00000000
00000000
;

//---------------dance-single - ----------------
#NOTES:
     dance-single:
     :
     Beginner:
     3:
     0.119,0.171,0.077,0.000,0.000: // measure 1
0000
0000
0000
0000
,  // measure 2
0000
0000
0000
0000
,  // measure 3
0000
0000
0000
0000
,  // measure 4
0000
0000
0000
0000
,  // measure 5
0000
0000
0000
0000
,  // measure 6
1000
0000
0010
0000
,  // measure 7
1000
0000
0000
0000
,  // measure 8
0001
0000
1000
0000
,  // measure 9
0001
0000
0000
0000
,  // measure 10
0010
0000
0001
0000
,  // measure 11
0010
0000
0000
0000
,  // measure 12
0001
0000
1000
0000
,  // measure 13
0001
0000
0000
0000
,  // measure 14
1000
0000
0000
0000
,  // measure 15
0100
0000
0000
0000
,  // measure 16
0010
0000
0000
0000
,  // measure 17
0001
0000
0000
0000
,  // measure 18
1000
0000
0000
0000
,  // measure 19
0100
0000
0000
0000
,  // measure 20
0010
0000
0000
0000
,  // measure 21
0001
0000
0000
0000
,  // measure 22
1000
0000
0000
0000
,  // measure 23
1001
0000
0000
0000
,  // measure 24
1001
0000
0000
0000
,  // measure 25
0001
0000
0000
0000
,  // measure 26
0100
0000
0000
0000
,  // measure 27
0001
0000
0000
0000
,  // measure 28
1000
0000
0000
0000
,  // measure 29
0001
0000
0000
0000
,  // measure 30
0100
0000
0000
0000
,  // measure 31
0001
0000
0000
0000
,  // measure 32
1000
0000
0000
0000
,  // measure 33
0100
0000
0000
0000
,  // measure 34
0010
0000
0000
0000
,  // measure 35
1001
0000
0000
0000
,  // measure 36
1001
0000
0000
0000
,  // measure 37
0001
0000
0100
0000
,  // measure 38
0001
0000
0000
0000
,  // measure 39
1000
0000
0000
0000
,  // measure 40
0100
0000
0000
0000
,  // measure 41
0010
0000
0001
0000
,  // measure 42
0010
0000
0000
0000
,  // measure 43
1001
0000
0000
0000
,  // measure 44
1001
0000
0000
0000
,  // measure 45
1000
0000
0100
0000
,  // measure 46
1000
0000
0000
0000
,  // measure 47
0001
0000
0000
0000
,  // measure 48
0100
0000
0000
0000
,  // measure 49
0010
0000
1000
0000
,  // measure 50
0010
0000
0000
0000
,  // measure 51
1001
0000
0000
0000
,  // measure 52
0000
0000
0000
0000
,  // measure 53
0010
0000
0100
0000
,  // measure 54
0010
0000
0000
0000
,  // measure 55
1000
0000
0001
0000
,  // measure 56
1000
0000
0000
0000
,  // measure 57
0100
0000
1000
0000
,  // measure 58
0100
0000
0000
0000
,  // measure 59
0010
0000
0100
0000
,  // measure 60
0010
0000
0000
0000
,  // measure 61
0001
0000
0000
0000
,  // measure 62
0100
0000
0000
0000
,  // measure 63
0000
0000
0000
0010
;
