#TITLE:WEATHERMAN;
#SUBTITLE:;
#ARTIST:DEAD SARA;
#TITLETRANSLIT:;
#SUBTITLETRANSLIT:;
#ARTISTTRANSLIT:;
#CREDIT:DigiMindAxel;
#BANNER:WEATHERMAN.png;
#BACKGROUND:WEATHERMAN-bg.png;
#LYRICSPATH:WEATHERMAN.lrc;
#CDTITLE:DigiMindAxel original simfile.png;
#MUSIC:WEATHERMAN.ogg;
#METERTYPE:DDR X;
#OFFSET:-0.481;
#SAMPLESTART:67.361;
#SAMPLELENGTH:12.000;
#SELECTABLE:YES;
#DISPLAYBPM:84.000:86.000;
#BPMS:0.000=84.450,4.000=84.448,5.000=84.450,11.000=84.448,12.000=84.450,16.000=84.550,18.000=84.548,19.000=84.550,20.000=84.548,21.000=84.550,22.000=84.548,23.000=84.450,24.000=84.354,25.000=84.351,26.000=84.354,27.000=84.351,28.000=84.354,29.000=84.351,30.000=84.354,31.000=84.278,32.000=84.219,33.000=84.217,38.000=84.998,39.000=85.206,40.000=85.204,46.000=91.210,47.000=83.803,48.000=85.487,50.000=85.484,51.000=85.487,52.000=85.484,53.000=85.487,54.000=85.484,55.000=84.661,56.000=85.856,58.000=85.853,59.000=85.856,60.000=85.853,61.000=85.856,62.000=86.757,64.000=85.275,65.000=85.272,68.000=85.275,69.000=85.272,71.000=85.322,72.000=85.728,79.000=83.121,80.000=84.778,81.000=84.775,83.000=84.778,84.000=84.775,86.000=88.783,87.000=84.775,89.000=84.778,90.000=84.775,92.000=84.778,93.000=84.775,94.000=42.879,95.000=83.713,96.000=83.710,99.000=83.713,100.000=83.710,102.000=83.087,103.000=83.907,104.000=83.904,106.000=83.907,107.000=83.904,109.000=83.907,110.000=84.892,111.000=84.201,115.000=84.198,116.000=84.201,118.000=86.363,119.000=86.570,120.000=86.567,121.000=86.570,122.000=86.567,123.000=86.570,124.000=86.567,126.000=83.700,127.000=86.584,128.000=86.587,129.000=86.584,134.000=85.206,135.000=84.413,136.000=84.410,138.000=84.413,139.000=84.410,141.000=84.413;
#STOPS:;
#BGCHANGES:0.000=WEATHERMAN.avi=1.000=1=1=0,
99999=-nosongbg-=1.000=0=0=0 // don't automatically add -songbackground-
;

//---------------dance-single - ----------------
#NOTES:
     dance-single:
     :
     Easy:
     4:
     0.160,0.272,0.188,0.089,0.000:
0000
0000
0000
0000
,
0000
0000
0000
0000
,
0000
0000
0000
0000
,
0000
0000
0000
0000
,
1001
1000
0001
1000
,
0001
1000
0001
0000
,
0010
0100
0010
0100
,
0010
0100
0010
0100
,
1000
0000
0100
0000
,
0010
0000
0001
0000
,
1001
0000
0100
0000
,
1000
0000
0010
0000
,
0110
0000
0100
0000
,
0010
0000
0100
0000
,
0001
0000
1000
0000
,
0001
0000
0010
0000
,
0100
1000
0100
1000
,
0100
1000
0100
0000
,
1000
0001
1000
0001
,
1000
0001
1000
0000
,
0002
0000
2003
0000
,
3200
0000
0300
0000
,
2000
0000
3020
0000
,
0230
0000
0300
1001
,
0001
1000
0001
1000
,
0100
1000
0010
0100
,
0001
0100
0001
1000
,
0100
1000
0000
1001
,
0001
1000
1000
0010
,
0010
0100
0100
0001
,
0001
1000
1000
2002
,
0000
0000
3003
1001
,
1001
0110
0110
1001
,
1001
0110
0000
0110
,
0110
1001
1001
0110
,
0110
1001
2002
0000
,
0000
0000
0000
0000
,
0000
0000
0000
0000
,
3003
0000
0000
0000
;

//---------------dance-single - ----------------
#NOTES:
     dance-single:
     :
     Medium:
     6:
     0.267,0.289,0.206,0.072,0.000:
0000
0000
0000
0000
,
0000
0000
0000
0000
,
0000
0000
0000
0000
,
0000
0000
0000
0000
,
1001
1000
0001
0100
0010
0010
1000
0001
,
0100
0100
0001
1000
0100
0000
1001
0000
,
0001
0001
0100
0010
0100
0100
0001
1000
,
0100
0100
1000
0100
0010
0000
1001
0000
,
0002
0100
0100
0100
,
0103
1001
0000
1001
,
2000
0100
0100
0100
,
3100
1001
0000
1001
,
0002
0103
0020
0130
,
0001
1000
0001
0000
0000
0000
1001
0000
,
2000
3100
0020
0130
,
1000
0010
1000
0000
0000
0000
0000
0000
,
0001
1000
0001
0000
0100
0001
0010
0000
,
0100
1000
0100
0000
1000
0001
0100
0000
,
0010
0100
0010
0000
1000
0010
0100
0000
,
0001
1000
0001
0000
0010
0001
0100
0000
,
0110
0010
0100
0001
,
1000
0100
0000
0000
0000
0000
1000
0000
,
1001
0001
0100
0010
,
1000
0001
0000
0000
1001
0000
1001
0001
,
0100
0010
0100
0100
0001
1000
0100
0100
,
1000
0010
0100
0000
0110
0000
0100
0100
,
0001
0010
0100
0100
1000
0010
0100
0100
,
0001
1000
0010
0000
0110
0000
1001
0001
,
0010
0100
1000
0001
0100
0000
1001
1000
,
0100
0010
0001
1000
0100
0000
1001
0001
,
0100
0010
0100
0001
1000
0000
1001
0000
,
1001
0000
0110
0000
0110
0000
0110
0100
,
0001
0010
0100
0100
1000
0010
0100
0100
,
0001
1000
0010
0010
1000
0100
0010
0010
,
0001
0100
0010
0010
1000
0001
0100
0100
,
0001
1000
0010
0000
2002
0000
0000
0000
,
0000
0000
0000
0000
,
0000
0000
0000
0000
,
3003
0000
0000
0000
;

//---------------dance-single - ----------------
#NOTES:
     dance-single:
     :
     Hard:
     10:
     0.430,0.509,0.223,0.215,0.349:
0000
0000
0000
0000
,
0000
0000
0000
0000
,
0000
0000
0000
0000
,
0000
0000
0000
0000
,
1001
0000
0001
0000
1000
0100
0010
0100
1000
0000
1000
0000
0010
0100
0001
0100
,
0010
0000
0010
0000
1000
0001
0010
0001
0200
0000
0000
0000
0020
0000
0330
0000
,
1001
0000
1000
0000
0100
0010
0001
0010
0100
0000
0100
0000
1000
0010
0100
0010
,
1000
0000
1000
0000
0010
0100
0001
0010
0200
0000
0000
0000
2000
0000
3300
0000
,
1000
0000
0010
0000
1000
0001
0000
1000
0001
0000
0010
0000
0100
1000
0000
0100
,
1000
0000
0010
0000
0220
0000
0000
0000
0000
0000
0330
0000
1000
0001
0000
0001
,
1000
0000
0100
0000
1000
0001
0000
1000
0001
0000
0100
0000
0010
1000
0000
0010
,
1000
0000
0001
0000
2002
0000
0000
0000
0000
0000
3003
0000
0001
1000
0000
1000
,
0010
0100
0010
0100
0001
0010
0100
1000
,
0001
0010
0220
0000
0000
0330
2001
0000
,
3001
0010
0001
0010
0100
1000
0010
1000
,
0100
0000
0010
0000
1001
0000
1000
0001
0000
0001
0000
0000
0201
0000
0000
0000
,
0301
0010
0100
0010
0001
1000
0010
0100
,
0010
1000
0100
0010
0100
1000
1002
0000
,
0103
0001
0010
0001
0100
0001
1000
0100
,
0010
0000
0100
0000
1000
0000
0001
0000
0010
0000
0100
0000
1000
0000
0001
0100
,
0002
0000
0000
0000
0023
0000
0000
0000
0230
0000
0000
0000
0320
0000
0000
0031
,
0100
0001
1000
0000
0100
0000
0000
0000
0000
0000
0100
1000
0020
0000
0000
0000
,
0230
0000
0000
0000
0302
0000
0000
0000
2003
0000
0000
0000
3200
0000
0000
0310
,
0001
0010
0100
0000
1000
0000
0000
0000
1001
0000
0000
0000
0110
0000
0010
0000
,
1000
0100
0001
0100
1000
0000
1000
0000
0001
0010
1000
0010
0001
0000
0001
0000
,
1000
0010
0001
0010
1000
0000
0100
0000
1001
0000
0000
0000
0010
0000
0010
0000
,
1000
0100
0001
0100
1000
0000
1000
0000
0001
0010
1000
0010
0001
0000
0001
0000
,
1000
0000
0000
0010
0000
0000
0001
0000
0000
0010
0000
0000
1000
0000
0000
0000
0000
0000
0100
0000
0000
0000
0000
0000
1000
0000
0001
0000
1000
0000
0001
0000
0100
0000
0001
0000
0100
0000
0000
0000
0000
0000
0001
0000
0000
1000
0000
0000
,
0100
1000
0001
0000
0010
0001
0010
0100
1000
0000
0000
0000
0110
0000
0010
1000
,
0100
1000
0010
0000
0100
0001
0010
0100
1000
0000
0000
0000
0101
0000
0001
1000
,
0010
0100
0010
0000
1000
0010
0100
0001
0010
0000
0000
0000
1100
0000
1000
0010
,
0000
0100
0001
0000
1000
0010
0000
0100
0001
0000
0001
0000
1010
0000
1010
0000
,
1000
0100
0001
0100
1000
0000
1001
0000
0001
0010
1000
0010
0001
0000
0101
0000
,
0100
0001
0010
1000
0010
0000
0011
0000
0001
0100
0010
1000
1100
0000
1100
0000
,
1000
0010
0001
0010
1000
0000
1001
0000
1000
0001
0100
1000
0100
0000
0101
0000
,
0001
1000
0010
0001
0010
0000
1000
0000
0220
0000
0000
0000
0000
0000
0000
0000
,
0000
0000
0000
0000
,
0000
0000
0000
0000
,
0330
0000
0000
0000
;

//---------------dance-double - ----------------
#NOTES:
     dance-double:
     :
     Easy:
     4:
     0.165,0.272,0.206,0.089,0.000:
00000000
00000000
00000000
00000000
,
00000000
00000000
00000000
00000000
,
00000000
00000000
00000000
00000000
,
00000000
00000000
00000000
00000000
,
10010000
10000000
00010000
00010000
,
10000000
10000000
01000000
00000000
,
00100000
00100000
00001000
00001000
,
00100000
00100000
00001000
00001000
,
00010000
00000000
00000100
00000000
,
00000010
00000000
00000001
00000000
,
00001001
00000000
00000010
00000000
,
00000100
00000000
00010000
00000000
,
00011000
00000000
00001000
00000000
,
01000000
01100000
00100000
00000000
,
10000000
00000000
00010000
00000000
,
00100000
01100000
01000000
00000000
,
10000000
01000000
10000000
01000000
,
00100000
00001000
00100000
00000000
,
00001000
00010000
00001000
00010000
,
00000010
00010000
00000010
00000000
,
00000200
00000000
00000320
00000000
,
00000230
00000000
00000300
00000000
,
00000002
00000000
00002003
00000000
,
00003002
00000000
00000003
00001001
,
00001000
00000001
00000010
00000100
,
00000100
00010000
00001000
00100000
,
00100000
01000000
10000000
00100000
,
00100000
01000000
00000000
00011000
,
00001000
00010000
00000010
00000100
,
00000100
00000001
00000010
00000100
,
00000100
00001000
00010000
00022000
,
00000000
00000000
00033000
01100000
,
01100000
10010000
10010000
01100000
,
01100000
00011000
00000000
00000110
,
00000110
00001001
00001001
00000110
,
00000110
00011000
02200000
00000000
,
00000000
00000000
00000000
00000000
,
00000000
00000000
00000000
00000000
,
03300000
00000000
00000000
00000000
;

//---------------dance-double - ----------------
#NOTES:
     dance-double:
     :
     Medium:
     6:
     0.269,0.289,0.197,0.018,0.009:
00000000
00000000
00000000
00000000
,
00000000
00000000
00000000
00000000
,
00000000
00000000
00000000
00000000
,
00000000
00000000
00000000
00000000
,
10010000
10000000
01000000
00100000
00001000
00001000
00010000
00000010
,
00000100
00000100
00000001
00000010
00000100
00000000
00011000
00000000
,
00100000
00100000
01000000
10000000
00001000
00001000
00010000
00000010
,
00000100
00000100
00000001
00000010
00000100
00000000
00011000
00000000
,
01100000
10000000
01000000
00010000
,
01000000
10010000
00000000
01001000
,
00011000
00000100
00000001
00000100
,
00010000
00000110
00000000
00001001
,
00000010
00000001
00000010
00000000
00000100
00000010
00000100
00000000
,
00010000
00001000
00010000
00000000
00000000
00000000
00011000
00000000
,
01000000
00010000
01000000
00000000
00100000
01000000
00100000
00000000
,
10000000
00100000
10000000
00000000
00000000
00000000
00000000
00000000
,
00100000
01000000
00100000
01000000
00010000
00100000
00010000
00000000
,
10000000
01000000
10000000
01000000
00100000
00001000
00010000
00000000
,
00000010
00010000
00000010
00010000
00000100
00000010
00000001
00000000
,
00000100
00000001
00000100
00000001
00000010
00000100
00010000
00000000
,
00011000
00001000
00010000
00100000
,
01000000
00100000
00000000
00000000
00000000
00000000
10000000
00000000
,
10010000
00010000
01000000
00001000
,
00010000
00000010
00000000
00000000
00001001
00000000
00001001
00000001
,
00000010
00000100
00010000
00010000
00001000
01000000
00100000
00100000
,
10000000
01000000
00100000
00000000
10010000
00000000
01000000
01000000
,
00100000
00001000
00010000
00010000
00000100
00000010
00000001
00000001
,
00000100
00000001
00000010
00000000
00001001
00000000
00000110
00000010
,
00000100
00010000
00001000
00100000
01000000
00000000
01100000
00100000
,
10000000
01000000
00100000
00001000
00010000
00000000
00000110
00000100
,
00000001
00000000
00000010
00000000
00000100
00000000
00010000
00000000
00001000
00000000
00000000
00000000
00011000
00000000
00000000
00010000
,
00000000
00000000
00001000
00000000
00000000
00100000
00000000
00000000
01000000
00000000
00000000
00000000
10010000
00000000
00010000
00000000
,
10000000
01000000
00010000
01000000
10000000
00010000
01000000
00001000
,
00010000
00000100
00000001
00000100
00010000
00000010
00000100
00000001
,
00001000
00000010
00000001
00000010
00001000
00000100
00010000
00010000
,
00001000
00100000
01000000
00000000
02200000
00000000
00000000
00000000
,
00000000
00000000
00000000
00000000
,
00000000
00000000
00000000
00000000
,
03300000
00000000
00000000
00000000
;

//---------------dance-double - ----------------
#NOTES:
     dance-double:
     :
     Hard:
     10:
     0.429,0.492,0.215,0.215,0.349:
00000000
00000000
00000000
00000000
,
00000000
00000000
00000000
00000000
,
00000000
00000000
00000000
00000000
,
00000000
00000000
00000000
00000000
,
10010000
00000000
10000000
00000000
01000000
00100000
00010000
00100000
01000000
00000000
01000000
00000000
10000000
00010000
00100000
00010000
,
10000000
00000000
10000000
00000000
01000000
00100000
00001000
00010000
00002000
00000000
00000000
00000000
00020000
00000000
00033000
00000000
,
00000110
00000000
00000010
00000000
00001000
00000100
00000010
00000001
00000100
00000000
00000100
00000000
00000001
00010000
00000100
00010000
,
00000001
00000000
00000001
00000000
00000010
00000100
00001000
00010000
02000000
00000000
00000000
00000000
00200000
00000000
03300000
00000000
,
01000000
00000000
10000000
00000000
01000000
00100000
00000000
01000000
00100000
00000000
00001000
00000000
00010000
00000010
00000000
00010000
,
00000010
00000000
00000100
00000000
00002002
00000000
00000000
00000000
00000000
00000000
00003003
00000000
00000001
00000100
00000000
00000100
,
00000001
00000000
00001000
00000000
00000010
00010000
00000000
00010000
00000010
00000000
00010000
00000000
00100000
01000000
00000000
01000000
,
00100000
00000000
00010000
00000000
20020000
00000000
00000000
00000000
00000000
00000000
30030000
00000000
10000000
01000000
00000000
01000000
,
10000000
00010000
01000000
00001000
00100000
00010000
00001000
00000010
,
00000100
00000001
00002002
00000000
00000000
00003003
00000120
00000000
,
00000130
00000001
00000010
00000100
00010000
00001000
01000000
10000000
,
01000000
00000000
00001000
00000000
01100000
00000000
01000000
00100000
00000000
00100000
00000000
00000000
10020000
00000000
00000000
00000000
,
10030000
01000000
00010000
01000000
10000000
00100000
01000000
00010000
,
00001000
00000010
00000001
00000010
00001000
00000100
00001002
00000000
,
00001003
00000010
00000001
00000010
00001000
00000100
00001000
00010000
,
01000000
00000000
10000000
00000000
01000000
00000000
00010000
00000000
00100000
00000000
01000000
00000000
10000000
00000000
00100000
01000000
,
00200000
00000000
00000000
00000000
20300000
00000000
00000000
00000000
30020000
00000000
00000000
00000000
02030000
00000000
00000000
03010000
,
00100000
01000000
10000000
00000000
00001000
00000000
00000000
00000000
00000000
00000000
00001000
00010000
00000020
00000000
00000000
00000000
,
00000230
00000000
00000000
00000000
00000302
00000000
00000000
00000000
00000203
00000000
00000000
00000000
00000320
00000000
00000000
00000130
,
00000001
00000010
00000100
00000000
00010000
00000000
00000000
00000000
00011000
00000000
00000000
00000000
01100000
00000000
01000000
00000000
,
00010000
00100000
01000000
10000000
00001000
00000000
00001000
00000000
00010000
00000010
00000100
00000010
00010000
00000000
00010000
00000000
,
00000100
00000010
00000001
00000010
00000100
00000000
00001000
00000000
00011000
00000000
00000000
00000000
01000000
00000000
01000000
00000000
,
00100000
10000000
01000000
00100000
00010000
00000000
00010000
00000000
01000000
00001000
00100000
00001000
01000000
00000000
01000000
00000000
,
00001000
00000000
00000000
00010000
00000000
00000000
00000100
00000000
00000000
00000010
00000000
00000000
00000001
00000000
00000000
00000000
00000000
00000000
00000100
00000000
00000000
00000000
00000000
00000000
00000001
00000000
00000100
00000000
00000001
00000000
00000100
00000000
00000010
00000000
00000100
00000000
00000010
00000000
00000000
00000000
00000000
00000000
00001000
00000000
00000000
00000100
00000000
00000000
,
00000010
00000100
00010000
00000000
00001000
00100000
01000000
00100000
00010000
00000000
00000000
00000000
10010000
00000000
10000000
01000000
,
00010000
01000000
10000000
00000000
00010000
01000000
10000000
01000000
00010000
00000000
00000000
00000000
10010000
00000000
10000000
01000000
,
00100000
01000000
10000000
00000000
00100000
01000000
00001000
00100000
00001000
00000000
00000000
00000000
00011000
00000000
00010000
00000010
,
00000000
00000010
00000100
00000000
00000001
00000010
00000000
00000010
00000100
00000000
00010000
00000000
00011000
00000000
00011000
00000000
,
00001000
01000000
00100000
01000000
00001000
00000000
10001000
00000000
10000000
01000000
00010000
01000000
10000000
00000000
11000000
00000000
,
00100000
00010000
00001000
00000010
00000100
00000000
00000110
00000000
00000010
00000001
00000010
00000100
00010000
00000000
00011000
00000000
,
00001000
10000000
00100000
10000000
00001000
00000000
00101000
00000000
01000000
10000000
00010000
01000000
00001000
00000000
00011000
00000000
,
00010000
00000010
00000100
00000010
00010000
00000000
00000001
00000000
00000022
00000000
00000000
00000000
00000000
00000000
00000000
00000000
,
00000000
00000000
00000000
00000000
,
00000000
00000000
00000000
00000000
,
00000033
00000000
00000000
00000000
;

//---------------dance-single - ----------------
#NOTES:
     dance-single:
     :
     Beginner:
     2:
     0.096,0.143,0.116,0.000,0.000: // measure 1
0000
0000
0000
0000
,  // measure 2
0000
0000
0000
0000
,  // measure 3
0000
0000
0000
0000
,  // measure 4
0000
0000
0000
0000
,  // measure 5
1001
0000
1000
0000
,  // measure 6
1000
0000
0000
0000
,  // measure 7
1001
0000
0001
0000
,  // measure 8
0001
0000
0000
0000
,  // measure 9
0110
0000
0000
0000
,  // measure 10
0000
0110
0000
0010
,  // measure 11
0100
0000
0000
0000
,  // measure 12
0000
1001
0000
1000
,  // measure 13
0001
0000
0000
0000
,  // measure 14
0010
0000
0000
0000
,  // measure 15
0100
0000
0000
0000
,  // measure 16
1000
0000
0000
0000
,  // measure 17
0001
0000
0001
0000
,  // measure 18
1000
0000
1000
0000
,  // measure 19
0001
0000
0001
0000
,  // measure 20
1000
0000
1000
0000
,  // measure 21
1001
0000
0000
0000
,  // measure 22
0010
0000
0000
0000
,  // measure 23
0110
0000
0000
0000
,  // measure 24
0100
0000
0000
1001
,  // measure 25
0000
1000
0000
0001
,  // measure 26
0000
0100
0000
1001
,  // measure 27
0000
0100
0000
1000
,  // measure 28
0000
0010
0000
1001
,  // measure 29
0001
0001
0000
1000
,  // measure 30
1000
1000
0000
0001
,  // measure 31
0001
0001
0000
1001
,  // measure 32
0000
0000
0000
0110
,  // measure 33
0010
0100
0010
0100
,  // measure 34
0010
0100
0010
1000
,  // measure 35
0001
1000
0001
1000
,  // measure 36
0001
1000
1001
0000
;
