#TITLE:WATER FLAME;
#SUBTITLE:;
#ARTIST:K.;
#TITLETRANSLIT:;
#SUBTITLETRANSLIT:;
#ARTISTTRANSLIT:;
#CREDIT:DigiMindAxel;
#BANNER:WATER FLAME.png;
#BACKGROUND:WATER FLAME-bg.png;
#LYRICSPATH:;
#CDTITLE:DigiMindAxel original simfile.png;
#MUSIC:WATER FLAME.ogg;
#METERTYPE:DDR X;
#OFFSET:-0.962;
#SAMPLESTART:51.755;
#SAMPLELENGTH:12.000;
#SELECTABLE:YES;
#BPMS:0.000=132.000;
#STOPS:;
#BGCHANGES:-1.000=WATER FLAME.avi=1.000=1=1=0,
99999=-nosongbg-=1.000=0=0=0 // don't automatically add -songbackground-
;

//---------------dance-single - ----------------
#NOTES:
     dance-single:
     :
     Easy:
     2:
     0.155,0.186,0.232,0.073,0.000:
0000
0000
0000
0000
,
0000
0000
0000
0000
,
0000
0000
0000
0000
,
0000
0000
0000
0000
,
1001
0000
1000
0000
,
0001
0000
0001
0000
,
0110
0000
1000
0000
,
1000
0000
0010
0000
,
0110
0000
0001
0000
,
0001
0000
1000
0000
,
0110
0000
0001
0000
,
1000
0000
0000
0000
,
1001
0000
0001
0000
,
0010
0000
0001
0000
,
0110
0000
1000
0000
,
0100
0000
1000
0000
,
0110
0000
0001
0000
,
0010
0000
0001
0000
,
0110
0000
1000
0000
,
0001
0000
0000
0000
,
2002
0000
0000
3003
,
1000
0000
0100
0000
,
0020
0000
0032
0000
,
1003
0000
0000
0000
,
0002
0000
0000
0000
,
0203
0000
0000
0000
,
0310
0000
0000
0000
,
0110
0000
1001
0000
,
1001
0000
0000
0000
,
0010
0000
0010
0000
,
1001
0000
0000
0000
,
0100
0000
0100
0000
,
1001
0000
0000
0000
,
0100
0000
0100
0000
,
1001
0000
0000
0000
,
0010
0000
0010
0000
,
1001
0000
0000
0000
,
0001
0000
0001
0000
,
0001
0000
0000
0000
,
1000
0000
1000
0000
,
1001
0000
0000
0000
,
0000
0000
0000
0000
,
1000
0000
0010
0000
,
0110
0000
1001
0000
;

//---------------dance-single - ----------------
#NOTES:
     dance-single:
     :
     Medium:
     7:
     0.386,0.374,0.196,0.208,0.079:
0000
0000
0000
0000
,
0000
0000
0000
0000
,
0000
0000
0000
0000
,
0000
0000
0000
0000
,
1001
0000
0001
0000
1000
0000
0100
0010
,
0001
0000
0001
0000
1000
0001
0010
0100
,
1000
0000
0100
0000
0010
0100
1000
0000
,
0001
0000
1000
0000
0010
1000
0100
0010
,
0001
0000
0100
0000
0010
0100
0001
0000
,
1000
0000
1000
0000
0100
0010
0001
0000
,
1001
0000
1000
0000
0001
0100
0010
0000
,
1000
0000
0001
0000
0010
0100
1000
0100
,
0020
0000
0001
0000
0001
0000
0031
1000
,
0010
0000
0000
0000
1000
0010
0100
0001
,
2000
0000
0100
0000
0100
0000
3100
0010
,
0001
0000
0000
0000
0010
0001
0010
0100
,
2000
0000
0010
0000
0010
0000
3010
0100
,
0001
0000
0000
0000
0010
0100
1000
0100
,
0020
0000
0001
0000
0001
0000
0031
1000
,
0010
0000
0000
0000
1000
0010
0001
0010
,
2000
0000
0000
0001
0002
0000
3003
0000
,
1100
1000
1001
0001
,
0011
0000
0000
0010
0000
0000
0100
1000
,
0001
0000
0000
0000
0010
0100
0010
0000
,
1001
0000
0100
0000
0010
0000
0001
1000
,
0001
0000
0010
0000
0100
1000
0001
1000
,
0100
0010
0001
1000
,
1001
0000
0000
1000
0000
0000
1000
0000
0020
0000
0000
0000
0030
0000
0000
0000
,
2002
0000
0000
0000
3003
0000
0000
0000
1000
0000
0000
1000
0000
0000
0100
0000
,
0010
0000
0000
0001
0000
0000
0010
0000
0100
0000
0000
0000
0000
0000
0000
0000
,
2002
0000
0000
0000
3003
0000
0000
0000
0001
0000
0000
0001
0000
0000
0010
0000
,
0100
0000
0000
1000
0000
0000
0100
0000
0010
0000
0000
0000
0010
0000
0000
0000
,
2002
0000
0000
0000
3003
0000
0000
0000
0001
0000
0000
0001
0000
0000
0100
0000
,
0010
0000
0000
1000
0000
0000
0010
0000
0100
0000
0000
0000
0000
0000
0000
0000
,
2002
0000
0000
0000
3003
0000
0000
0000
1000
0000
0000
1000
0000
0000
0010
0000
,
0100
0000
0000
0001
0000
0000
0100
0000
0010
0000
0000
0000
0010
0000
0000
0000
,
1002
0000
0000
0000
0000
0000
0000
0000
0000
0000
1000
0000
0000
1000
0000
0000
,
1003
0000
0001
0000
0100
0000
0010
1000
,
0200
0000
0000
0000
0000
0000
0000
0000
0000
0000
0010
0000
0000
0010
0000
0000
,
0310
0000
0001
0000
1000
0100
0010
0000
,
1001
0000
1000
0001
0000
1000
0010
0000
,
0100
0001
0100
0001
1000
0000
0100
0000
,
0010
0000
0001
1000
0000
0001
1000
0000
,
1001
0000
0000
0001
0000
0000
0001
0000
0110
0000
0000
0110
0000
0000
0000
0000
;

//---------------dance-single - ----------------
#NOTES:
     dance-single:
     :
     Hard:
     11:
     0.527,0.534,0.245,0.086,0.489: // measure 1
0000
0000
0000
0000
,  // measure 2
0000
0000
0000
0000
,  // measure 3
0000
0000
0000
0000
,  // measure 4
0000
0000
0000
0000
,  // measure 5
1001
0000
0000
0001
0000
0000
0001
0000
1000
0000
0010
0000
1000
0000
0000
0000
,  // measure 6
0010
0000
0000
0010
0000
0000
0010
0000
1000
0000
0001
0000
1000
0000
0000
0000
,  // measure 7
0100
0000
0000
0100
0000
0000
0100
0000
0010
0000
0001
0000
0010
0000
0000
0000
,  // measure 8
0100
0000
0000
0100
0000
0000
0100
0000
1000
0000
0001
0000
1000
0000
0010
0000
,  // measure 9
0100
0000
0000
0100
0000
0000
0100
0000
0001
0000
1000
0000
0100
0000
0000
0000
,  // measure 10
0010
0000
0000
0010
0000
0000
0010
0000
0001
0000
1000
0000
0100
0000
0000
0000
,  // measure 11
0010
0000
0000
0010
0000
0000
0010
0000
0100
0000
1000
0000
0001
0000
0000
0000
,  // measure 12
0100
0000
0000
0100
0000
0000
0100
0000
0001
0000
0010
0000
0100
0000
1000
0000
,  // measure 13
0001
0000
0000
0001
0000
0000
0001
0000
1000
0000
0100
0010
0100
0000
1000
0000
,  // measure 14
0010
0000
0000
0010
0000
0000
0010
0000
0100
0000
0001
1000
0001
0000
0010
0000
,  // measure 15
0100
0000
0000
0100
0000
0000
0100
0000
1000
0000
0010
0100
0010
0000
1000
0000
,  // measure 16
0001
0000
0000
0001
0000
0000
0001
0000
0100
0000
0010
0100
0010
0000
1000
0000
,  // measure 17
0100
0000
0000
0100
0000
0000
0100
0000
1000
0000
0100
0010
0100
0000
1000
0000
,  // measure 18
0010
0000
0000
0010
0000
0000
0010
0000
0100
0000
0001
1000
0001
0000
0010
0000
,  // measure 19
0100
0000
0000
0100
0000
0000
0100
0000
0010
0000
0001
0100
0001
0000
1000
0000
,  // measure 20
0010
0000
0000
0010
0000
0000
0010
0000
1000
0000
0100
0010
0100
0010
0100
0000
,  // measure 21
1002
0000
0000
0100
0200
0000
0303
0000
,  // measure 22
0001
0000
1000
0000
0100
0000
0010
0000
0001
0000
1000
0010
1000
0000
0100
0000
,  // measure 23
0020
0000
0000
0000
0000
0000
0130
0000
0000
0000
1000
0010
1000
0000
0001
0000
,  // measure 24
0010
0000
0100
0000
0010
0000
0000
0000
0001
0000
0100
0010
1000
0000
0010
0000
,  // measure 25
0100
0000
0001
0000
0010
0000
0100
0000
1000
0000
0001
0100
0001
0000
1000
0000
,  // measure 26
0200
0000
0000
0000
0000
0000
0000
0000
1300
0000
0001
0010
0100
0000
0010
0000
,  // measure 27
0001
0000
0000
0001
0000
0000
0001
0000
0010
0000
0100
1000
0010
0000
0100
0000
,  // measure 28
0101
0000
0000
0101
0000
0000
0101
0000
1001
0000
0000
0000
0000
0000
0000
0000
,  // measure 29
0101
0000
0000
0101
0000
0000
0000
0000
0001
1000
0000
0100
0000
0010
0000
0001
,  // measure 30
1000
0000
0000
0010
0000
0000
1000
0000
0000
0000
0100
0000
0000
0100
0000
0000
,  // measure 31
1001
0000
0000
1001
0000
0000
0000
0000
1000
0001
0000
0100
0000
0010
0000
1000
,  // measure 32
0001
0000
0000
0010
0000
0000
0001
0000
1000
0010
0100
0010
1000
0000
0001
0000
,  // measure 33
1001
0000
0000
1001
0000
0000
0000
0000
1000
0001
0000
0010
0000
0100
0000
1000
,  // measure 34
0001
0000
0000
0100
0000
0000
0001
0000
0000
0000
0010
0000
0000
0010
0000
0000
,  // measure 35
1001
0000
0000
1001
0000
0000
0000
0000
0001
1000
0000
0010
0000
0100
0000
0001
,  // measure 36
1000
0000
0000
0100
0000
0000
0010
0000
0100
1000
0010
1000
0100
0000
0010
0000
,  // measure 37
1001
0000
0000
2002
0000
0000
0000
0000
3003
0000
0001
0000
0000
0001
0000
0000
,  // measure 38
1000
0000
0000
0010
0000
0000
0001
0000
0010
0000
0000
1000
0000
0000
0010
0000
,  // measure 39
0200
0000
0000
0000
0000
0000
0000
0000
0300
0000
0001
0000
0000
0001
0000
0000
,  // measure 40
1000
0000
0000
0010
0000
0000
0001
0000
0010
0000
0000
0000
1000
0000
0000
0000
,  // measure 41
1001
0000
0001
0100
0001
0000
1000
0000
0100
0000
0010
0100
0010
0000
0000
0000
,  // measure 42
0001
0000
1000
0010
0000
0100
0000
0100
0000
0000
0001
1000
0100
0000
0010
0000
,  // measure 43
0001
0000
1000
0001
1000
0000
0010
0000
0100
0000
0001
0100
0001
0000
0000
0000
,  // measure 44
1001
0000
0000
1001
0000
0000
1001
0000
1000
0010
0000
0010
0000
0000
0000
0000
;

//---------------dance-single - ----------------
#NOTES:
     dance-single:
     :
     Beginner:
     1:
     0.058,0.131,0.061,0.000,0.000:
0000
0000
0000
0000
,
0000
0000
0000
0000
,
0000
0000
0000
0000
,
0000
0000
0000
0000
,
1000
0000
0000
0000
,
0000
0000
0000
0000
,
0001
0000
0000
0000
,
0000
0000
0000
0000
,
1000
0000
0000
0000
,
0000
0000
0000
0000
,
0010
0000
0000
0000
,
0000
0000
0000
0000
,
0100
0000
0000
0000
,
0000
0000
0000
0000
,
0010
0000
0000
0000
,
0000
0000
0000
0000
,
1000
0000
0000
0000
,
0000
0000
0000
0000
,
0001
0000
0000
0000
,
0000
0000
0000
0000
,
1001
0000
0000
0000
,
0000
0000
0000
0000
,
0001
0000
0000
0000
,
0001
0000
0000
0000
,
1000
0000
0000
0000
,
1000
0000
0000
0000
,
0010
0000
0000
0000
,
0110
0000
0000
0000
,
1001
0000
0000
0000
,
1000
0000
0000
0000
,
0001
0000
0000
0000
,
0100
0000
0000
0000
,
0010
0000
0000
0000
,
1000
0000
0000
0000
,
0100
0000
0000
0000
,
0010
0000
0000
0000
,
0001
0000
0000
0000
,
0000
0000
0000
0000
,
1000
0000
0000
0000
,
0000
0000
0000
0000
,
1001
0000
0000
0000
,
0000
0000
0000
0000
,
0001
0000
0000
0000
,
1001
0000
0000
0000
;
