#TITLE:湧水;
#SUBTITLE:;
#ARTIST:とおくできこえる デンシオン;
#TITLETRANSLIT:WAKIMIZU;
#SUBTITLETRANSLIT:;
#ARTISTTRANSLIT:TOOKUDEKIKOERU DENSHION;
#CREDIT:DigiMindAxel;
#BANNER:WAKIMIZU.png;
#BACKGROUND:WAKIMIZU-bg.png;
#LYRICSPATH:;
#CDTITLE:DigiMindAxel original simfile.png;
#MUSIC:WAKIMIZU.ogg;
#METERTYPE:DDR X;
#OFFSET:-13.340;
#SAMPLESTART:24.276;
#SAMPLELENGTH:12.000;
#SELECTABLE:YES;
#BPMS:0.000=82.000;
#STOPS:;
#BGCHANGES:;

//---------------dance-single - ----------------
#NOTES:
     dance-single:
     :
     Easy:
     4:
     0.180,0.193,0.190,0.132,0.000:
0000
0000
0000
0000
,
0000
0000
0000
0000
,
0000
0000
0000
0000
,
0000
0000
0000
1000
,
0001
0100
0100
0010
,
1000
1000
1000
0000
,
0001
0100
0100
0010
,
1000
1000
0100
0010
,
1001
0100
0100
0010
,
1000
1000
0100
0010
,
1001
1000
0001
0100
,
0100
0010
0010
0100
,
1001
0000
0110
0000
,
1001
0000
0110
0000
,
1001
0000
0110
0000
,
1001
0000
0110
0000
,
1001
0000
0110
0000
,
1001
0000
0110
0000
,
1001
0000
0110
0000
,
2002
0000
0000
3003
,
2000
0000
0000
3010
0200
0000
0000
0301
,
0020
0000
0000
0031
0200
0000
0000
0000
,
0320
0000
0000
1030
0200
0000
0000
0000
,
2300
0000
3002
0000
,
0203
0000
0000
0301
0020
0000
0000
0031
,
0200
0000
0000
0310
2000
0000
0000
0000
,
3002
0000
0203
0000
,
0310
0000
1000
0000
1001
0000
1000
0001
,
0010
0000
0100
1000
0001
0000
0010
0000
,
0100
0000
0100
0000
1001
0000
1000
0001
,
0100
0000
0001
1000
0010
0000
0100
0000
,
0001
0000
0001
0000
1001
0000
1000
0100
,
0010
0000
0100
0010
0001
0000
1000
0000
,
0001
0000
0001
0000
1001
0000
1000
0010
,
0100
0000
0010
0100
0001
0000
1000
0000
,
0100
0000
0100
0000
1001
0000
0010
0010
,
0110
0000
0000
0000
;

//---------------dance-single - ----------------
#NOTES:
     dance-single:
     :
     Medium:
     8:
     0.421,0.401,0.215,0.083,0.347:
0001
1000
0001
1000
0100
0100
0100
0000
,
1000
0001
1000
0001
0100
0100
0100
0000
,
0001
1000
0001
1000
0010
0100
0000
0100
,
0010
0000
1000
0000
0100
0000
0010
0000
0001
0000
0000
0000
1000
0001
1000
0001
,
1000
0000
0000
0000
0001
0000
0010
0000
0100
0000
1000
0001
0100
0000
0001
1000
,
0100
0000
0100
0000
0010
0000
0010
0000
0100
0000
0000
0000
1000
0001
1000
0001
,
1000
0000
0000
0000
0001
0000
0100
0000
0010
0000
1000
0100
0010
0000
0001
0010
,
0100
0000
0100
0000
1000
0000
1000
0000
0001
0000
0000
0000
0100
0010
0100
0010
,
0100
0000
0000
0000
0001
0000
1000
0000
0100
0000
0010
0001
1000
0000
0010
1000
,
0001
0000
0010
0000
1000
0000
0010
0000
0001
0000
0000
0000
0010
0100
0010
0100
,
0010
0000
0000
0000
0001
0000
1000
0000
0100
0000
0010
0001
1000
0000
0010
1000
,
0001
0000
0010
0000
1000
0000
0010
0000
0001
0000
0000
0000
1000
0100
1000
0100
,
1000
0000
0000
1001
0000
0001
0100
0000
0101
0000
0000
0000
0000
0000
0000
0000
,
1001
0000
0000
1100
0000
1000
0010
0000
0110
0000
0000
0000
0000
0000
0000
0000
,
0101
0000
0000
1001
0000
1000
0100
0000
0110
0000
0000
0000
0000
0000
0000
0000
,
1001
0000
0000
0101
0000
0100
0010
0000
0110
0000
0000
0000
0000
0000
0000
0000
,
1001
0000
0000
1100
0000
0100
0010
0000
0011
0000
0000
0000
0000
0000
0000
0000
,
1001
0000
0000
0101
0000
0100
0010
0000
1010
0000
0000
0000
0000
0000
0000
0000
,
1001
0000
0000
1100
0000
0100
0010
0000
0011
0000
0000
0110
0000
0100
1000
0000
,
1001
0000
0000
0101
0000
0100
0010
0000
0220
0000
0000
0000
0000
0000
0330
0000
,
0010
0000
1000
0000
0100
0000
0010
0000
0001
0000
1000
0010
1000
0000
0100
0000
,
0010
0000
0001
0000
0100
0000
0010
0000
1000
0000
0001
0100
0001
0000
1000
0000
,
0100
0000
0010
0000
0001
0000
0100
0000
0010
0000
1000
0100
1000
0000
0001
0000
,
0010
0000
0100
0000
0010
0000
0001
0000
0100
0000
0010
1000
0010
1000
0100
0000
,
1001
0000
1000
0000
0001
0000
0100
0000
0010
0100
0010
0100
0001
0010
0100
0000
,
1000
0000
0010
0000
0001
0000
0010
0000
1000
0100
1000
0100
1000
0010
0100
0000
,
0001
0000
0010
0000
1000
0000
0010
0000
0001
1000
0100
1000
0100
0010
0100
0000
,
1000
0000
0010
0000
0001
0000
0010
0000
1000
0100
1000
0100
0010
0100
0010
0001
,
0200
0000
0010
0000
0310
1000
0010
1000
0002
0000
0010
0000
0010
0000
0013
0000
,
0100
1000
0100
0000
0010
0100
0010
0100
0001
0000
0100
0000
0010
0100
0010
0100
,
0002
0000
1000
0000
1003
0100
1000
0100
0020
0000
0001
0000
0001
0000
0031
0000
,
1000
0010
1000
0000
0010
0100
0010
0100
0001
0000
1000
0000
0100
0010
0100
0010
,
0200
0000
1000
0000
1300
0001
0100
0001
2000
0000
0100
0000
0100
0000
3100
0000
,
0010
0001
0010
0001
0100
0010
0100
0010
1000
0000
0100
0000
0010
0001
0100
0001
,
0020
0000
0100
0000
0130
1000
0010
0100
0002
0000
1000
0000
1000
0000
1003
0000
,
0001
0100
0001
0100
0010
0100
0010
1000
0010
0000
0000
0000
1000
1000
0001
0001
,
0011
0000
0000
0000
;

//---------------dance-single - ----------------
#NOTES:
     dance-single:
     :
     Hard:
     12:
     0.595,0.550,0.091,0.099,0.945: // measure 1
1000
1000
0010
0100
0100
0100
1001
0000
,  // measure 2
0001
0001
1000
0100
0100
0100
1001
0000
,  // measure 3
1000
1000
0010
0100
0100
0100
0001
1000
,  // measure 4
0100
0000
0010
0000
0001
0000
0010
0000
0100
0000
0000
0000
1000
0010
0100
0001
,  // measure 5
2000
0000
3000
0000
0001
0100
0010
1000
0002
0000
1003
0100
1000
0001
0100
0001
,  // measure 6
1000
0010
0100
1000
0100
0001
1000
0010
1000
0000
0000
0000
0001
0100
0010
1000
,  // measure 7
0002
0000
0003
0000
1000
0010
0100
0001
2000
0000
3001
0100
0001
1000
0100
1000
,  // measure 8
0001
1000
0010
0001
0010
0100
0001
1000
0010
0000
0000
0000
0100
0001
0010
0100
,  // measure 9
2000
0000
3000
0000
0010
1000
0100
0010
0002
0000
1003
0100
1000
0001
0100
0001
,  // measure 10
1000
0010
0001
0010
1000
0100
1000
0010
0100
0000
0000
0000
0010
1000
0100
0010
,  // measure 11
0002
0000
0003
0000
0100
0001
0010
0100
2000
0000
3001
0010
0001
1000
0010
1000
,  // measure 12
0001
0000
0100
0000
1000
0000
0100
0000
0001
0000
1000
0100
1000
0000
0010
0000
0100
0000
0000
0000
0000
0000
0000
0000
0001
0000
0010
0000
0100
0000
1000
0000
,  // measure 13
1001
0001
0000
0100
0000
0100
0100
0010
1000
0000
0000
0000
0001
0010
0100
1000
,  // measure 14
0001
0001
0000
0100
0000
0100
0100
0010
1000
0000
0000
0000
0100
0010
0001
1000
,  // measure 15
0010
0010
0000
0100
0000
0001
0001
1000
0200
0000
1300
0002
0000
2003
0000
3001
,  // measure 16
0010
0010
0000
0100
0000
1000
1000
0001
0100
0000
0000
0000
0001
0010
0100
1000
,  // measure 17
1001
0001
0000
0100
0000
0010
0010
1000
1001
0000
0000
0000
1000
0100
0010
0001
,  // measure 18
1001
1000
0000
0010
0000
0100
0100
0001
1001
0000
0000
0000
1000
0010
0100
0001
,  // measure 19
1001
1000
0000
0100
0000
0010
0010
0001
1000
0010
0000
2000
0000
3001
0010
0100
,  // measure 20
1000
0000
1000
0000
0000
0000
0001
0000
0000
0000
0100
0000
0100
0000
0001
0000
1000
0000
0001
0000
0001
0000
0001
0000
0010
0000
0100
1000
0100
0000
1000
0000
,  // measure 21
0001
0100
0001
1000
0010
0001
0010
1000
0001
0100
0010
0100
0001
0010
0100
0000
,  // measure 22
1000
0010
1000
0001
0010
1000
0010
0001
1000
0010
0100
0010
1000
0001
0010
0000
,  // measure 23
0001
0100
1000
0100
0001
0100
0010
1000
0010
0001
0010
1000
0100
0010
0001
0000
,  // measure 24
1000
0000
0100
0000
0001
0000
0100
0000
1000
0000
0100
0000
0010
0000
0001
0000
0010
0000
1000
0000
0010
0000
0001
0000
1000
0000
0010
0100
0010
0000
1000
0000
,  // measure 25
0001
0010
0100
0010
0001
0010
0100
1000
0100
0001
0100
1000
0010
0100
0001
0000
,  // measure 26
1000
0100
0010
0100
1000
0100
0010
0001
0010
1000
0010
0001
0010
0100
1000
0000
,  // measure 27
0001
0100
0010
0100
0001
0100
0010
1000
0010
0001
0010
1000
0010
0100
0001
1000
,  // measure 28
0001
0000
0100
0000
0010
0000
0001
0000
0010
0000
0100
0000
0001
0000
1000
0000
0010
0000
0001
0000
0010
0000
1000
0000
0001
0000
1000
0010
1000
0000
0001
0000
,  // measure 29
0010
0100
0010
0100
1000
1000
0010
0010
1000
0001
0010
0010
0100
0100
0010
0010
,  // measure 30
0001
0100
1000
0100
0001
0010
1000
0010
0001
1000
0010
1000
0001
0010
0100
1000
,  // measure 31
0010
0100
0010
0100
0001
0001
0010
0010
0001
1000
0010
0010
0100
0100
0010
0010
,  // measure 32
1000
0000
0100
0000
0001
0000
0100
0000
1000
0000
0010
0000
0001
0000
0010
0000
1000
0000
0001
0000
0010
0000
0100
0000
1000
0000
0001
0010
0001
0000
1000
0000
,  // measure 33
1001
0001
0100
0001
1000
0100
0001
0100
1000
0001
1000
0100
0010
0100
1000
0001
,  // measure 34
0100
0100
0010
0010
1000
1000
0001
0001
0100
0010
0100
0010
1000
0100
0010
0001
,  // measure 35
1001
1000
0001
0010
0001
0100
1000
0100
0001
0100
0001
0010
1000
0010
0001
1000
,  // measure 36
0001
0000
0001
0000
0100
0000
0100
0000
0010
0000
1000
0100
0010
0000
0010
0000
0001
0000
0001
0000
0001
0000
0001
0000
0001
0000
0010
0100
1000
0000
1000
0000
,  // measure 37
1010
0000
0000
0000
;

//---------------dance-single - ----------------
#NOTES:
     dance-single:
     :
     Beginner:
     2:
     0.097,0.119,0.099,0.000,0.000:
0000
0000
0000
0000
,
0000
0000
0000
0000
,
0000
0000
0000
0000
,
0000
0000
0000
0000
,
1001
0000
1000
0000
,
0001
0001
0001
0000
,
0010
0000
0001
0000
,
1000
1000
1000
0000
,
0100
0000
1000
0000
,
0001
0001
0001
0000
,
0100
0000
0001
0000
,
1000
1000
1000
0000
,
1001
0000
0000
0000
,
0110
0000
0000
0000
,
1001
0000
0000
0000
,
0110
0000
0000
0000
,
1001
0000
0010
0000
,
0110
0000
0100
0000
,
1001
0000
0100
0000
,
0110
0000
0010
0000
,
1001
0000
0010
0000
,
0001
0000
0010
0000
,
0001
0000
1000
0000
,
0001
0000
1000
0000
,
0100
0000
1000
0000
,
0100
0000
1000
0000
,
0010
0000
1000
0000
,
0010
0010
0010
0000
,
1001
0000
0100
0000
,
0010
0010
0010
0000
,
1000
0000
0001
0000
,
1000
1000
1000
0000
,
0010
0000
0100
0000
,
0001
0001
0001
0000
,
1000
0000
0001
0000
,
0100
0100
0100
0000
,
1001
0000
0000
0000
;
