#TITLE:VOOK;
#SUBTITLE:;
#ARTIST:BANYA;
#TITLETRANSLIT:;
#SUBTITLETRANSLIT:;
#ARTISTTRANSLIT:;
#CREDIT:DigiMindAxel;
#BANNER:VOOK.png;
#BACKGROUND:VOOK-bg.png;
#LYRICSPATH:;
#CDTITLE:PUMP IT UP.png;
#MUSIC:VOOK.ogg;
#METERTYPE:DDR X;
#OFFSET:-0.209;
#SAMPLESTART:10.609;
#SAMPLELENGTH:12.000;
#SELECTABLE:YES;
#BPMS:0.000=184.000;
#STOPS:;
#BGCHANGES:-2.000=VOOK.avi=1.000=1=1=0,
99999=-nosongbg-=1.000=0=0=0 // don't automatically add -songbackground-
;

//---------------dance-single - ----------------
#NOTES:
     dance-single:
     :
     Easy:
     5:
     0.241,0.334,0.050,0.171,0.000:
0000
0000
0000
0000
,
0000
0000
0000
0000
,
0000
0000
0000
0000
,
0000
0000
0000
0000
,
1000
0000
0000
0001
,
0000
0000
0000
0000
,
1000
0000
0000
0100
,
0000
0000
0000
0000
,
1000
0000
0001
0000
,
1000
0000
0001
0000
,
0100
0000
0001
0000
,
0100
0000
0001
0000
,
1000
0000
0100
0000
,
1000
0000
0100
0000
,
0010
0000
0001
0000
,
0100
0000
0010
0000
,
1000
0001
1000
0000
,
0100
1000
0100
0000
,
1000
0001
1000
0000
,
0001
0100
0001
0000
,
0100
0010
0100
0000
,
0001
1000
0001
0000
,
0010
0001
0010
0000
,
0001
1000
0001
0000
,
2000
0000
0000
0000
,
3100
0000
0010
0000
,
0002
0000
0203
0000
,
0320
0000
2030
0000
,
3002
0000
0000
0000
,
0013
0000
0100
0000
,
2000
0000
0000
0000
,
3010
0000
0100
0100
,
0010
0000
0000
0000
,
0100
0000
0000
0000
,
0010
0000
0000
0000
,
0100
0000
0000
0000
,
1001
0000
0000
0000
,
1001
0000
0000
0000
,
0110
0000
0000
0000
,
0110
0000
0000
0000
,
0010
0000
0100
0000
,
0010
0000
0100
0000
,
0001
0000
0100
0000
,
0001
0000
0100
0000
,
0001
0000
1000
0000
,
0100
0000
0010
0000
,
0001
0000
1000
0000
,
0100
0000
1000
0000
,
0001
1000
0001
0000
,
0100
0001
0100
0000
,
0010
0100
0010
0000
,
1000
0010
1000
0000
,
0001
1000
0001
0000
,
0010
0001
0010
0000
,
0100
0010
0100
0000
,
1000
0100
1000
0000
,
0001
1000
0001
0000
,
0100
0001
0100
0000
,
0010
0100
0010
0000
,
1000
0010
1000
0000
,
0001
1000
0001
0000
,
0010
0001
0010
0000
,
0100
0010
0100
0000
,
1000
0100
1000
0000
,
0002
0000
0000
0000
,
0103
0000
0010
0000
,
2000
0000
3200
0000
,
0320
0000
0032
0000
,
2003
0000
0000
0000
,
3010
0000
0100
0000
,
0002
0000
0000
0000
,
1003
0000
0001
0001
,
0020
0000
0030
0000
,
0220
0000
0000
0000
,
0330
0000
0000
0000
;

//---------------dance-single - ----------------
#NOTES:
     dance-single:
     :
     Medium:
     8:
     0.424,0.557,0.100,0.311,0.000:
0000
0000
0000
0000
,
0000
0000
0000
0000
,
0000
0000
0000
0000
,
0000
0000
0000
0000
,
1001
0000
0000
0000
0000
0000
0001
1000
,
0000
0000
0000
0000
,
1001
0000
0000
0000
0000
0000
1000
0001
,
0000
0000
0000
0000
,
0110
0100
0010
0001
,
0000
1000
0000
1000
0010
0000
0000
0000
,
0000
1000
0100
0010
,
0000
0001
0000
0001
0100
0000
0000
0000
,
0000
0010
0100
0001
,
0000
1000
0000
1000
0100
0000
0000
0000
,
0000
0010
0001
0100
,
0000
0010
0000
0010
0100
0000
0000
0000
,
1001
0000
0001
1000
0001
0000
1000
0000
,
0000
0010
0000
0010
0100
0000
0000
0000
,
0001
0000
1000
0010
1000
0000
0001
0000
,
0000
0010
0000
0010
0100
0000
0000
0000
,
1000
0000
0010
0100
0010
0000
1000
0000
,
0000
0001
0000
0001
0010
0000
0000
0000
,
0100
0000
1000
0001
1000
0000
0100
0000
,
0000
0010
0000
0010
0002
0000
2003
0000
,
3200
0000
0000
0000
,
1300
1000
0001
0000
0010
0000
0100
0000
,
1000
0010
1000
0000
0001
0010
0001
0000
,
0100
0010
0100
0000
0001
1000
0001
0000
,
2000
0000
0000
0000
,
3100
0100
0010
0000
0001
0000
1000
0000
,
0020
0000
0000
0000
,
0230
0000
0302
2003
,
3002
0000
0000
0000
,
0203
0000
0000
0000
,
0320
0000
0000
0000
,
2030
0000
0000
3000
,
2002
0000
0000
3003
,
0220
0000
0000
0330
,
2200
0000
0000
3300
,
0022
0000
0000
0033
,
0010
0001
0010
0000
0100
0010
0100
0000
,
1000
0100
1000
0000
0001
1000
0001
0000
,
0100
0001
0100
0000
0010
0100
0010
0000
,
1000
0010
1000
0000
0001
1000
0001
0000
,
1000
0100
1000
0000
0001
0100
0001
0000
,
1000
0010
1000
0000
0001
0010
0001
0000
,
1000
0001
1000
0000
0010
0100
0010
0000
,
0100
0010
0100
0010
0100
0010
0100
0000
,
0101
0000
0100
0010
0100
0000
0001
0000
,
0000
1000
0000
1000
0100
0000
0010
0000
,
0001
0000
0100
0010
0100
0000
0001
0000
,
0000
0010
0000
0010
0100
0000
1000
0000
,
0001
0000
1000
0010
1000
0000
0001
0000
,
0000
0010
0000
0010
0100
0000
1000
0000
,
0001
0000
0100
0001
0100
0000
0010
0000
,
0000
1000
0000
1000
0200
0000
0010
0000
,
0310
0000
0001
0100
0001
0000
1000
0000
,
0000
0100
0000
0100
0010
0000
0001
0000
,
0010
0000
0100
1000
0100
0000
0010
0000
,
0000
0001
0000
0001
0100
0000
0010
0000
,
1000
0000
0100
1000
0100
0000
1000
0000
,
0000
0010
0000
0010
0100
0000
0001
0000
,
0100
0000
0010
0100
0010
0000
1000
0000
,
0000
0001
0000
0001
2000
0000
3020
0000
,
0230
0000
0000
0000
,
0301
0001
1000
0000
0100
0000
0010
0000
,
0001
0100
0001
0000
0010
0100
0010
0000
,
0001
0100
0001
0000
1000
0001
1000
0000
,
0200
0000
0000
0000
,
1300
1000
0001
0000
0100
0000
0010
0000
,
0200
0000
0000
0000
,
0301
0001
1000
0000
0200
0000
0320
0000
,
0032
0000
0103
0000
0000
0000
0000
0010
,
0220
0000
0000
0000
,
0330
0000
0000
0000
;

//---------------dance-single - ----------------
#NOTES:
     dance-single:
     :
     Hard:
     11:
     0.652,0.668,0.461,0.201,0.070: // measure 1
0000
0000
0000
0000
,  // measure 2
0000
0000
0000
0000
,  // measure 3
0000
0000
0000
0000
,  // measure 4
0000
0000
0000
0000
,  // measure 5
1001
0000
0000
0000
0000
0000
1000
0001
,  // measure 6
0000
0000
0100
0100
,  // measure 7
1001
0000
0000
0000
0000
0000
0001
1000
,  // measure 8
0000
0000
0010
0010
,  // measure 9
1001
0000
0001
0100
0010
0000
0110
0000
,  // measure 10
0000
0002
0000
0013
0100
1000
0010
0100
,  // measure 11
0010
0000
1000
0100
0010
0000
0110
0000
,  // measure 12
0000
0002
0000
0013
0100
0010
0001
0100
,  // measure 13
0001
0000
0010
0100
1000
0000
1100
0000
,  // measure 14
0000
0200
0000
0301
1000
0100
0010
0100
,  // measure 15
1000
0000
0010
0100
0001
0000
0101
0000
,  // measure 16
0000
0002
0000
1003
0100
0010
0100
1000
,  // measure 17
0010
0000
0100
0001
0010
0000
0011
0000
,  // measure 18
0000
0001
1000
0010
0100
0001
0010
0100
,  // measure 19
0010
0000
0001
1000
0100
0000
1100
0000
,  // measure 20
0000
1000
0001
0100
0010
1000
0100
0010
,  // measure 21
0100
0000
1000
0001
0100
0000
0101
0000
,  // measure 22
0000
0010
1000
0100
0010
0100
1000
0001
,  // measure 23
1000
0000
0010
0100
0001
0000
0101
0000
,  // measure 24
0000
0100
0001
0010
0200
0000
1300
0000
,  // measure 25
1002
0100
1000
0100
,  // measure 26
1003
0100
0010
0001
0100
0010
0100
0000
,  // measure 27
0001
0100
0001
0100
1000
0100
1000
0100
,  // measure 28
0001
1000
0001
1000
0100
0010
0100
0000
,  // measure 29
2000
0001
0100
0001
,  // measure 30
3100
0010
0001
1000
0010
1000
0001
0000
,  // measure 31
2000
0001
0100
0001
,  // measure 32
3100
0000
0000
1100
0000
0000
0010
0100
0010
0100
0000
0000
,  // measure 33
0001
1000
0001
0000
0000
0000
0000
0000
0010
0000
0000
0000
0100
0000
0000
0000
,  // measure 34
1000
0001
1000
0000
0000
0000
0000
0000
0100
0000
0000
0000
0010
0000
0000
0000
,  // measure 35
0001
1000
0001
0000
0000
0000
0000
0000
0100
0000
0000
0000
0010
0000
0000
0000
,  // measure 36
1000
0100
0010
0100
1000
0100
0010
0100
,  // measure 37
2002
0000
0000
0000
0000
3003
0000
0002
,  // measure 38
0200
0000
0000
0303
,  // measure 39
0110
0220
0000
0300
,  // measure 40
1000
1000
1000
1030
,  // measure 41
1000
0001
1000
0000
0001
0000
0000
0000
0010
0000
0100
0000
1000
0000
0001
0000
,  // measure 42
0100
0010
0100
0000
0010
0000
0000
0000
1000
0000
0100
0000
0010
0000
0001
0000
,  // measure 43
1000
0010
1000
0000
0010
0000
0000
0000
0100
0000
0001
0000
1000
0000
0100
0000
,  // measure 44
0010
0100
0010
0000
0100
0000
0000
0000
1000
0000
0001
0000
0100
0000
0001
0000
,  // measure 45
1000
0100
1000
0000
0100
0000
0000
0000
0010
0000
0001
0000
0100
0000
0010
0000
,  // measure 46
1000
0100
1000
0000
0100
0000
0000
0000
0010
0000
0001
0000
0100
0000
0010
0000
,  // measure 47
1000
0001
1000
0000
0001
0000
0000
0000
0010
0000
0100
0000
1000
0000
0100
0000
,  // measure 48
0010
0010
0001
0001
0100
0100
0010
0010
,  // measure 49
1001
0000
1000
0001
0101
0000
1001
0000
,  // measure 50
0000
1010
1000
0100
0001
0100
1000
0010
,  // measure 51
0100
0000
0001
1000
1100
0000
1001
0000
,  // measure 52
0000
1001
0001
0010
1000
0010
0001
0100
,  // measure 53
0010
0000
1000
0001
0011
0000
1001
0000
,  // measure 54
0000
1001
1000
0100
0001
0100
1000
0010
,  // measure 55
0100
0000
0001
1000
1010
0000
1001
0000
,  // measure 56
0000
1001
0001
0010
1000
0010
0001
0100
,  // measure 57
0110
0000
0010
1000
1100
0000
0110
0000
,  // measure 58
0000
0011
0001
1000
0010
0001
0010
1000
,  // measure 59
0100
0000
0010
0001
0101
0000
0110
0000
,  // measure 60
0000
1010
1000
0001
0010
1000
0010
0001
,  // measure 61
0100
0000
0010
1000
1001
0000
0011
0000
,  // measure 62
0000
1100
1000
0001
0010
1000
0010
0001
,  // measure 63
0100
0000
0010
1000
1001
0000
0101
0000
,  // measure 64
0000
1010
1000
0001
0200
0010
0310
0000
,  // measure 65
2001
0100
0001
0100
,  // measure 66
3001
0001
0100
0010
1000
0100
0010
0000
,  // measure 67
0001
0001
0100
0100
0010
0010
1000
0100
,  // measure 68
0010
0010
0001
0001
0100
0100
0010
0000
,  // measure 69
2000
0100
0001
0100
,  // measure 70
3001
0001
0100
0010
1000
0010
0100
0000
,  // measure 71
0002
1000
0010
1000
,  // measure 72
0013
0000
0000
0011
0000
0000
0001
1000
0001
1000
0000
0000
,  // measure 73
0100
0000
0110
0000
0000
0000
0000
0001
,  // measure 74
2002
0000
0000
0000
,  // measure 75
3003
0000
0000
0000
;

//---------------dance-single - ----------------
#NOTES:
     dance-single:
     :
     Challenge:
     15:
     0.913,1.000,0.311,0.080,0.767: // measure 1
0000
0000
0000
0000
,  // measure 2
0000
0000
0000
0000
,  // measure 3
0000
0000
0000
0000
,  // measure 4
0000
0000
0000
0000
,  // measure 5
1002
0000
0000
0000
0000
0000
0103
0020
,  // measure 6
0000
0000
0000
0000
0000
0000
0000
0000
1030
0001
1000
0001
1000
0001
1000
0001
,  // measure 7
2000
0000
0000
0000
0001
3001
0100
0100
,  // measure 8
0001
1000
0100
1000
0001
0000
0000
0000
0100
0010
0100
0010
1000
0100
0000
0000
,  // measure 9
1001
0000
0001
0001
0001
0010
0100
0000
,  // measure 10
1000
1000
0010
0100
0100
0001
1000
0100
,  // measure 11
0010
0000
0001
0001
0001
1000
0100
0000
,  // measure 12
0010
0010
0001
0100
0100
0010
1000
0100
,  // measure 13
0010
0000
0100
0100
0100
1000
0001
0000
,  // measure 14
0100
0100
0001
1000
1000
0001
0100
0010
,  // measure 15
1000
0000
0010
0010
0010
1000
0100
0000
,  // measure 16
0010
0000
0010
0000
0001
0000
0100
0000
0010
0100
0010
0100
0001
0000
1000
0001
,  // measure 17
1000
0000
0001
0001
0001
0010
0100
0000
,  // measure 18
1000
1000
0010
0100
0100
0001
0010
1000
,  // measure 19
0010
0000
0001
0001
0001
0100
0010
0000
,  // measure 20
1000
1000
0001
0100
0100
0001
0010
1000
,  // measure 21
0010
0000
0001
0001
0001
1000
0010
0000
,  // measure 22
1000
1000
0001
0100
0100
0001
0010
1000
,  // measure 23
0010
0000
0001
0001
0001
0010
0100
0000
,  // measure 24
0010
0000
0010
0000
0001
0000
1000
0000
0100
1000
0100
1000
0010
0100
0000
0000
,  // measure 25
0001
0100
0001
0100
0001
0100
0001
0100
0001
0100
0001
0100
0001
0100
0001
0100
,  // measure 26
0001
1000
0001
0100
0010
0100
0001
1000
,  // measure 27
0100
0010
0100
0000
0010
0100
0010
0000
0001
1000
0001
1000
0001
1000
0001
0000
,  // measure 28
0100
0010
0100
0000
0010
0100
0010
0000
1000
0001
1000
0001
1000
0000
0000
0000
,  // measure 29
0100
1000
0100
1000
0100
1000
0100
1000
0100
1000
0100
1000
0100
1000
0100
1000
,  // measure 30
0100
0010
0001
0100
0001
0010
0100
1000
,  // measure 31
0001
0100
0001
0100
0001
0100
0001
0100
0001
0100
0001
0100
0001
0100
0001
0100
,  // measure 32
0001
0000
0000
1000
0000
0000
0001
0000
0000
1000
0000
0000
0010
0000
0000
0100
0000
0000
0000
0000
0000
0000
0000
0000
0001
0000
0000
0000
1000
0000
0000
0000
0010
0000
0000
0000
1000
0000
0000
0000
0001
0000
0000
0000
0000
0000
0000
0000
,  // measure 33
0010
0001
0100
0010
0000
0000
0000
0000
0000
0000
0000
0000
0000
0000
0000
0000
,  // measure 34
1000
0100
1000
0010
0000
0000
0000
0000
0000
0000
0000
0000
0000
0000
0000
0000
,  // measure 35
0100
0001
1000
0100
0000
0000
0000
0000
0000
0000
0000
0000
0000
0000
0000
0000
,  // measure 36
0010
0001
0010
0001
1000
0001
1000
0001
0010
0001
0010
0001
1000
0001
1000
0001
,  // measure 37
1000
0100
0020
0000
0000
0000
0000
0000
0000
0000
0000
0000
0000
0000
0031
0000
,  // measure 38
0100
0010
2000
0000
0000
0000
0000
0000
3000
0000
0000
0000
0000
0000
0000
0000
,  // measure 39
0001
0100
0020
0000
1000
0000
0000
0000
0000
0000
0000
0000
0000
0000
0000
0000
,  // measure 40
1030
0000
0001
0000
0010
0000
0100
0000
1000
0001
1000
0001
0100
0000
0100
0000
,  // measure 41
0001
0010
0100
0010
0001
0000
0000
0000
1000
0001
0100
0001
1000
0000
0000
0000
,  // measure 42
0100
0010
0001
0010
0100
0000
0000
0000
0010
0001
0100
0001
0010
0000
0100
0000
,  // measure 43
1000
0001
0100
0001
1000
0000
0000
0000
0010
1000
0100
1000
0010
0000
0000
0000
,  // measure 44
1000
0100
0010
0100
1000
0000
0000
0000
0010
0100
0001
0100
0010
0000
0100
0000
,  // measure 45
0001
0010
0100
0010
0001
0000
1000
0000
0100
0010
0001
1000
0010
0000
1000
0000
,  // measure 46
0001
0100
0010
0100
0001
0000
0100
0000
0010
1000
0100
0010
0100
0000
1000
0000
,  // measure 47
0001
0100
0010
0100
0001
0000
1000
0000
0100
0010
0001
0010
0100
0000
1000
0000
,  // measure 48
0001
0000
0001
0000
0100
0000
0100
0000
0001
0010
0100
0010
0001
1000
0010
1000
,  // measure 49
0001
0000
0101
0100
0110
0000
0110
0000
,  // measure 50
1000
1000
0100
0001
0001
0100
1000
0001
,  // measure 51
0100
0000
1010
0010
0110
0000
0110
0000
,  // measure 52
0001
0001
0010
1000
1000
0010
0001
0100
,  // measure 53
0010
0000
1100
0100
0110
0000
0110
0000
,  // measure 54
0001
0001
0100
1000
1000
0100
0001
0010
,  // measure 55
0100
0000
0011
0010
0110
0000
0110
0000
,  // measure 56
1000
0000
1000
0000
0010
0000
0100
0000
0001
1000
0001
1000
0100
0000
1000
0001
,  // measure 57
1000
0000
1010
0010
0110
0000
0101
0001
,  // measure 58
0000
1001
1000
0010
0001
0010
1000
0100
,  // measure 59
0010
0000
0011
0010
0110
0000
1100
1000
,  // measure 60
0000
1001
0001
0010
1000
0010
0001
0100
,  // measure 61
0010
0000
1001
0001
0011
0000
0110
0100
,  // measure 62
0000
1001
1000
0010
0001
0010
1000
0100
,  // measure 63
0010
0000
1001
1000
1010
0000
0110
0100
,  // measure 64
0000
0000
1001
0000
0001
0000
0100
0000
0010
1000
0010
1000
0100
0010
0000
0000
,  // measure 65
0001
0100
0001
0100
0001
0100
0001
0100
0001
0100
0001
0100
0001
0100
0001
0100
,  // measure 66
0001
1000
0100
0001
0100
1000
0001
0010
,  // measure 67
0100
1000
0100
0000
1000
0001
1000
0000
0001
0100
0001
0100
0010
1000
0010
0000
,  // measure 68
1000
0001
1000
0000
0001
0010
0001
0000
1000
0001
1000
0001
1000
0000
0000
0000
,  // measure 69
0100
1000
0100
1000
0100
1000
0100
1000
0100
1000
0100
1000
0100
1000
0100
1000
,  // measure 70
0100
0010
0001
0100
1000
0100
0001
1000
,  // measure 71
0010
0100
0010
0100
0010
0100
0010
0100
0010
0100
0010
0100
0010
0100
0010
0100
,  // measure 72
0010
0000
0000
1000
0000
0000
0010
0000
0000
1000
0000
0000
0100
0000
0000
0010
0000
0000
0000
0000
0000
0000
0000
0000
0001
0000
0000
0000
0100
0000
0000
0000
0001
0000
0000
0000
1000
0000
0000
0000
0100
0000
0000
0000
0000
0000
0000
0000
,  // measure 73
0010
0001
0010
0001
0100
0010
0000
0000
0000
0000
0000
0000
0000
0000
0100
0000
,  // measure 74
0220
0000
0000
0000
,  // measure 75
0330
0000
0000
0000
;

//---------------dance-double - ----------------
#NOTES:
     dance-double:
     :
     Easy:
     5:
     0.251,0.334,0.070,0.191,0.000:
00000000
00000000
00000000
00000000
,
00000000
00000000
00000000
00000000
,
00000000
00000000
00000000
00000000
,
00000000
00000000
00000000
00000000
,
10010000
00000000
00000000
00010000
,
00000000
00000000
00000000
00000000
,
10010000
00000000
00000000
10000000
,
00000000
00000000
00000000
00000000
,
00100000
00000000
01000000
00000000
,
00100000
00000000
01000000
00000000
,
00001000
00000000
00100000
00000000
,
00001000
00000000
00100000
00000000
,
00010000
00000000
00001000
00000000
,
00010000
00000000
00001000
00000000
,
00000100
00000000
00000010
00000000
,
00000001
00000000
00000100
00000000
,
00000010
00000100
00000010
00000000
,
00000100
00000001
00000100
00000000
,
00000001
00001000
00000001
00000000
,
00010000
00000100
00010000
00000000
,
00001000
00010000
00001000
00000000
,
00100000
01000000
00100000
00000000
,
00001000
01000000
00001000
00000000
,
10000000
01000000
10000000
00000000
,
00200000
00000000
00000000
00000000
,
01300000
01000000
01000000
00000000
,
00002000
00000000
00023000
00000000
,
00032000
00000000
00023000
00000000
,
00030020
00000000
00000000
00000000
,
00000130
00000100
00000100
00000000
,
00000002
00000000
00000000
00000000
,
00001003
00000000
00000020
00000000
,
00000130
00000000
00000000
00000000
,
00000001
00000000
00000000
00000000
,
00000010
00000000
00000000
00000000
,
00000100
00000000
00000000
00000000
,
00011000
00000000
00000000
00000000
,
00011000
00000000
00000000
00000000
,
01100000
00000000
00000000
00000000
,
01100000
00000000
00000000
00000000
,
01000000
00000000
00100000
00000000
,
10000000
00000000
00100000
00000000
,
01000000
00000000
00001000
00000000
,
00100000
00000000
00001000
00000000
,
00010000
00000000
00000100
00000000
,
00000010
00000000
00000001
00000000
,
00000010
00000000
00000100
00000000
,
00001000
00000000
00010000
00000000
,
00100000
01000000
00100000
00000000
,
00010000
00100000
00010000
00000000
,
10000000
00010000
10000000
00000000
,
01000000
10000000
01000000
00000000
,
00100000
01000000
00100000
00000000
,
00001000
00100000
00001000
00000000
,
00010000
00001000
00010000
00000000
,
00000010
00010000
00000010
00000000
,
00000100
00000010
00000100
00000000
,
00000001
00000010
00000001
00000000
,
00001000
00000001
00001000
00000000
,
00000010
00000100
00000010
00000000
,
00001000
00010000
00001000
00000000
,
00010000
01000000
00010000
00000000
,
01000000
00100000
01000000
00000000
,
00010000
10000000
00010000
00000000
,
20000000
00000000
00000000
00000000
,
30010000
00010000
00010000
00000000
,
02000000
00000000
03200000
00000000
,
02300000
00000000
03200000
00000000
,
02300000
00000000
00000000
00000000
,
03001000
00001000
00001000
00000000
,
00020000
00000000
00000000
00000000
,
00030200
00000000
00000310
00000001
,
00000200
00000000
00000300
00000000
,
00002002
00000000
00000000
00000000
,
00003003
00000000
00000000
00000000
;

//---------------dance-double - ----------------
#NOTES:
     dance-double:
     :
     Medium:
     8:
     0.433,0.557,0.140,0.331,0.000:
00000000
00000000
00000000
00000000
,
00000000
00000000
00000000
00000000
,
00000000
00000000
00000000
00000000
,
00000000
00000000
00000000
00000000
,
20010000
00000000
00000000
00000000
00000000
00000000
01000000
31000000
,
00000000
00000000
00000000
00000000
,
10020000
00000000
00000000
00000000
00000000
00000000
00100000
00130000
,
00000000
00000000
00000000
00000000
,
00011000
00010000
00000100
00010000
,
00000000
00000010
00000000
00000010
00000100
00000000
00000000
00000000
,
00000000
00000001
00000010
00000001
,
00000000
00000100
00000000
00000100
00000010
00000000
00000000
00000000
,
00000000
00010000
00000100
00010000
,
00000000
00001000
00000000
00001000
00100000
00000000
00000000
00000000
,
00000000
01000000
10000000
01000000
,
00000000
10000000
00000000
10000000
00010000
00000000
00000000
00000000
,
01100000
00000000
00100000
01000000
00100000
00000000
01000000
00000000
,
00000000
00001000
00000000
00001000
00010000
00000000
00000000
00000000
,
00000100
00000000
00000010
00000100
00000010
00000000
00000100
00000000
,
00000000
00001000
00000000
00001000
00000001
00000000
00000000
00000000
,
00000010
00000000
00000100
00001000
00000100
00000000
00000010
00000000
,
00000000
00000001
00000000
00000001
00000010
00000000
00000000
00000000
,
00000100
00000000
00010000
00001000
00010000
00000000
00000100
00000000
,
00000000
00010000
00000000
00010000
00002000
00000000
00013000
00000000
,
02000000
00000000
00000000
00000000
,
03100000
00100000
10000000
00000000
01000000
00000000
00100000
00000000
,
00001000
00010000
00001000
00000000
00010000
00000010
00010000
00000000
,
00000010
00000100
00000010
00000000
00000100
00000001
00000100
00000000
,
00000002
00000000
00000000
00000000
,
00001003
00001000
00000001
00000000
00000010
00000000
00000100
00000000
,
00020000
00000000
00000000
00000000
,
00032000
01003000
00100000
00100000
,
02200000
00000000
00000000
03300000
,
20200000
00000000
00000000
30300000
,
02002000
00000000
00000000
03003000
,
00022000
00000000
00000000
00033000
,
00020200
00000000
00000000
00030300
,
00000022
00000000
00000000
00000033
,
00000220
00000000
00000000
00000330
,
00002002
00000000
00000000
00003003
,
00000001
00000001
00000001
00000000
00000010
00000010
00000010
00000000
,
00000001
00000001
00000001
00000000
00010000
00010000
00010000
00000000
,
00001000
00001000
00001000
00000000
01000000
01000000
01000000
00000000
,
00001000
00001000
00001000
00000000
10000000
10000000
10000000
00000000
,
01000000
00100000
01000000
10000000
00100000
00000000
00100000
00000000
,
01000000
00001000
01000000
00010000
00001000
00000000
00001000
00000000
,
00000100
00000010
00000001
00000100
00000010
00000000
00000010
00000000
,
00010000
00001000
00010000
00001000
00010000
00001000
00010000
00000000
,
00011000
00000000
00001000
01000000
00001000
00000000
10000000
00000000
,
00000000
01000000
00000000
01000000
00100000
00000000
00001000
00000000
,
00010000
00000000
00000010
00000100
00000010
00000000
00010000
00000000
,
00000000
00000001
00000000
00000001
00000010
00000000
00000100
00000000
,
00001000
00000000
00010000
01000000
00010000
00000000
10000000
00000000
,
00000000
01000000
00000000
01000000
00100000
00000000
00001000
00000000
,
00010000
00000000
00000100
00000010
00000100
00000000
00010000
00000000
,
00000000
00000010
00000000
00000010
00000200
00000000
00000001
00000000
,
00000301
00000000
00010000
00001000
00010000
00000000
00000001
00000000
,
00000000
00000010
00000000
00000010
00000100
00000000
00010000
00000000
,
00001000
00000000
00100000
01000000
00100000
00000000
00001000
00000000
,
00000000
01000000
00000000
01000000
00100000
00000000
10000000
00000000
,
01000000
00000000
00100000
00010000
00100000
00000000
01000000
00000000
,
00000000
10000000
00000000
10000000
00010000
00000000
01000000
00000000
,
00001000
00000000
00010000
00001000
00010000
00000000
00000010
00000000
,
00000000
00000100
00000000
00000100
00000002
00000000
00001003
00000000
,
00000020
00000000
00000000
00000000
,
00000130
00000100
00000001
00000000
00000010
00000000
00000100
00000000
,
00010000
00001000
00010000
00000000
00001000
01000000
00001000
00000000
,
10000000
01000000
10000000
00000000
00100000
01000000
00100000
00000000
,
20000000
00000000
00000000
00000000
,
30010000
00010000
10000000
00000000
01000000
00000000
00100000
00000000
,
00002000
00000000
00000000
00000000
,
00023000
00030010
00000200
00000310
,
00000002
00000000
00000013
00000000
00000000
00000000
00000000
00000100
,
00000220
00000000
00000000
00000000
,
00000330
00000000
00000000
00000000
;

//---------------dance-double - ----------------
#NOTES:
     dance-double:
     :
     Hard:
     11:
     0.661,0.668,0.552,0.251,0.050:
00000000
00000000
00000000
00000000
,
00000000
00000000
00000000
00000000
,
00000000
00000000
00000000
00000000
,
00000000
00000000
00000000
00000000
,
20010000
00000000
00000000
00000000
00000000
00000000
30100000
01100000
,
00000000
00000000
01000000
00100000
,
00021000
00000000
00000000
00000000
00000000
00000000
00031000
00011000
,
00000000
00000000
00000100
00000100
,
00001001
00000000
00000001
00001000
00000010
00000000
00000110
00000000
,
00000000
00020000
00000000
00031000
00100000
01000000
00100000
00001000
,
10000000
00000000
00100000
10000000
00010000
00000000
10010000
00000000
,
00000000
00200000
00000000
10300000
01000000
00100000
01000000
10000000
,
00001000
00000000
00010000
00000010
00000100
00000000
00000110
00000000
,
00000000
00000002
00000000
00000103
00000010
00000100
00000001
00010000
,
00001000
00000000
00100000
01000000
10000000
00000000
11000000
00000000
,
00000000
00200000
00000000
01300000
00010000
10000000
01000000
00100000
,
01000000
00000000
10000000
00010000
01000000
00000000
01100000
00000000
,
00000000
00001000
00010000
00000010
00010000
00001000
00010000
00000010
,
00000100
00000000
00000010
00000100
00000001
00000000
00001001
00000000
,
00000000
00000100
00000010
00000100
00000001
00010000
00000010
00010000
,
00001000
00000000
01000000
00100000
10000000
00000000
10100000
00000000
,
00000000
00100000
01000000
00100000
10000000
01000000
00100000
01000000
,
10000000
00000000
00100000
01000000
00001000
00000000
01001000
00000000
,
00000000
00010000
00000100
00000010
00000002
00000000
00000103
00000000
,
00001002
00000010
00001000
00000010
,
00001003
00001000
00000001
00000010
00000100
00000010
00000001
00000000
,
00000100
00000010
00000100
00000010
00010000
00000100
00010000
00000100
,
00001000
00010000
00001000
00010000
01000000
00100000
01000000
00000000
,
10020000
00100000
10000000
00100000
,
10030000
10000000
00001000
00100000
01000000
00100000
00001000
00000000
,
00021000
00000010
00001000
00000010
,
00031000
00011000
00010000
00000110
,
00000010
00000100
00000010
00000000
00000000
00000000
00000000
00000000
00000100
00000000
00000000
00000000
00000001
00000000
00000000
00000000
,
00000010
00000100
00000010
00000000
00000000
00000000
00000000
00000000
00000001
00000000
00000000
00000000
00001000
00000000
00000000
00000000
,
00000010
00000100
00000010
00000000
00000000
00000000
00000000
00000000
00001000
00000000
00000000
00000000
00000001
00000000
00000000
00000000
,
00000010
00000100
00001000
00000100
00000010
00000100
00001000
00000100
,
00000022
00000000
00000000
00000033
,
00002002
00000000
00000000
00003003
,
00010010
00022000
00000000
00033000
,
02200000
00000000
00000000
03300000
,
01000000
00100000
01000000
00000000
00100000
00000000
00000000
00000000
10000000
00000000
01000000
00000000
10000000
00000000
00100000
00000000
,
01000000
00100000
01000000
00000000
00100000
00000000
00000000
00000000
00001000
00000000
00010000
00000000
00000100
00000000
00000010
00000000
,
00000001
00000100
00000001
00000000
00000100
00000000
00000000
00000000
00000001
00000000
00000010
00000000
00000100
00000000
00010000
00000000
,
00000010
00010000
00000010
00000000
00010000
00000000
00000000
00000000
00001000
00000000
01000000
00000000
00100000
00000000
01000000
00000000
,
00001000
01000000
00001000
00000000
01000000
00000000
00000000
00000000
00100000
00000000
10000000
00000000
01000000
00000000
00100000
00000000
,
01000000
10000000
01000000
00000000
00100000
00000000
00000000
00000000
00001000
00000000
00010000
00000000
00000010
00000000
00010000
00000000
,
00001000
00010000
00001000
00000000
00010000
00000000
00000000
00000000
00000100
00000000
00000010
00000000
00000001
00000000
00000010
00000000
,
00000100
00000100
00010000
00010000
00001000
00001000
01000000
01000000
,
01100000
00000000
00100000
10000000
10100000
00000000
10010000
00000000
,
00000000
01100000
01000000
10000000
00100000
00010000
00100000
10000000
,
00001000
00000000
00010000
00000010
00010010
00000000
00000110
00000000
,
00000000
00000011
00000001
00001000
00000010
00000001
00000010
00001000
,
00000001
00000000
00000010
00000100
00001100
00000000
00001001
00000000
,
00000110
00000010
00001000
00000100
00000001
00000100
00001000
00000010
,
00010000
00000000
00001000
01000000
01001000
00000000
01100000
00000000
,
00000000
01100000
00100000
10000000
01000000
00010000
01000000
10000000
,
10010000
00000000
00100000
01000000
01001000
00000000
00011000
00000000
,
00000000
00010100
00000100
00001000
00000010
00000001
00000010
00001000
,
00000001
00000000
00000010
00000100
00000110
00000000
00010100
00000000
,
00000000
00011000
00001000
10000000
01000000
00010000
01000000
10000000
,
00100000
00000000
01000000
00001000
01001000
00000000
00011000
00000000
,
00000000
00010010
00000010
00001000
00000100
00000001
00000100
00001000
,
00000010
00000000
00000100
00000001
00001001
00000000
00000110
00000000
,
00000000
00010100
00010000
00001000
00200000
00000000
01300000
00000000
,
10020000
00100000
10000000
00100000
,
10030000
10000000
00010000
00100000
01000000
00100000
00010000
00000000
,
01000000
01000000
00001000
00001000
00010000
00010000
00000100
00000010
,
00000001
00000001
00000100
00000100
00000001
00000001
00000010
00000000
,
00002001
00000010
00000001
00000010
,
00003001
00000001
00001000
00000010
00000100
00000010
00001000
00000000
,
00000120
00010000
00000100
00010000
,
00000130
00000110
00020000
00031000
,
00100000
00000000
01100000
00000000
00000000
00000000
00000000
10000000
,
22000000
00000000
00000000
00000000
,
33000000
00000000
00000000
00000000
;

//---------------dance-double - ----------------
#NOTES:
     dance-double:
     :
     Challenge:
     15:
     0.916,1.000,0.321,0.070,0.777:
00000000
00000000
00000000
00000000
,
00000000
00000000
00000000
00000000
,
00000000
00000000
00000000
00000000
,
00000000
00000000
00000000
00000000
,
20010000
00000000
00000000
00000000
00000000
00000000
31000000
11000000
,
00000000
00000000
00000000
00000000
00000000
00000000
00000000
00000000
00100000
01000000
00100000
01000000
00100000
01000000
00100000
01000000
,
00200000
00000000
00000000
00000000
01300000
01000000
00001000
00001000
,
00010000
00000010
00010000
00000010
00000100
00000000
00000000
00000000
00000001
00000010
00000001
00000010
00000100
00001000
00000000
00000000
,
00000110
00000000
00000010
00000010
00000010
00000100
00000001
00000000
,
00000010
00000010
00000100
00010000
00010000
00001000
01000000
00100000
,
10000000
00000000
01000000
01000000
01000000
00100000
00010000
00000000
,
10000000
10000000
00100000
01000000
01000000
00001000
00010000
00000100
,
00000010
00000000
00000001
00000001
00000001
00000100
00000010
00000000
,
00010000
00010000
00001000
01000000
01000000
00100000
10000000
01000000
,
00100000
00000000
00001000
00001000
00001000
00010000
00000100
00000000
,
00000010
00000000
00000010
00000000
00000001
00000000
00000100
00000000
00000010
00000100
00000010
00000100
00000010
00000000
00010000
00000010
,
00010000
00000000
00001000
00001000
00001000
00100000
01000000
00000000
,
10000000
10000000
00100000
01000000
01000000
00010000
10000000
01000000
,
10000000
00000000
00100000
00100000
00100000
01000000
00001000
00000000
,
00010000
00010000
00000100
00000010
00000010
00000001
00000100
00000010
,
00000100
00000000
00000001
00000001
00000001
00000010
00000100
00000000
,
00010000
00010000
00001000
00100000
00100000
01000000
10000000
00100000
,
10000000
00000000
00100000
00100000
00100000
01000000
00001000
00000000
,
00010000
00000000
00010000
00000000
00000100
00000000
00000010
00000000
00000001
00000100
00000001
00000100
00000010
00000100
00000000
00000000
,
00000001
00001000
00000001
00001000
00000001
00001000
00000001
00001000
00000001
00001000
00000001
00001000
00000001
00001000
00000001
00001000
,
00000001
00000010
00000100
00010000
00001000
00100000
01000000
10000000
,
00010000
10000000
00010000
00000000
10000000
00010000
10000000
00000000
00100000
01000000
00100000
01000000
00100000
01000000
00100000
00000000
,
10000000
01000000
10000000
00000000
00001000
01000000
00001000
00000000
00010000
00001000
00010000
00001000
00010000
00000000
00000000
00000000
,
00000100
00000010
00000100
00000010
00000100
00000010
00000100
00000010
00000100
00000010
00000100
00000010
00000100
00000010
00000100
00000010
,
00000100
00010000
00000010
00000100
00000001
00000010
00000100
00000010
,
00000001
00000100
00000001
00000100
00000001
00000100
00000001
00000100
00000001
00000100
00000001
00000100
00000001
00000100
00000001
00000100
,
00000001
00000000
00000000
00000010
00000000
00000000
00000100
00000000
00000000
00000010
00000000
00000000
00000100
00000000
00000000
00001000
00000000
00000000
00000000
00000000
00000000
00000000
00000000
00000000
00010000
00000000
00000000
00000000
00100000
00000000
00000000
00000000
01000000
00000000
00000000
00000000
00100000
00000000
00000000
00000000
00010000
00000000
00000000
00000000
00000000
00000000
00000000
00000000
,
01000000
00100000
01000000
00100000
00000000
00000000
00000000
00000000
00000000
00000000
00000000
00000000
00000000
00000000
00000000
00000000
,
10000000
01000000
10000000
01000000
00000000
00000000
00000000
00000000
00000000
00000000
00000000
00000000
00000000
00000000
00000000
00000000
,
00100000
00001000
00100000
00001000
00000000
00000000
00000000
00000000
00000000
00000000
00000000
00000000
00000000
00000000
00000000
00000000
,
00010000
00000100
00010000
00000100
00000010
00000001
00000010
00000001
00000100
00000010
00000100
00000010
00001000
00010000
00001000
00010000
,
01000000
00100000
02000000
00000000
00000000
00000000
00000000
00000000
00000000
00000000
00000000
00000000
00000000
00000000
03010000
00000000
,
10000000
01000000
00200000
00000000
00000000
00000000
00000000
00000000
00300000
00000000
00000000
00000000
00000000
00000000
00000000
00000000
,
00001000
00010000
00002000
00000000
00010000
00000000
00000000
00000000
00000000
00000000
00000000
00000000
00000000
00000000
00000000
00000000
,
00013000
00000000
00000100
00000000
00000010
00000000
00000100
00000000
00010000
00000010
00010000
00000010
00000100
00000000
00000010
00000000
,
00000100
00000001
00000010
00000100
00000010
00000000
00000000
00000000
00000001
00000100
00000001
00000100
00000010
00000000
00000000
00000000
,
00010000
00000100
00000010
00000100
00010000
00000000
00000000
00000000
00001000
00100000
00001000
00100000
01000000
00000000
10000000
00000000
,
01000000
00100000
00010000
00100000
01000000
00000000
00000000
00000000
10000000
00100000
01000000
00100000
10000000
00000000
00000000
00000000
,
01000000
00100000
00010000
00100000
01000000
00000000
00000000
00000000
10000000
00100000
10000000
00100000
01000000
00000000
00001000
00000000
,
00010000
00000100
00000010
00000100
00010000
00000000
00000010
00000000
00000100
00000001
00000010
00000100
00000010
00000000
00000001
00000000
,
00000100
00000010
00000100
00000010
00010000
00000000
00001000
00000000
00100000
01000000
10000000
01000000
00100000
00000000
00001000
00000000
,
01000000
00100000
01000000
00100000
10000000
00000000
01000000
00000000
00100000
00001000
00100000
00001000
00010000
00000000
00000100
00000000
,
00000010
00000000
00000010
00000000
00000001
00000000
00000001
00000000
00000100
00000010
00000100
00000010
00001000
00000100
00010000
00001000
,
00010000
00000000
00011000
00001000
01001000
00000000
01100000
00000000
,
01000000
01000000
00100000
10000000
10000000
00100000
00010000
00100000
,
10000000
00000000
11000000
01000000
01100000
00000000
01001000
00000000
,
00001000
00001000
00010000
00000001
00000001
00000010
00001000
00000010
,
00000001
00000000
00000110
00000100
00000101
00000000
00001001
00000000
,
00000001
00000001
00000010
00000100
00000100
00010000
00001000
00100000
,
01000000
00000000
11000000
10000000
10010000
00000000
01010000
00000000
,
01000000
00000000
01000000
00000000
00100000
00000000
10000000
00000000
01000000
00100000
01000000
00100000
00010000
00000000
00001000
00010000
,
00001000
00000000
00011000
00010000
00010010
00000000
00000110
00000100
,
00000000
00001001
00000001
00000010
00001000
00000010
00000001
00000100
,
00000010
00000000
00011000
00001000
01001000
00000000
01100000
00100000
,
00000000
10010000
10000000
00100000
00010000
00100000
10000000
01000000
,
00100000
00000000
00011000
00010000
00010100
00000000
00000110
00000010
,
00000000
00001001
00000001
00000010
00001000
00000010
00000001
00000100
,
00000010
00000000
00011000
00001000
01001000
00000000
01100000
00100000
,
00000000
00000000
10010000
00000000
10000000
00000000
00100000
00000000
01000000
00001000
01000000
00001000
00010000
00000100
00000000
00000000
,
00000010
00000001
00000010
00000001
00000010
00000001
00000010
00000001
00000010
00000001
00000010
00000001
00000010
00000001
00000010
00000001
,
00000010
00000100
00010000
00001000
00100000
01000000
00100000
00001000
,
10000000
01000000
10000000
01000000
10000000
01000000
00100000
00000000
00001000
00010000
00001000
00010000
00000100
00001000
00000010
00000000
,
00000100
00000001
00000100
00000001
00000100
00000010
00000100
00000000
00000001
00001000
00000001
00001000
00000001
00000000
00000000
00000000
,
00010000
00000100
00010000
00000100
00010000
00000100
00010000
00000100
00010000
00000100
00010000
00000100
00010000
00000100
00010000
00000100
,
00010000
00001000
00100000
01000000
00100000
00001000
00100000
01000000
,
10000000
00010000
10000000
00010000
10000000
00010000
10000000
00010000
10000000
00010000
10000000
00010000
10000000
00010000
10000000
00010000
,
10000000
00000000
00000000
01000000
00000000
00000000
10000000
00000000
00000000
01000000
00000000
00000000
00100000
00000000
00000000
00001000
00000000
00000000
00000000
00000000
00000000
00000000
00000000
00000000
00010000
00000000
00000000
00000000
00000010
00000000
00000000
00000000
00000100
00000000
00000000
00000000
00000010
00000000
00000000
00000000
00010000
00000000
00000000
00000000
00000000
00000000
00000000
00000000
,
00000100
00000010
00000100
00000010
00000001
00000100
00000000
00000000
00000000
00000000
00000000
00000000
00000000
00000000
00000010
00000000
,
00000220
00000000
00000000
00000000
,
00000330
00000000
00000000
00000000
;

//---------------dance-single - ----------------
#NOTES:
     dance-single:
     :
     Beginner:
     2:
     0.102,0.183,0.100,0.000,0.000:
0000
0000
0000
0000
,
0000
0000
0000
0000
,
0000
0000
0000
0000
,
0000
0000
0000
0000
,
0100
0000
0000
0000
,
0000
0000
0000
0000
,
0010
0000
0000
0000
,
0000
0000
0000
0000
,
1001
0000
0000
0000
,
0000
0000
0000
0000
,
0001
0000
0000
0000
,
0000
0000
0000
0000
,
1000
0000
0000
0000
,
0000
0000
0000
0000
,
0001
0000
0000
0000
,
0000
0000
0000
0000
,
0100
0000
0000
0000
,
0000
0000
0000
0000
,
0010
0000
0000
0000
,
0000
0000
0000
0000
,
0100
0000
0000
0000
,
0000
0000
0000
0000
,
0001
0000
0000
0000
,
0000
0000
1000
0000
,
1001
0000
0000
0000
,
0001
0000
0000
0000
,
0100
0000
0000
0000
,
0010
0000
0000
0000
,
0100
0000
0000
0000
,
0110
0000
0000
0000
,
0100
0000
0000
0000
,
0110
0000
0000
0000
,
1001
0000
0000
0000
,
0001
0000
0000
0000
,
0001
0000
0000
0000
,
0001
0000
0000
0000
,
1000
0000
0000
0000
,
1000
0000
0000
0000
,
1000
0000
0000
0000
,
1000
0000
0000
0000
,
0001
0000
0000
0000
,
0010
0000
0000
0000
,
0100
0000
0000
0000
,
0010
0000
0000
0000
,
0001
0000
0000
0000
,
0010
0000
0000
0000
,
0100
0000
0000
0000
,
1000
0000
0000
0000
,
1001
0000
0000
0000
,
0001
0000
0000
0000
,
0100
0000
0000
0000
,
0010
0000
0000
0000
,
0100
0000
0000
0000
,
0001
0000
0000
0000
,
0100
0000
0000
0000
,
0010
0000
0000
0000
,
1000
0000
0000
0000
,
0100
0000
0000
0000
,
1000
0000
0000
0000
,
0001
0000
0000
0000
,
1000
0000
0000
0000
,
0100
0000
0000
0000
,
1000
0000
0000
0000
,
0001
0000
0000
0000
,
1000
0000
0000
0000
,
1001
0000
0000
0000
,
0001
0000
0000
0000
,
1000
0000
0000
0000
,
0001
0000
0000
0000
,
1001
0000
0000
0000
,
0001
0000
0000
0000
,
1001
0000
0000
0000
,
0100
0000
0000
0000
,
0110
0000
0000
0000
;
